osu file format v12

[General]
AudioFilename: Walking in the NIGHT.mp3
AudioLeadIn: 1004
PreviewTime: 58477
Countdown: 0
SampleSet: Normal
StackLeniency: 0.7
Mode: 1
LetterboxInBreaks: 0
SkinPreference:taiko
WidescreenStoryboard: 0

[Editor]
Bookmarks: 750,15295,29841,44386,58932,88022
DistanceSpacing: 1
BeatDivisor: 4
GridSize: 8

[Metadata]
Title:Walking in the NIGHT
TitleUnicode:Walking in the NIGHT
Artist:Linjin
ArtistUnicode:隣人
Creator:OnosakiHito
Version:Oni
Source:Touhou
Tags:ZYTOKINE CYTOKINE rumia embodiment of scarlet devil itori jiro jiiro cut version
BeatmapID:264454
BeatmapSetID:99439

[Difficulty]
HPDrainRate:6
CircleSize:4
OverallDifficulty:5
ApproachRate:5
SliderMultiplier:1.4
SliderTickRate:1

[Events]
//Background and Video events
0,0,"BG.jpg",0,0
//Break Periods
//Storyboard Layer 0 (Background)
//Storyboard Layer 1 (Fail)
//Storyboard Layer 2 (Pass)
//Storyboard Layer 3 (Foreground)
//Storyboard Sound Samples
//Background Colour Transformations
3,100,163,162,255

[TimingPoints]
750.198089308004,454.545454545455,4,1,0,100,1,0
58932,-100,4,1,0,100,0,1
88022,-100,4,1,0,100,0,0

[HitObjects]
256,192,750,1,0,0:0:0:0:
256,192,863,1,0,0:0:0:0:
256,192,1204,5,8,0:0:0:0:
256,192,1432,5,0,0:0:0:0:
256,192,1545,1,0,0:0:0:0:
256,192,2568,1,0,0:0:0:0:
256,192,2682,1,0,0:0:0:0:
256,192,3022,5,8,0:0:0:0:
256,192,3250,5,0,0:0:0:0:
256,192,3363,1,0,0:0:0:0:
256,192,3704,1,0,0:0:0:0:
256,192,3818,1,0,0:0:0:0:
256,192,3932,1,0,0:0:0:0:
256,192,4159,5,8,0:0:0:0:
256,192,4386,5,0,0:0:0:0:
256,192,4500,1,0,0:0:0:0:
256,192,4841,5,8,0:0:0:0:
256,192,5068,5,0,0:0:0:0:
256,192,5182,1,0,0:0:0:0:
256,192,6204,1,0,0:0:0:0:
256,192,6318,1,0,0:0:0:0:
256,192,6659,5,8,0:0:0:0:
256,192,6886,5,0,0:0:0:0:
256,192,7000,1,0,0:0:0:0:
256,192,7341,5,8,0:0:0:0:
256,192,7454,1,8,0:0:0:0:
256,192,7568,1,8,0:0:0:0:
256,192,7795,1,8,0:0:0:0:
256,192,8022,5,0,0:0:0:0:
256,192,8477,5,8,0:0:0:0:
256,192,8818,5,0,0:0:0:0:
256,192,8932,1,0,0:0:0:0:
256,192,9159,1,0,0:0:0:0:
256,192,9386,5,8,0:0:0:0:
256,192,9841,5,0,0:0:0:0:
256,192,10295,5,8,0:0:0:0:
256,192,10636,5,0,0:0:0:0:
256,192,10750,1,0,0:0:0:0:
256,192,10977,1,0,0:0:0:0:
256,192,11204,5,8,0:0:0:0:
256,192,11432,1,8,0:0:0:0:
256,192,11659,5,0,0:0:0:0:
256,192,12113,5,8,0:0:0:0:
256,192,12454,5,0,0:0:0:0:
256,192,12568,1,0,0:0:0:0:
256,192,12795,1,0,0:0:0:0:
256,192,13022,5,8,0:0:0:0:
256,192,13136,1,8,0:0:0:0:
256,192,13250,1,8,0:0:0:0:
256,192,13477,5,4,0:0:0:0:
256,192,15295,1,0,0:0:0:0:
256,192,15522,5,8,0:0:0:0:
256,192,15636,1,8,0:0:0:0:
256,192,15750,5,0,0:0:0:0:
256,192,15977,5,8,0:0:0:0:
256,192,16204,5,0,0:0:0:0:
256,192,16659,5,8,0:0:0:0:
256,192,17113,5,0,0:0:0:0:
256,192,17341,5,8,0:0:0:0:
256,192,17454,1,8,0:0:0:0:
256,192,17568,5,0,0:0:0:0:
256,192,17795,5,8,0:0:0:0:
256,192,18022,5,0,0:0:0:0:
256,192,18250,5,8,0:0:0:0:
256,192,18477,1,8,0:0:0:0:
256,192,18932,5,0,0:0:0:0:
256,192,19159,5,8,0:0:0:0:
256,192,19272,1,8,0:0:0:0:
256,192,19386,5,0,0:0:0:0:
256,192,19613,5,8,0:0:0:0:
256,192,19841,5,0,0:0:0:0:
256,192,20295,5,8,0:0:0:0:
256,192,20522,5,0,0:0:0:0:
256,192,20636,1,0,0:0:0:0:
256,192,20750,1,0,0:0:0:0:
256,192,20977,5,8,0:0:0:0:
256,192,21091,1,8,0:0:0:0:
256,192,21204,1,8,0:0:0:0:
256,192,21432,5,0,0:0:0:0:
256,192,21659,5,8,0:0:0:0:
256,192,21886,1,8,0:0:0:0:
256,192,22113,1,8,0:0:0:0:
256,192,22568,5,0,0:0:0:0:
256,192,22795,5,8,0:0:0:0:
256,192,22909,1,8,0:0:0:0:
256,192,23022,5,0,0:0:0:0:
256,192,23250,5,8,0:0:0:0:
256,192,23477,5,0,0:0:0:0:
256,192,23932,5,8,0:0:0:0:
256,192,24386,5,0,0:0:0:0:
256,192,24613,5,8,0:0:0:0:
256,192,24727,1,8,0:0:0:0:
256,192,24841,5,0,0:0:0:0:
256,192,25068,5,8,0:0:0:0:
256,192,25295,5,0,0:0:0:0:
256,192,25522,5,8,0:0:0:0:
256,192,25750,1,8,0:0:0:0:
256,192,26204,5,0,0:0:0:0:
256,192,26432,5,8,0:0:0:0:
256,192,26545,1,8,0:0:0:0:
256,192,26659,5,0,0:0:0:0:
256,192,26886,5,8,0:0:0:0:
256,192,27113,5,0,0:0:0:0:
256,192,27568,5,8,0:0:0:0:
256,192,27795,5,0,0:0:0:0:
256,192,27909,1,0,0:0:0:0:
256,192,28022,1,0,0:0:0:0:
256,192,28250,5,8,0:0:0:0:
256,192,28363,1,8,0:0:0:0:
256,192,28477,1,8,0:0:0:0:
256,192,28704,5,0,0:0:0:0:
256,192,28932,5,8,0:0:0:0:
256,192,29159,1,8,0:0:0:0:
256,192,29386,1,8,0:0:0:0:
256,192,29841,5,4,0:0:0:0:
256,192,30295,5,8,0:0:0:0:
256,192,30977,5,0,0:0:0:0:
256,192,31204,5,8,0:0:0:0:
256,192,32113,1,8,0:0:0:0:
256,192,32568,5,0,0:0:0:0:
256,192,32795,1,0,0:0:0:0:
256,192,33022,5,8,0:0:0:0:
256,192,33477,5,0,0:0:0:0:
256,192,33932,5,8,0:0:0:0:
256,192,34159,1,8,0:0:0:0:
256,192,34386,5,0,0:0:0:0:
256,192,34841,5,8,0:0:0:0:
256,192,35295,5,0,0:0:0:0:
256,192,35750,5,8,0:0:0:0:
256,192,35977,5,0,0:0:0:0:
256,192,36432,1,0,0:0:0:0:
256,192,36659,5,8,0:0:0:0:
256,192,37113,5,0,0:0:0:0:
256,192,37568,5,8,0:0:0:0:
256,192,38250,5,0,0:0:0:0:
256,192,38477,5,8,0:0:0:0:
256,192,39386,1,8,0:0:0:0:
256,192,39841,5,0,0:0:0:0:
256,192,40068,1,0,0:0:0:0:
256,192,40295,5,8,0:0:0:0:
256,192,40750,5,0,0:0:0:0:
256,192,41204,5,8,0:0:0:0:
256,192,41659,5,0,0:0:0:0:
256,192,41886,1,0,0:0:0:0:
256,192,42113,5,8,0:0:0:0:
256,192,42341,1,8,0:0:0:0:
256,192,42568,5,0,0:0:0:0:
256,192,43022,5,8,0:0:0:0:
256,192,43250,5,0,0:0:0:0:
256,192,43704,1,0,0:0:0:0:
256,192,43932,5,8,0:0:0:0:
256,192,44159,1,8,0:0:0:0:
256,192,44386,5,4,0:0:0:0:
256,192,44841,5,8,0:0:0:0:
256,192,45068,5,0,0:0:0:0:
256,192,45522,1,0,0:0:0:0:
256,192,45636,1,0,0:0:0:0:
256,192,45750,5,8,0:0:0:0:
256,192,46204,5,0,0:0:0:0:
256,192,46432,1,0,0:0:0:0:
256,192,46659,5,8,0:0:0:0:
256,192,46886,5,0,0:0:0:0:
256,192,47341,1,0,0:0:0:0:
256,192,47454,1,0,0:0:0:0:
256,192,47568,5,8,0:0:0:0:
256,192,48022,5,0,0:0:0:0:
256,192,48477,5,8,0:0:0:0:
256,192,48704,5,0,0:0:0:0:
256,192,49159,1,0,0:0:0:0:
256,192,49386,5,8,0:0:0:0:
256,192,49613,5,0,0:0:0:0:
256,192,49841,1,0,0:0:0:0:
256,192,49954,1,0,0:0:0:0:
256,192,50068,1,0,0:0:0:0:
256,192,50295,5,8,0:0:0:0:
256,192,50522,5,0,0:0:0:0:
256,192,50977,1,0,0:0:0:0:
256,192,51091,1,0,0:0:0:0:
256,192,51204,5,8,0:0:0:0:
256,192,51432,1,8,0:0:0:0:
256,192,51659,5,0,0:0:0:0:
256,192,51886,1,0,0:0:0:0:
256,192,52113,5,8,0:0:0:0:
256,192,52341,5,0,0:0:0:0:
256,192,52795,1,0,0:0:0:0:
256,192,52909,1,0,0:0:0:0:
256,192,53022,5,8,0:0:0:0:
256,192,53250,5,0,0:0:0:0:
256,192,53704,1,0,0:0:0:0:
256,192,53932,5,8,0:0:0:0:
256,192,54159,5,0,0:0:0:0:
256,192,54613,1,0,0:0:0:0:
256,192,54727,1,0,0:0:0:0:
256,192,54841,5,8,0:0:0:0:
256,192,55068,1,8,0:0:0:0:
256,192,55295,5,0,0:0:0:0:
256,192,55522,1,0,0:0:0:0:
256,192,55750,1,8,0:0:0:0:
256,192,55977,5,0,0:0:0:0:
256,192,56432,1,0,0:0:0:0:
256,192,56545,1,0,0:0:0:0:
256,192,56659,1,0,0:0:0:0:
256,192,56772,1,0,0:0:0:0:
256,192,56886,1,0,0:0:0:0:
256,192,57113,5,12,0:0:0:0:
256,192,58022,5,12,0:0:0:0:
256,192,58477,1,12,0:0:0:0:
256,192,58932,5,0,0:0:0:0:
256,192,59159,5,8,0:0:0:0:
256,192,59272,1,8,0:0:0:0:
256,192,59386,5,0,0:0:0:0:
256,192,59613,5,8,0:0:0:0:
256,192,59841,5,0,0:0:0:0:
256,192,60295,5,8,0:0:0:0:
256,192,60750,5,0,0:0:0:0:
256,192,60977,5,8,0:0:0:0:
256,192,61091,1,8,0:0:0:0:
256,192,61204,5,0,0:0:0:0:
256,192,61432,5,8,0:0:0:0:
256,192,61659,5,0,0:0:0:0:
256,192,62113,5,8,0:0:0:0:
256,192,62568,5,0,0:0:0:0:
256,192,62795,5,8,0:0:0:0:
256,192,62909,1,8,0:0:0:0:
256,192,63022,1,8,0:0:0:0:
256,192,63250,1,8,0:0:0:0:
256,192,63477,5,0,0:0:0:0:
256,192,63704,5,8,0:0:0:0:
256,192,63818,1,8,0:0:0:0:
256,192,63932,5,8,0:0:0:0:
256,192,64386,5,0,0:0:0:0:
256,192,64613,5,8,0:0:0:0:
256,192,64727,1,8,0:0:0:0:
256,192,64841,5,0,0:0:0:0:
256,192,65068,5,8,0:0:0:0:
256,192,65295,5,0,0:0:0:0:
256,192,65522,1,0,0:0:0:0:
256,192,65750,5,8,0:0:0:0:
256,192,66204,5,0,0:0:0:0:
256,192,66432,5,8,0:0:0:0:
256,192,66545,1,8,0:0:0:0:
256,192,66659,5,0,0:0:0:0:
256,192,66886,5,8,0:0:0:0:
256,192,67113,5,0,0:0:0:0:
256,192,67568,5,8,0:0:0:0:
256,192,68022,5,0,0:0:0:0:
256,192,68250,5,8,0:0:0:0:
256,192,68363,1,8,0:0:0:0:
256,192,68477,5,0,0:0:0:0:
256,192,68704,5,8,0:0:0:0:
256,192,68932,5,0,0:0:0:0:
256,192,69386,5,8,0:0:0:0:
256,192,69841,5,0,0:0:0:0:
256,192,70068,5,8,0:0:0:0:
256,192,70182,1,8,0:0:0:0:
256,192,70295,1,8,0:0:0:0:
256,192,70409,1,8,0:0:0:0:
256,192,70522,1,8,0:0:0:0:
256,192,70750,5,0,0:0:0:0:
256,192,70977,5,8,0:0:0:0:
256,192,71091,1,8,0:0:0:0:
256,192,71204,1,8,0:0:0:0:
256,192,71659,5,0,0:0:0:0:
256,192,71886,5,8,0:0:0:0:
256,192,72000,1,8,0:0:0:0:
256,192,72113,5,0,0:0:0:0:
256,192,72341,5,8,0:0:0:0:
256,192,72568,5,0,0:0:0:0:
256,192,72795,1,0,0:0:0:0:
256,192,73022,5,8,0:0:0:0:
256,192,73477,5,4,0:0:0:0:
256,192,73818,5,8,0:0:0:0:
256,192,73932,5,0,0:0:0:0:
256,192,74159,1,8,0:0:0:0:
256,192,74386,5,0,0:0:0:0:
256,192,74500,1,0,0:0:0:0:
256,192,74613,1,0,0:0:0:0:
256,192,74841,5,8,0:0:0:0:
256,192,75295,5,0,0:0:0:0:
256,192,75636,5,8,0:0:0:0:
256,192,75750,5,0,0:0:0:0:
256,192,75977,1,8,0:0:0:0:
256,192,76204,5,0,0:0:0:0:
256,192,76318,1,0,0:0:0:0:
256,192,76432,1,0,0:0:0:0:
256,192,76659,5,8,0:0:0:0:
256,192,77113,5,0,0:0:0:0:
256,192,77341,5,8,0:0:0:0:
256,192,77454,1,8,0:0:0:0:
256,192,77568,5,0,0:0:0:0:
256,192,77795,5,8,0:0:0:0:
256,192,78022,5,0,0:0:0:0:
256,192,78250,1,8,0:0:0:0:
256,192,78363,1,8,0:0:0:0:
256,192,78477,5,0,0:0:0:0:
256,192,78932,5,0,0:0:0:0:
256,192,79159,1,8,0:0:0:0:
256,192,79272,1,8,0:0:0:0:
256,192,79386,5,0,0:0:0:0:
256,192,79613,5,8,0:0:0:0:
256,192,79841,5,0,0:0:0:0:
256,192,79954,1,0,0:0:0:0:
256,192,80068,1,0,0:0:0:0:
256,192,80295,5,8,0:0:0:0:
256,192,80750,5,0,0:0:0:0:
256,192,81091,5,8,0:0:0:0:
256,192,81204,5,0,0:0:0:0:
256,192,81432,5,8,0:0:0:0:
256,192,81659,5,0,0:0:0:0:
256,192,81772,1,0,0:0:0:0:
256,192,81886,1,0,0:0:0:0:
256,192,82113,5,8,0:0:0:0:
256,192,82341,5,0,0:0:0:0:
256,192,82568,1,0,0:0:0:0:
256,192,82909,5,8,0:0:0:0:
256,192,83022,5,0,0:0:0:0:
256,192,83250,5,8,0:0:0:0:
256,192,83477,5,0,0:0:0:0:
256,192,83591,1,0,0:0:0:0:
256,192,83704,1,0,0:0:0:0:
256,192,83932,5,8,0:0:0:0:
256,192,84386,5,0,0:0:0:0:
256,192,84613,5,8,0:0:0:0:
256,192,84727,1,8,0:0:0:0:
256,192,84841,1,8,0:0:0:0:
256,192,85068,5,0,0:0:0:0:
256,192,85295,5,8,0:0:0:0:
256,192,85409,1,8,0:0:0:0:
256,192,85522,1,8,0:0:0:0:
256,192,85750,5,0,0:0:0:0:
256,192,85977,5,8,0:0:0:0:
256,192,86204,5,4,0:0:0:0:
256,192,87000,5,8,0:0:0:0:
256,192,87113,5,0,0:0:0:0:
256,192,87341,1,0,0:0:0:0:
256,192,87568,5,8,0:0:0:0:
256,192,88022,5,4,0:0:0:0:
