osu file format v14

[General]
AudioFilename: mp3.mp3
AudioLeadIn: 0
PreviewTime: 54389
Countdown: 0
SampleSet: Soft
StackLeniency: 0.7
Mode: 0
LetterboxInBreaks: 0
WidescreenStoryboard: 1

[Editor]
Bookmarks: 30305
DistanceSpacing: 1.5
BeatDivisor: 4
GridSize: 4
TimelineZoom: 3.099998

[Metadata]
Title:Enigmatic Feeling (TV edit)
TitleUnicode:Enigmatic Feeling (TV edit)
Artist:Ling tosite sigure
ArtistUnicode:凛として時雨
Creator:ZZHBOY
Version:Hard
Source:PSYCHO-PASS 2
Tags:PSYCHO-PASS II 2 opening
BeatmapID:645294
BeatmapSetID:233898

[Difficulty]
HPDrainRate:5
CircleSize:3
OverallDifficulty:5
ApproachRate:6
SliderMultiplier:1.4
SliderTickRate:1

[Events]
//Background and Video events
0,0,"bg.jpg",0,0
Video,340,"video.avi"
//Break Periods
2,47828,51649
//Storyboard Layer 0 (Background)
//Storyboard Layer 1 (Fail)
//Storyboard Layer 2 (Pass)
//Storyboard Layer 3 (Foreground)
//Storyboard Sound Samples

[TimingPoints]
305,422.535211267606,4,2,0,60,1,0
54812,-100,4,2,0,80,0,1
81431,-100,4,2,0,60,0,0

[Colours]
Combo1 : 228,255,136
Combo2 : 182,210,254
Combo3 : 204,204,204

[HitObjects]
68,116,305,6,0,P|136:164|208:152,1,140
276,104,938,1,0,0:0:0:0:
284,208,1150,2,0,L|288:280,1,70
188,304,1572,2,0,L|132:376,1,70
52,312,1995,6,0,P|52:228|60:144,1,140
88,72,2628,1,0,0:0:0:0:
184,112,2840,2,0,L|272:100,1,70
336,40,3262,2,0,L|432:48,1,70
468,128,3685,6,0,P|476:192|452:276,1,140
376,332,4319,1,0,0:0:0:0:
272,340,4530,2,0,L|176:336,1,70
168,236,4952,2,0,L|264:240,1,70
256,192,5375,12,0,7065,0:0:0:0:
432,64,7488,5,0,0:0:0:0:
392,272,7910,2,0,P|358:282|323:279,1,70
232,232,8333,1,0,0:0:0:0:
136,192,8544,2,0,P|101:189|67:199,1,70
128,332,9178,5,0,0:0:0:0:
336,304,9600,2,0,L|428:308,1,70
408,200,10023,2,0,L|472:172,1,70
428,76,10445,1,0,0:0:0:0:
216,68,10868,6,0,P|208:120|216:160,1,70
268,224,11290,2,0,P|269:258|261:292,1,70
180,360,11713,1,0,0:0:0:0:
80,332,11924,1,0,0:0:0:0:
56,228,12135,1,0,0:0:0:0:
208,80,12558,6,0,L|212:176,1,70
296,212,12981,2,0,L|280:284,2,70
376,144,13614,1,0,0:0:0:0:
468,192,13826,5,0,0:0:0:0:
340,360,14248,1,0,0:0:0:0:
236,368,14459,2,0,P|176:368|92:320,1,140
108,228,15093,1,0,0:0:0:0:
96,124,15305,1,0,0:0:0:0:
194,161,15516,6,0,P|214:201|198:285,2,105
172,57,16361,1,0,0:0:0:0:
270,22,16572,1,0,0:0:0:0:
348,91,16783,2,0,L|445:84,1,70
493,159,17206,6,0,P|514:237|499:306,1,140
405,332,17840,2,0,L|257:341,1,140
171,291,18474,1,0,0:0:0:0:
67,308,18685,1,0,0:0:0:0:
101,209,18896,6,0,P|99:131|66:61,1,140
176,44,19530,2,0,P|268:54|364:36,1,140
403,106,20164,1,0,0:0:0:0:
309,153,20375,1,0,0:0:0:0:
304,257,20586,6,0,P|331:336|376:369,1,140
471,327,21220,2,0,P|477:247|468:155,1,140
427,92,21854,1,0,0:0:0:0:
322,80,22065,1,0,0:0:0:0:
223,115,22276,6,0,P|160:121|112:115,2,105
307,178,23121,1,0,0:0:0:0:
284,280,23333,2,0,L|278:355,1,70
175,370,23755,1,0,0:0:0:0:
81,321,23966,6,0,P|61:245|71:160,1,140
134,105,24600,2,0,P|233:114|314:109,1,140
376,91,25234,1,0,0:0:0:0:
302,16,25445,1,0,0:0:0:0:
256,192,25657,12,0,27347,0:0:0:0:
148,76,27769,5,0,0:0:0:0:
332,180,28192,2,0,L|316:260,1,70
124,164,28826,5,0,0:0:0:0:
204,228,29037,2,0,P|223:305|197:358,1,140
270,159,29882,2,0,P|347:140|400:166,1,140
441,260,30516,1,0,0:0:0:0:
389,351,30727,6,0,P|323:371|259:344,1,140
198,259,31361,1,0,0:0:0:0:
202,156,31572,2,0,L|284:120,1,70
476,102,32206,1,0,0:0:0:0:
385,48,32417,6,0,P|373:81|373:116,1,70
321,208,32840,2,0,P|353:219|388:219,1,70
413,320,33262,2,0,P|343:326|278:302,1,140
217,216,33896,1,0,0:0:0:0:
202,112,34107,6,0,P|144:78|71:131,1,140
69,211,34741,2,0,P|74:269|75:353,1,140
179,362,35375,1,0,0:0:0:0:
274,318,35586,1,0,0:0:0:0:
374,346,35797,6,0,P|468:346|502:357,2,105
346,243,36643,1,0,0:0:0:0:
386,146,36854,2,0,L|479:158,1,70
504,62,37276,1,0,0:0:0:0:
403,30,37488,6,0,P|337:40|283:86,1,140
277,191,38121,2,0,P|279:274|263:331,1,140
162,357,38755,1,0,0:0:0:0:
71,304,38966,1,0,0:0:0:0:
100,202,39178,6,0,P|101:122|89:46,1,140
196,79,39812,2,0,P|272:79|339:55,1,140
431,91,40445,1,0,0:0:0:0:
478,185,40657,1,0,0:0:0:0:
450,286,40868,6,0,P|390:335|287:327,1,140
243,281,41502,2,0,P|159:276|98:305,1,140
33,223,42135,1,0,0:0:0:0:
47,118,42347,1,0,0:0:0:0:
136,64,42558,6,0,P|84:19|20:17,2,105
139,169,43403,1,0,0:0:0:0:
195,257,43614,2,0,L|288:262,1,70
318,170,44037,1,0,0:0:0:0:
410,121,44248,6,0,P|475:184|466:246,1,140
430,324,44882,2,0,P|363:307|285:346,1,140
198,364,45516,1,0,0:0:0:0:
134,280,45727,1,0,0:0:0:0:
191,192,45938,5,0,0:0:0:0:
361,226,46783,6,0,L|508:204,2,140
79,119,52699,5,0,0:0:0:0:
285,82,53121,2,0,L|284:167,1,70
219,281,53544,2,0,P|285:299|351:278,1,140
447,92,54389,1,0,0:0:0:0:
237,110,54812,6,0,L|128:138,1,70
108,212,55234,2,0,P|125:307|148:338,2,105
68,114,56079,1,0,0:0:0:0:
135,33,56290,1,0,0:0:0:0:
240,36,56502,6,0,L|338:49,1,70
392,109,56924,2,0,P|443:114|501:95,2,105
289,135,57769,1,0,0:0:0:0:
262,237,57981,1,0,0:0:0:0:
317,325,58192,6,0,L|416:337,1,70
375,229,58614,2,0,L|450:220,1,70
405,122,59037,2,0,L|479:83,1,70
385,22,59459,6,0,P|334:43|234:46,1,140
151,11,60093,1,0,0:0:0:0:
58,61,60305,2,0,P|56:113|65:144,1,70
134,203,60727,2,0,P|139:237|135:272,1,70
62,347,61150,1,0,0:0:0:0:
238,234,61572,6,0,L|335:238,1,70
402,283,61995,2,0,P|399:337|370:393,2,105
392,178,62840,1,0,0:0:0:0:
416,75,63051,1,0,0:0:0:0:
339,2,63262,6,0,L|271:22,1,70
179,71,63685,2,0,P|112:78|60:54,2,105
266,129,64530,1,0,0:0:0:0:
256,233,64741,1,0,0:0:0:0:
298,328,64952,6,0,L|373:334,1,70
445,262,65375,2,0,P|472:307|467:371,2,105
381,177,66220,6,0,L|396:72,2,105
275,170,67065,2,0,L|260:273,2,105
223,77,67910,6,0,P|165:44|73:69,1,140
60,261,68755,2,0,P|118:294|210:269,1,140
276,226,69389,6,0,P|343:215|404:249,2,140
183,176,70445,2,0,P|172:108|206:47,1,140
409,101,71290,1,0,0:0:0:0:
458,194,71502,6,0,P|480:255|432:344,1,140
358,361,72135,2,0,L|246:372,2,105
382,257,72981,6,0,L|259:255,2,105
472,202,73826,2,0,P|490:128|461:68,1,140
363,45,74459,1,0,0:0:0:0:
299,129,74671,6,0,P|233:152|165:142,1,140
66,328,75516,2,0,P|131:304|199:314,1,140
298,351,76150,6,0,P|366:361|431:337,2,140
281,247,77206,2,0,P|291:178|267:113,1,140
66,51,78051,5,0,0:0:0:0:
117,254,78896,5,0,0:0:0:0:
337,184,79741,6,0,L|464:191,2,105
238,146,80586,2,0,P|232:203|287:278,2,140
