osu file format v12

[General]
AudioFilename: abnormalize.mp3
AudioLeadIn: 2000
PreviewTime: 66843
Countdown: 0
SampleSet: Soft
StackLeniency: 0.7
Mode: 0
LetterboxInBreaks: 0
WidescreenStoryboard: 0

[Editor]
DistanceSpacing: 0.8
BeatDivisor: 4
GridSize: 8

[Metadata]
Title:abnormalize (TV edit)
TitleUnicode:abnormalize (TV edit)
Artist:Ling Tosite Sigure
ArtistUnicode:凛として時雨
Creator:Kiiwa
Version:Normal
Source:PSYCHO-PASS
Tags:0gre Beren Opening OP T.V. Size
BeatmapID:218921
BeatmapSetID:77628

[Difficulty]
HPDrainRate:3
CircleSize:3
OverallDifficulty:3
ApproachRate:3
SliderMultiplier:1.01
SliderTickRate:2

[Events]
//Background and Video events
0,0,"bg.jpg",0,0
//Break Periods
2,50108,53954
//Storyboard Layer 0 (Background)
//Storyboard Layer 1 (Fail)
//Storyboard Layer 2 (Pass)
//Storyboard Layer 3 (Foreground)
//Storyboard Sound Samples
//Background Colour Transformations
3,100,163,162,255

[TimingPoints]
537,342.857142857143,4,2,0,40,1,0
11165,-100,4,2,0,30,0,0
11508,-100,4,2,0,40,0,0
17337,-100,4,2,0,10,0,0
17679,-100,4,2,0,15,0,0
18022,-100,4,2,0,20,0,0
18365,-100,4,2,0,25,0,0
18708,-100,4,2,0,30,0,0
19051,-100,4,2,0,35,0,0
19394,-100,4,2,0,40,0,0
22479,-100,4,2,0,50,0,0
38937,-100,4,1,1,50,0,0
49908,-133.333333333333,4,2,0,69,0,0
55394,-100,4,2,0,69,0,0
66366,-100,4,1,1,69,0,0
70479,-100,4,1,0,79,0,1
71852,-100,4,1,1,69,0,0
81451,-100,4,1,0,79,0,1
82823,-100,4,1,0,69,0,0
85566,-100,4,2,0,49,0,0

[Colours]
Combo1 : 97,148,131
Combo2 : 87,133,157
Combo3 : 115,96,149

[HitObjects]
103,262,537,6,0,P|189:314|293:304,1,202,2|0,0:0|0:0,0:0:0:0:
328,232,1565,1,0,0:0:0:0:
329,150,1908,2,0,P|243:98|139:108,2,202,2|0|2,0:0|0:0|0:0,0:0:0:0:
424,280,3965,6,0,L|464:169,1,101,2|0,0:0|0:0,0:0:0:0:
408,121,4651,1,2,0:0:0:0:
425,281,5337,1,0,0:0:0:0:
351,313,5679,1,0,0:0:0:0:
277,345,6022,6,0,P|207:371|20:267,1,303,2|0,0:0|0:0,0:0:0:0:
6,189,7394,2,0,P|-3:121|40:37,1,151.5,2|0,0:0|0:0,0:0:0:0:
148,19,8422,1,0,0:0:0:0:
148,19,8765,6,0,L|312:16,2,151.5,2|0|0,0:0|0:0|0:0,0:0:0:0:
256,248,11165,6,0,B|264:304|264:304|256:360,1,101,0|4,1:0|1:0,0:0:0:0:
352,216,12194,6,0,P|278:150|174:189,2,202,0|0|0,1:0|0:0|1:0,0:0:0:0:
464,104,14251,2,0,L|488:216,1,101,0|0,0:0|1:0,0:0:0:0:
504,280,14937,1,0,0:0:0:0:
504,280,15622,1,0,0:0:0:0:
357,348,16308,6,0,P|307:368|246:252,1,202,0|4,1:0|0:0,0:0:0:0:
256,192,17165,12,2,21108,0:0:0:0:
106,80,22479,6,0,L|121:296,1,202,4|0,0:0|1:0,0:0:0:0:
270,340,23851,2,0,P|361:369|471:212,1,303,0|0,0:0|1:0,0:0:0:0:
475,144,25222,6,0,L|498:29,1,101,0|0,0:0|1:0,0:0:0:0:
312,48,26251,2,0,B|289:163|289:163|96:216,1,303,0|0,1:0|1:0,0:0:0:0:
32,234,27622,2,0,P|51:280|64:297,1,50.5,0|0,1:0|1:0,0:0:0:0:
89,290,27965,6,0,P|149:352|355:334,1,303,4|0,0:0|1:0,0:0:0:0:
429,354,29337,2,0,L|440:39,1,303,0|0,0:0|1:0,0:0:0:0:
362,26,30708,5,0,0:0:0:0:
213,89,31394,1,0,0:0:0:0:
60,35,32079,2,0,L|54:145,1,101,0|0,0:0|1:0,0:0:0:0:
99,203,32765,2,0,L|93:313,1,101,0|0,0:0|1:0,0:0:0:0:
155,355,33451,6,0,B|307:338|307:338|454:366,1,303,4|0,0:0|1:0,0:0:0:0:
493,295,34822,2,0,P|469:207|505:97,1,202
422,126,35851,1,0,1:0:0:0:
348,160,36194,6,0,P|280:191|60:133,1,303,0|0,0:0|1:0,0:0:0:0:
14,78,37565,2,0,P|0:53|-3:15,2,50.5,4|0|0,0:0|0:0|1:0,0:0:0:0:
67,139,38251,2,0,P|96:214|52:323,1,202,4|4,0:0|0:0,0:0:0:0:
131,339,39279,5,8,0:0:0:0:
165,366,39451,2,0,L|325:353,1,151.5,0|8,0:0|0:0,0:0:0:0:
396,364,40308,1,0,0:0:0:0:
451,305,40651,1,8,0:0:0:0:
505,244,40994,1,0,0:0:0:0:
425,228,41337,1,8,0:0:0:0:
346,209,41679,6,0,P|300:210|242:84,2,202
426,203,43394,2,0,P|474:197|507:251,1,101,8|0,0:0|0:0,0:0:0:0:
444,285,44079,1,8,0:0:0:0:
447,325,44251,1,0,0:0:0:0:
465,360,44422,1,4,0:0:0:0:
300,365,45108,6,0,P|196:288|27:342,1,303,0|8,0:0|0:0,0:0:0:0:
19,251,46479,2,0,L|42:27,1,202
118,33,47508,1,8,0:0:0:0:
197,15,47851,1,0,0:0:0:0:
358,3,48537,5,8,0:0:0:0:
406,157,49222,1,0,0:0:0:0:
454,311,49908,1,4,0:0:0:0:
293,323,55394,6,0,P|376:306|404:315,1,101,4|0,0:0|1:0,0:0:0:0:
470,310,56079,2,0,P|416:309|342:187,1,202,0|4,0:0|0:0,0:0:0:0:
376,123,57108,6,0,L|266:102,1,101,0|0,1:0|0:0,0:0:0:0:
224,166,57794,2,0,L|114:145,1,101,0|4,1:0|0:0,0:0:0:0:
54,186,58479,5,0,1:0:0:0:
34,264,58822,2,0,P|50:348|154:366,1,202,0|0,0:0|1:0,0:0:0:0:
233,359,59851,2,0,P|274:354|296:370,1,50.5,0|2,1:0|0:0,0:0:0:0:
431,222,60879,5,4,0:0:0:0:
256,192,61222,12,2,64994,2:0:0:0:
270,308,65679,6,0,L|255:236,1,50.5,0|0,1:0|0:0,0:0:0:0:
251,218,66022,1,0,1:0:0:0:
192,139,66365,6,0,B|157:203|157:203|188:350,1,202,4|0,0:0|0:0,0:0:0:0:
261,351,67394,1,8,0:0:0:0:
339,372,67737,2,0,L|318:273,1,101,0|8,0:0|0:0,0:0:0:0:
367,209,68422,1,0,0:0:0:0:
248,319,69108,2,0,P|211:352|50:332,1,202
22,278,70137,1,8,0:0:0:0:
10,198,70479,6,0,B|16:150|16:150|3:87,1,101,4|0,0:0|0:0,0:0:0:0:
37,72,70994,1,0,0:0:0:0:
67,46,71165,2,0,P|125:47|184:41,1,101,0|0,0:0|0:0,0:0:0:0:
247,31,71851,6,0,P|321:26|409:128,1,202,4|0,0:0|0:0,0:0:0:0:
489,249,73222,2,0,L|171:268,1,303,0|8,0:0|0:0,0:0:0:0:
105,272,74594,5,0,0:0:0:0:
40,123,75279,1,0,0:0:0:0:
105,272,75965,2,0,L|152:363,2,101,0|8|0,0:0|0:0|0:0,0:0:0:0:
73,197,76994,1,8,0:0:0:0:
40,123,77337,6,0,B|10:65|10:65|251:31,1,303,4|8,0:0|0:0,0:0:0:0:
325,18,78708,2,0,P|394:15|420:207,1,303,0|8,0:0|0:0,0:0:0:0:
380,265,80079,2,0,B|349:309|349:309|189:351,1,202
140,298,81108,1,8,0:0:0:0:
74,344,81451,5,4,0:0:0:0:
60,264,81794,1,0,0:0:0:0:
53,224,81965,1,0,0:0:0:0:
40,144,82308,1,0,0:0:0:0:
20,24,82822,6,0,B|112:56|112:56|442:33,1,404,4|4,0:0|0:0,0:0:0:0:
256,192,85565,12,4,88137,0:0:0:0:
