osu file format v12

[General]
AudioFilename: abnormalize.mp3
AudioLeadIn: 2000
PreviewTime: 66843
Countdown: 0
SampleSet: Soft
StackLeniency: 0.7
Mode: 0
LetterboxInBreaks: 0
WidescreenStoryboard: 0

[Editor]
DistanceSpacing: 1.3
BeatDivisor: 4
GridSize: 8

[Metadata]
Title:abnormalize (TV edit)
TitleUnicode:abnormalize (TV edit)
Artist:Ling Tosite Sigure
ArtistUnicode:凛として時雨
Creator:Kiiwa
Version:Insane
Source:PSYCHO-PASS
Tags:0gre Beren Opening OP T.V. Size
BeatmapID:217717
BeatmapSetID:77628

[Difficulty]
HPDrainRate:7
CircleSize:4
OverallDifficulty:8
ApproachRate:9
SliderMultiplier:2.05
SliderTickRate:2

[Events]
//Background and Video events
0,0,"bg.jpg",0,0
//Break Periods
//Storyboard Layer 0 (Background)
//Storyboard Layer 1 (Fail)
//Storyboard Layer 2 (Pass)
//Storyboard Layer 3 (Foreground)
//Storyboard Sound Samples
//Background Colour Transformations
3,100,163,162,255

[TimingPoints]
537,342.857142857143,4,2,0,30,1,0
708,-200,4,2,0,40,0,0
11165,-100,4,2,0,30,0,0
11508,-100,4,2,0,40,0,0
17337,-100,4,2,0,10,0,0
17679,-100,4,2,0,15,0,0
18022,-100,4,2,0,20,0,0
18365,-100,4,2,0,25,0,0
18708,-100,4,2,0,30,0,0
19051,-100,4,2,0,35,0,0
19394,-100,4,2,0,40,0,0
22479,-100,4,2,0,50,0,0
38937,-100,4,1,1,50,0,0
44422,-100,4,2,0,50,0,0
44508,-100,4,1,1,50,0,0
49908,-133.333333333333,4,2,0,69,0,0
50079,-133.333333333333,4,2,0,12,0,0
55394,-100,4,2,0,69,0,0
60965,-100,4,2,0,59,0,0
65679,-100,4,1,1,69,0,0
66366,-100,4,1,1,69,0,0
70479,-80,4,1,0,79,0,1
71852,-100,4,1,1,69,0,0
81451,-80,4,1,0,79,0,1
82823,-80,4,1,1,69,0,0
84194,-80,4,1,0,69,0,0
85566,-100,4,2,0,49,0,0

[Colours]
Combo1 : 97,148,131
Combo2 : 87,133,157
Combo3 : 115,96,149

[HitObjects]
286,270,537,1,2,0:0:0:0:
360,304,708,1,2,0:0:0:0:
352,224,879,6,0,P|312:240|296:352,1,153.75,0|2,0:0|0:0,0:0:0:0:
360,304,1565,1,0,0:0:0:0:
206,346,1737,6,0,L|85:353,1,102.5,2|2,0:0|0:0,0:0:0:0:
36,311,2251,1,0,0:0:0:0:
46,166,2422,6,0,L|167:159,1,102.5,2|0,0:0|0:0,0:0:0:0:
187,91,2937,1,2,0:0:0:0:
278,198,3108,6,0,P|352:189|378:174,1,102.5,2|0,0:0|0:0,0:0:0:0:
428,120,3622,1,0,0:0:0:0:
434,43,3794,5,0,0:0:0:0:
377,95,3965,1,2,0:0:0:0:
395,169,4137,1,0,0:0:0:0:
462,204,4308,1,0,0:0:0:0:
485,276,4479,1,2,0:0:0:0:
424,323,4651,5,2,0:0:0:0:
334,303,4822,1,2,0:0:0:0:
247,336,4994,1,0,0:0:0:0:
157,313,5165,2,0,P|60:320|29:375,1,153.75,2|0,0:0|0:0,0:0:0:0:
32,361,5851,1,2,0:0:0:0:
0,217,6022,6,0,L|105:202,1,102.5,0|2,0:0|0:0,0:0:0:0:
187,192,6537,1,0,0:0:0:0:
187,192,7051,1,0,0:0:0:0:
266,226,7222,6,0,P|306:220|336:165,1,102.5,2|0,0:0|0:0,0:0:0:0:
323,85,7737,1,0,0:0:0:0:
459,12,7908,6,0,L|456:123,1,102.5,2|0,0:0|0:0,0:0:0:0:
504,193,8422,1,0,0:0:0:0:
502,333,8594,6,0,P|445:331|353:368,1,153.75,2|0,0:0|0:0,0:0:0:0:
218,327,9279,2,0,P|174:340|107:333,1,102.5,2|0,0:0|0:0,0:0:0:0:
7,263,9794,1,2,0:0:0:0:
256,192,9965,12,0,10994,0:0:0:0:
481,148,11165,6,0,B|512:202|474:250|474:250|407:273|365:209,1,205,0|4,1:0|1:0,0:0:0:0:
151,299,11851,5,0,1:0:0:0:
241,360,12022,2,0,B|140:377|140:377|30:324,1,205,2|0,0:0|0:0,0:0:0:0:
151,299,12537,2,0,P|147:227|170:183,1,102.5,0|2,1:0|0:0,0:0:0:0:
42,36,12879,6,0,B|88:90|69:211|-16:147|22:81|79:138,1,205,0|0,0:0|1:0,0:0:0:0:
158,200,13394,2,0,P|238:246|348:207,1,205,2|0,0:0|0:0,0:0:0:0:
423,276,13908,1,0,1:0:0:0:
386,15,14079,6,0,L|340:214,1,205,2|0,0:0|0:0,0:0:0:0:
469,75,14594,1,0,1:0:0:0:
423,275,14765,2,0,L|469:76,1,205,2|0,0:0|0:0,0:0:0:0:
505,268,15279,6,0,P|485:330|348:306,1,205,0|0,1:0|0:0,0:0:0:0:
222,373,15794,2,0,P|147:349|87:373,1,102.5,2|0,0:0|1:0,0:0:0:0:
254,229,16137,1,2,0:0:0:0:
254,229,16479,5,2,0:0:0:0:
222,373,16651,1,0,1:0:0:0:
362,330,16822,1,0,0:0:0:0:
280,310,16994,5,4,0:0:0:0:
39,200,17337,5,0,1:0:0:0:
78,122,17508,1,0,1:0:0:0:
163,104,17679,1,0,1:0:0:0:
230,160,17851,1,0,1:0:0:0:
227,248,18022,1,0,1:0:0:0:
158,300,18194,1,0,1:0:0:0:
74,279,18365,5,0,1:0:0:0:
196,346,18537,1,0,1:0:0:0:
326,292,18708,1,0,1:0:0:0:
364,155,18879,1,0,1:0:0:0:
283,41,19051,1,0,1:0:0:0:
142,34,19222,1,0,1:0:0:0:
48,139,19394,1,0,1:0:0:0:
74,278,19565,1,0,1:0:0:0:
169,372,19737,5,0,1:0:0:0:
179,371,19822,1,0,1:0:0:0:
194,367,19908,1,0,1:0:0:0:
213,360,19994,1,0,1:0:0:0:
233,344,20079,1,0,1:0:0:0:
256,323,20165,1,0,1:0:0:0:
273,291,20251,1,0,1:0:0:0:
279,250,20337,1,0,1:0:0:0:
294,217,20422,1,0,1:0:0:0:
330,197,20508,1,0,1:0:0:0:
376,195,20594,1,0,1:0:0:0:
418,222,20679,1,0,1:0:0:0:
430,277,20765,1,0,1:0:0:0:
408,334,20851,1,0,1:0:0:0:
345,357,20937,1,0,1:0:0:0:
282,322,21022,1,0,1:0:0:0:
351,275,21108,5,2,2:0:0:0:
313,181,22308,5,0,1:0:0:0:
397,231,22479,6,0,B|381:263|381:263|252:280,1,153.75,4|0,0:0|0:0,0:0:0:0:
253,279,22822,2,0,P|187:285|133:148,1,205,0|0,1:0|0:0,0:0:0:0:
121,178,23337,1,0,0:0:0:0:
0,136,23508,2,0,L|18:243,1,102.5,0|0,1:0|0:0,0:0:0:0:
17,238,23851,5,4,0:0:0:0:
121,178,24022,1,0,0:0:0:0:
221,246,24194,1,0,1:0:0:0:
326,187,24365,1,0,0:0:0:0:
426,254,24537,1,0,0:0:0:0:
426,254,24622,1,0,0:0:0:0:
426,254,24708,1,0,0:0:0:0:
426,254,24879,2,0,B|457:253|473:269|473:269|476:331|404:354,1,153.75,0|0,1:0|0:0,0:0:0:0:
343,368,25222,5,4,0:0:0:0:
171,313,25394,1,0,0:0:0:0:
297,304,25565,2,0,P|314:295|419:348,1,153.75,0|0,1:0|0:0,0:0:0:0:
444,331,25908,2,0,P|472:288|471:222,1,102.5
471,135,26251,1,0,1:0:0:0:
457,32,26594,6,0,L|470:134,1,102.5,4|0,0:0|0:0,0:0:0:0:
338,163,26937,2,0,L|324:60,1,102.5,0|0,1:0|0:0,0:0:0:0:
193,91,27279,2,0,L|202:156,7,51.25,0|0|0|0|0|0|0|0,1:0|1:0|1:0|1:0|1:0|1:0|1:0|1:0,0:0:0:0:
207,191,27965,5,4,0:0:0:0:
187,281,28137,1,0,0:0:0:0:
95,291,28308,1,0,1:0:0:0:
59,206,28479,1,0,0:0:0:0:
127,144,28651,5,0,1:0:0:0:
287,328,28908,1,0,1:0:0:0:
443,141,29165,1,0,1:0:0:0:
486,260,29337,6,0,P|451:264|409:218,1,102.5
443,141,29679,2,0,L|381:89,1,51.25,0|0,1:0|0:0,0:0:0:0:
176,56,30022,1,0,0:0:0:0:
250,13,30194,2,0,L|278:131,1,102.5,0|0,0:0|1:0,0:0:0:0:
29,149,30708,5,0,0:0:0:0:
108,187,30879,1,0,0:0:0:0:
35,236,31051,2,0,B|56:269|50:344|50:344|131:352|153:377,1,205,0|0,1:0|0:0,0:0:0:0:
270,268,31565,2,0,P|218:269|175:295,1,102.5,0|0,0:0|1:0,0:0:0:0:
140,366,31908,1,0,0:0:0:0:
140,366,32251,5,0,0:0:0:0:
270,268,32422,1,0,1:0:0:0:
421,327,32594,1,0,0:0:0:0:
333,217,32765,1,0,0:0:0:0:
357,377,32937,1,0,0:0:0:0:
408,246,33108,1,0,1:0:0:0:
408,246,33194,1,0,1:0:0:0:
408,246,33279,1,0,1:0:0:0:
282,348,33451,6,0,P|214:366|125:273,1,205,4|0,0:0|1:0,0:0:0:0:
38,235,33965,1,0,0:0:0:0:
43,334,34137,2,0,L|34:113,1,205,0|0,0:0|1:0,0:0:0:0:
34,130,34822,6,0,P|57:188|117:176,1,102.5,0|0,0:0|0:0,0:0:0:0:
165,157,35165,1,0,1:0:0:0:
157,73,35337,1,0,0:0:0:0:
73,57,35508,1,0,0:0:0:0:
33,129,35679,1,0,0:0:0:0:
90,192,35851,1,0,1:0:0:0:
104,121,36194,6,0,B|90:151|90:151|127:328,2,205,0|0|0,0:0|1:0|0:0,0:0:0:0:
125,319,37051,1,0,0:0:0:0:
33,204,37222,2,0,P|99:220|170:132,1,153.75,0|0,1:0|0:0,0:0:0:0:
104,121,37565,6,0,L|209:78,1,102.5,4|0,0:0|0:0,0:0:0:0:
326,153,37908,2,0,L|231:192,1,102.5,0|0,1:0|0:0,0:0:0:0:
340,155,38251,6,0,L|245:194,1,102.5,4|0,0:0|0:0,0:0:0:0:
118,122,38594,2,0,L|212:82,1,102.5,0|0,1:0|0:0,0:0:0:0:
410,236,38937,6,0,P|416:309|511:342,1,153.75,4|0,1:0|0:0,0:0:0:0:
480,346,39279,1,8,0:0:0:0:
483,209,39451,6,0,B|463:166|463:166|384:143|282:198,1,205,0|0,0:0|0:0,0:0:0:0:
336,72,39965,1,8,0:0:0:0:
249,276,40137,6,0,P|186:282|140:262,1,102.5
75,215,40479,1,0,0:0:0:0:
40,129,40651,1,8,0:0:0:0:
40,129,40822,6,0,B|45:94|45:94|-12:10,1,102.5
159,41,41165,2,0,L|187:161,1,102.5,0|8,0:0|0:0,0:0:0:0:
310,63,41508,2,0,P|319:159|430:151,1,205
411,168,42022,1,8,0:0:0:0:
371,105,42194,5,0,0:0:0:0:
298,273,42365,1,0,0:0:0:0:
311,300,42451,1,0,0:0:0:0:
324,327,42537,1,0,0:0:0:0:
485,291,42708,5,8,0:0:0:0:
405,309,42879,1,0,0:0:0:0:
324,327,43051,1,0,0:0:0:0:
244,346,43222,1,0,0:0:0:0:
244,346,43394,2,0,B|169:359|169:359|72:297,1,153.75,8|0,0:0|0:0,0:0:0:0:
103,317,43737,6,0,P|51:295|-7:306,1,102.5,8|0,0:0|1:0,0:0:0:0:
29,198,44079,1,8,0:0:0:0:
29,198,44165,1,8,0:0:0:0:
29,198,44251,1,8,0:0:0:0:
29,198,44337,1,8,0:0:0:0:
54,199,44422,6,0,P|110:188|148:102,1,153.75,4|0,0:0|0:0,0:0:0:0:
160,136,44765,2,0,P|170:73|158:33,1,102.5,8|0,0:0|0:0,0:0:0:0:
262,4,45108,1,0,0:0:0:0:
262,4,45451,6,0,B|267:67|267:67|309:71|365:135|344:191,1,205,8|0,0:0|0:0,0:0:0:0:
340,324,45965,1,0,0:0:0:0:
340,324,46137,2,0,B|335:261|335:261|293:257|237:193|258:137,2,205,8|0|8,0:0|0:0|0:0,0:0:0:0:
259,341,46994,5,0,0:0:0:0:
181,368,47165,2,0,B|132:378|132:378|49:330,1,102.5
36,275,47508,2,0,L|16:100,1,153.75,8|0,0:0|0:0,0:0:0:0:
18,113,47851,5,8,0:0:0:0:
134,149,48022,1,0,0:0:0:0:
206,52,48194,2,0,P|279:72|324:64,1,102.5,8|0,0:0|0:0,0:0:0:0:
384,60,48537,5,8,0:0:0:0:
384,60,48708,2,0,B|338:42|338:42|270:109|302:209,1,205,8|8,0:0|0:0,0:0:0:0:
334,272,49222,5,8,0:0:0:0:
334,272,49394,2,0,B|351:314|337:350|337:350|291:352|233:297|272:238,1,205,8|8,0:0|0:0,0:0:0:0:
194,340,49908,5,4,0:0:0:0:
256,192,50079,12,2,52651,0:0:0:0:
82,245,54022,5,0,0:0:0:0:
55,333,54708,1,2,0:0:0:0:
470,237,55394,6,0,P|403:248|368:126,1,205,4|0,0:0|1:0,0:0:0:0:
358,46,55908,1,0,0:0:0:0:
280,94,56079,2,0,B|103:80|130:197|239:141|212:112,1,205,0|0,0:0|1:0,0:0:0:0:
76,80,56594,1,0,0:0:0:0:
97,283,56765,6,0,L|76:80,1,205,4|0,0:0|1:0,0:0:0:0:
76,80,57279,1,0,0:0:0:0:
36,188,57451,2,0,L|148:176,1,102.5,0|0,0:0|0:0,0:0:0:0:
200,272,57794,2,0,L|88:284,1,102.5,0|0,1:0|0:0,0:0:0:0:
160,377,58137,6,0,L|404:353,1,205,4|0,0:0|1:0,0:0:0:0:
506,112,58822,2,0,L|262:136,1,205,0|0,0:0|1:0,0:0:0:0:
307,147,59508,1,0,1:0:0:0:
337,144,59593,1,0,1:0:0:0:
366,141,59679,1,0,1:0:0:0:
395,138,59765,1,0,1:0:0:0:
424,135,59850,1,0,1:0:0:0:
453,132,59936,1,0,1:0:0:0:
482,129,60022,1,0,1:0:0:0:
512,127,60107,1,0,1:0:0:0:
231,45,60879,5,4,0:0:0:0:
256,192,60965,12,2,63622,0:0:0:0:
60,357,63965,5,2,0:0:0:0:
41,224,64308,1,2,0:0:0:0:
162,164,64651,1,2,0:0:0:0:
255,261,64994,1,2,0:0:0:0:
193,381,65337,1,2,0:0:0:0:
60,357,65679,5,8,1:0:0:0:
66,267,65794,1,0,0:0:0:0:
74,178,65908,1,0,0:0:0:0:
83,89,66022,1,0,0:0:0:0:
82,72,66365,6,0,P|138:61|164:97,1,102.5,4|0,0:0|0:0,0:0:0:0:
240,52,66708,6,0,L|301:201,1,153.75,8|0,0:0|0:0,0:0:0:0:
308,217,67051,2,0,L|356:323,1,102.5
427,263,67394,1,8,0:0:0:0:
96,332,67737,6,0,B|52:326|52:326|-8:160,2,205,0|8|0,0:0|0:0|0:0,0:0:0:0:
156,240,68594,1,0,0:0:0:0:
208,336,68765,2,0,P|272:319|304:392,1,153.75,8|0,0:0|0:0,0:0:0:0:
294,383,69108,6,0,P|268:332|313:287,1,102.5
438,186,69451,2,0,P|464:237|419:282,1,102.5,8|0,0:0|0:0,0:0:0:0:
470,118,69794,5,0,0:0:0:0:
443,272,69965,1,0,0:0:0:0:
288,296,70137,1,8,0:0:0:0:
216,154,70308,1,0,0:0:0:0:
327,44,70479,6,0,B|304:24|304:24|136:12,1,192.1875
52,52,70822,2,0,L|208:40,1,128.125,0|0,0:0|0:0,0:0:0:0:
87,138,71079,1,0,0:0:0:0:
87,152,71165,2,0,L|107:92,3,64.0625
167,193,71508,2,0,L|187:133,3,64.0625
228,260,71851,6,0,P|273:320|151:326,1,256.25,4|8,0:0|0:0,0:0:0:0:
52,337,72365,1,0,0:0:0:0:
264,352,72537,6,0,P|332:336|376:348,1,102.5,0|0,0:0|0:0,0:0:0:0:
485,206,72879,1,8,0:0:0:0:
485,206,73222,2,0,P|417:222|373:210,1,102.5
425,110,73565,5,8,0:0:0:0:
425,110,73651,1,0,0:0:0:0:
425,110,73737,1,0,0:0:0:0:
386,215,73908,1,0,0:0:0:0:
318,127,74079,2,0,P|272:104|209:122,1,102.5,0|8,0:0|0:0,0:0:0:0:
115,146,74422,1,0,0:0:0:0:
37,232,74594,6,0,P|18:290|31:336,1,102.5
255,367,74937,2,0,P|274:309|261:263,1,102.5,8|0,0:0|0:0,0:0:0:0:
484,134,75279,2,0,L|501:290,1,153.75
500,286,75622,2,0,B|508:366|508:366|458:291,1,153.75,8|0,0:0|0:0,0:0:0:0:
425,246,75965,5,0,0:0:0:0:
386,197,76051,1,0,0:0:0:0:
327,178,76137,1,0,0:0:0:0:
265,186,76222,1,0,0:0:0:0:
226,234,76308,1,0,0:0:0:0:
171,263,76394,1,0,0:0:0:0:
112,244,76479,1,0,0:0:0:0:
86,187,76565,1,0,0:0:0:0:
112,131,76651,1,0,0:0:0:0:
172,120,76737,1,0,0:0:0:0:
215,164,76822,1,0,0:0:0:0:
223,225,76908,1,0,0:0:0:0:
213,285,76994,2,0,P|250:338|343:335,1,153.75
404,315,77337,6,0,B|440:305|440:305|465:378,1,102.5,4|0,0:0|0:0,0:0:0:0:
213,284,77679,2,0,P|133:274|46:337,1,153.75,8|0,0:0|0:0,0:0:0:0:
59,318,78022,1,0,0:0:0:0:
111,172,78194,2,0,B|64:116|64:116|54:162,1,102.5,0|8,0:0|0:0,0:0:0:0:
214,284,78537,1,0,0:0:0:0:
130,258,78708,6,0,P|141:335|256:364,1,205,0|8,0:0|0:0,0:0:0:0:
334,295,79222,1,0,0:0:0:0:
442,371,79394,2,0,P|456:328|453:271,1,102.5
345,195,79737,2,0,P|331:238|334:295,1,102.5,8|0,0:0|0:0,0:0:0:0:
442,371,80079,5,0,0:0:0:0:
180,138,80422,1,8,0:0:0:0:
511,111,80765,2,0,L|368:45,1,153.75
335,31,81108,2,0,P|285:25|243:65,1,102.5,8|0,0:0|0:0,0:0:0:0:
180,138,81451,6,0,B|144:109|144:109|37:97|37:97|-9:73,1,192.1875
12,169,81794,2,0,P|58:211|1:278,1,128.125
4,337,82051,1,0,0:0:0:0:
4,337,82137,2,0,L|74:367,3,64.0625
144,363,82479,1,0,0:0:0:0:
176,331,82565,1,0,0:0:0:0:
219,320,82651,1,0,0:0:0:0:
262,327,82737,1,0,0:0:0:0:
298,353,82822,6,0,B|323:328|323:328|448:371,1,128.125,8|0,0:0|0:0,0:0:0:0:
498,191,83165,2,0,B|473:216|473:216|348:173,1,128.125,8|0,0:0|0:0,0:0:0:0:
479,372,83508,6,0,B|454:347|454:347|484:259,1,128.125,8|0,0:0|0:0,0:0:0:0:
317,172,83851,2,0,B|342:197|342:197|311:284,1,128.125,8|0,0:0|0:0,0:0:0:0:
398,272,84194,5,4,0:0:0:0:
398,272,85565,1,2,0:0:0:0:
332,243,85737,1,0,0:0:0:0:
300,178,85908,1,2,0:0:0:0:
304,106,86079,1,0,0:0:0:0:
314,101,86251,5,2,0:0:0:0:
224,81,86422,1,0,0:0:0:0:
162,149,86594,1,2,0:0:0:0:
178,239,86765,1,0,0:0:0:0:
112,303,86937,1,2,0:0:0:0:
29,260,87108,1,0,0:0:0:0:
19,270,87279,5,2,0:0:0:0:
66,167,87451,1,0,0:0:0:0:
171,205,87622,1,2,0:0:0:0:
218,102,87794,1,0,0:0:0:0:
323,140,87965,1,2,0:0:0:0:
370,37,88137,1,4,0:0:0:0:
