osu file format v12

[General]
AudioFilename: abnormalize.mp3
AudioLeadIn: 2000
PreviewTime: 66843
Countdown: 0
SampleSet: Soft
StackLeniency: 0.7
Mode: 0
LetterboxInBreaks: 0
WidescreenStoryboard: 0

[Editor]
DistanceSpacing: 1.2
BeatDivisor: 4
GridSize: 8

[Metadata]
Title:abnormalize (TV edit)
TitleUnicode:abnormalize (TV edit)
Artist:Ling Tosite Sigure
ArtistUnicode:凛として時雨
Creator:Kiiwa
Version:Hard
Source:PSYCHO-PASS
Tags:0gre Beren Opening OP T.V. Size
BeatmapID:218922
BeatmapSetID:77628

[Difficulty]
HPDrainRate:4
CircleSize:4
OverallDifficulty:5
ApproachRate:6
SliderMultiplier:1.34
SliderTickRate:2

[Events]
//Background and Video events
0,0,"bg.jpg",0,0
//Break Periods
2,50108,54344
//Storyboard Layer 0 (Background)
//Storyboard Layer 1 (Fail)
//Storyboard Layer 2 (Pass)
//Storyboard Layer 3 (Foreground)
//Storyboard Sound Samples
//Background Colour Transformations
3,100,163,162,255

[TimingPoints]
537,342.857142857143,4,2,0,30,1,0
11165,-100,4,2,0,30,0,0
11508,-100,4,2,0,40,0,0
17337,-100,4,2,0,10,0,0
17679,-100,4,2,0,15,0,0
18022,-100,4,2,0,20,0,0
18365,-100,4,2,0,25,0,0
18708,-100,4,2,0,30,0,0
19051,-100,4,2,0,35,0,0
19394,-100,4,2,0,40,0,0
22479,-100,4,2,0,50,0,0
38937,-100,4,1,1,50,0,0
49908,-100,4,2,0,69,0,0
55394,-100,4,2,0,69,0,0
66366,-100,4,1,1,69,0,0
70479,-80,4,1,0,79,0,1
71852,-100,4,1,1,69,0,0
81451,-80,4,1,0,79,0,1
82823,-80,4,1,1,69,0,0
84194,-80,4,1,0,69,0,0
85566,-100,4,2,0,49,0,0

[Colours]
Combo1 : 97,148,131
Combo2 : 87,133,157
Combo3 : 115,96,149

[HitObjects]
99,187,537,6,0,L|105:262,1,67,2|0,0:0|0:0,0:0:0:0:
180,279,879,6,0,P|216:344|351:319,1,201,2|0,0:0|0:0,0:0:0:0:
389,285,1565,1,0,0:0:0:0:
389,285,1737,2,0,P|445:274|516:317,1,134,2|0,0:0|0:0,0:0:0:0:
490,231,2251,5,0,0:0:0:0:
490,231,2422,2,0,L|498:85,1,134,2|0,0:0|0:0,0:0:0:0:
354,22,3108,2,0,L|346:168,1,134,2|0,0:0|0:0,0:0:0:0:
186,174,3794,6,0,P|136:198|14:120,1,201,2|0,0:0|0:0,0:0:0:0:
35,212,4479,2,0,L|55:371,1,134,2|0,0:0|0:0,0:0:0:0:
132,355,4994,1,0,0:0:0:0:
132,355,5165,1,2,0:0:0:0:
263,262,5508,5,2,0:0:0:0:
335,295,5679,1,0,0:0:0:0:
407,329,5851,1,2,0:0:0:0:
473,284,6022,5,4,0:0:0:0:
503,126,6365,2,0,P|453:116|392:-16,1,201,2|0,0:0|0:0,0:0:0:0:
344,64,7051,2,0,B|249:41|249:41|130:73,1,201,2|0,0:0|0:0,0:0:0:0:
127,145,7737,5,0,0:0:0:0:
127,145,7908,2,0,P|75:115|74:42,1,134,2|0,0:0|0:0,0:0:0:0:
19,108,8422,1,0,0:0:0:0:
4,187,8594,5,2,0:0:0:0:
288,336,9279,1,2,0:0:0:0:
495,211,9794,1,2,0:0:0:0:
96,277,11165,6,0,L|79:123,1,134,0|4,1:0|1:0,0:0:0:0:
192,260,11851,5,0,1:0:0:0:
192,260,12022,2,0,P|236:289|248:368,1,134
170,344,12537,1,0,1:0:0:0:
249,366,12708,6,0,L|455:349,1,201,0|0,0:0|1:0,0:0:0:0:
500,196,13565,2,0,L|335:209,1,134,0|0,0:0|1:0,0:0:0:0:
288,208,14079,1,0,0:0:0:0:
224,160,14251,5,0,0:0:0:0:
69,213,14594,2,0,P|41:214|10:117,1,134,0|0,1:0|0:0,0:0:0:0:
8,292,15279,2,0,L|156:302,1,134,0|0,1:0|0:0,0:0:0:0:
222,307,15794,5,0,0:0:0:0:
301,312,15965,1,0,1:0:0:0:
381,316,16137,1,0,0:0:0:0:
381,316,16479,5,0,0:0:0:0:
301,312,16651,1,0,1:0:0:0:
222,307,16822,1,0,0:0:0:0:
265,238,16994,5,4,0:0:0:0:
204,88,17337,6,0,L|286:109,1,67,0|0,1:0|1:0,0:0:0:0:
348,99,17679,2,0,L|430:120,3,67,0|0|0|0,1:0|1:0|1:0|1:0,0:0:0:0:
491,98,18365,6,0,P|487:156|465:175,1,67,0|0,1:0|1:0,0:0:0:0:
432,223,18708,2,0,P|383:254|354:248,1,67,0|0,1:0|1:0,0:0:0:0:
296,262,19051,2,0,P|238:254|220:232,1,67,0|0,1:0|1:0,0:0:0:0:
168,203,19394,2,0,P|138:152|146:124,1,67,0|0,1:0|1:0,0:0:0:0:
256,192,19737,12,2,21108,0:0:0:0:
247,314,22308,5,0,1:0:0:0:
252,234,22479,6,0,L|258:75,1,134,4|0,0:0|1:0,0:0:0:0:
411,51,23165,2,0,L|405:210,1,134,0|0,0:0|1:0,0:0:0:0:
253,234,23851,6,0,L|94:228,1,134,0|0,0:0|1:0,0:0:0:0:
150,70,24537,2,0,L|-9:64,1,134,0|0,0:0|1:0,0:0:0:0:
168,8,25222,6,0,P|160:88|224:128,1,134,4|0,0:0|1:0,0:0:0:0:
352,152,25908,2,0,P|360:72|296:32,1,134,0|0,0:0|1:0,0:0:0:0:
425,165,26594,6,0,L|273:197,1,134,0|0,0:0|1:0,0:0:0:0:
240,344,27279,2,0,L|392:312,1,134,0|0,1:0|1:0,0:0:0:0:
168,360,27965,6,0,B|132:368|132:368|88:352|88:288,1,134,4|0,0:0|1:0,0:0:0:0:
96,208,28479,1,0,0:0:0:0:
31,255,28651,2,0,P|94:287|166:247,1,134,0|0,0:0|1:0,0:0:0:0:
96,208,29165,6,0,L|103:118,1,67
205,18,29679,2,0,L|198:108,1,67,0|0,1:0|0:0,0:0:0:0:
278,101,30022,2,0,P|323:120|418:91,1,134,0|0,0:0|1:0,0:0:0:0:
469,54,30537,1,0,0:0:0:0:
403,102,30708,6,0,L|415:251,1,134,0|0,0:0|1:0,0:0:0:0:
488,267,31222,1,0,0:0:0:0:
499,187,31394,5,0,0:0:0:0:
420,171,31565,1,0,0:0:0:0:
342,194,31737,1,0,1:0:0:0:
308,267,31908,2,0,P|303:319|350:381,1,134
278,344,32422,6,0,P|221:329|187:337,1,67,0|0,1:0|0:0,0:0:0:0:
133,324,32765,2,0,P|75:334|47:356,1,67,0|0,0:0|0:0,0:0:0:0:
11,281,33108,6,0,L|1:130,1,134,0|4,1:0|0:0,0:0:0:0:
120,40,33794,2,0,L|130:191,1,134,0|0,1:0|0:0,0:0:0:0:
272,240,34479,2,0,L|262:89,1,134,0|0,1:0|0:0,0:0:0:0:
184,104,34994,6,0,L|112:108,1,67,0|0,0:0|1:0,0:0:0:0:
264,173,35508,2,0,L|335:168,1,67,0|0,0:0|1:0,0:0:0:0:
408,168,35851,2,0,P|472:192|472:256,1,134,0|4,1:0|0:0,0:0:0:0:
336,336,36537,6,0,P|264:328|200:368,1,134,0|0,1:0|0:0,0:0:0:0:
64,288,37222,2,0,P|136:296|200:256,1,134,0|4,1:0|0:0,0:0:0:0:
336,336,37908,5,0,1:0:0:0:
456,224,38251,2,0,B|504:216|528:128|480:88|480:88|440:88|400:128|416:168,1,268,4|4,0:0|0:0,0:0:0:0:
264,216,39279,5,8,0:0:0:0:
184,216,39451,2,0,P|128:208|56:80,1,201,0|8,0:0|0:0,0:0:0:0:
216,72,40308,6,0,L|96:176,1,134,0|8,0:0|0:0,0:0:0:0:
272,136,40994,2,0,L|392:32,2,134,0|8|0,0:0|0:0|0:0,0:0:0:0:
160,256,42022,6,0,P|184:312|320:352,1,201,8|0,0:0|0:0,0:0:0:0:
384,336,42708,2,0,P|456:320|512:360,1,134,8|0,0:0|0:0,0:0:0:0:
480,192,43394,6,0,L|456:120,1,67,8|0,0:0|0:0,0:0:0:0:
384,144,43737,2,0,L|408:64,1,67,8|0,0:0|0:0,0:0:0:0:
448,16,44079,2,0,P|384:48|312:32,1,134,8|4,0:0|0:0,0:0:0:0:
168,64,44765,6,0,P|104:48|64:216,1,268,8|8,0:0|0:0,0:0:0:0:
136,336,45794,2,0,B|224:352|296:288|296:288|352:288|384:360|352:360,2,268
72,288,47337,5,0,0:0:0:0:
144,256,47508,2,0,P|200:256|264:192,1,134,8|0,0:0|0:0,0:0:0:0:
312,152,48022,5,0,0:0:0:0:
336,224,48194,2,0,P|384:248|432:312,1,134,8|8,0:0|0:0,0:0:0:0:
431,311,48708,1,8,0:0:0:0:
192,328,49051,5,8,0:0:0:0:
192,328,49222,1,0,0:0:0:0:
312,320,49565,1,8,0:0:0:0:
431,311,49908,1,4,0:0:0:0:
120,56,55394,6,0,P|112:120|264:240,1,268,4|0,0:0|0:0,0:0:0:0:
328,216,56251,1,0,0:0:0:0:
328,216,56422,2,0,L|344:368,1,134,0|4,1:0|0:0,0:0:0:0:
472,256,57108,6,0,B|440:128|440:128|488:64,1,201,0|0,1:0|0:0,0:0:0:0:
400,88,57794,2,0,P|360:96|280:32,1,134,0|4,1:0|0:0,0:0:0:0:
361,15,58308,5,0,0:0:0:0:
328,88,58479,1,0,1:0:0:0:
248,104,58651,1,0,0:0:0:0:
168,80,58822,6,0,P|122:67|49:140,1,134,0|0,0:0|1:0,0:0:0:0:
128,152,59337,1,0,0:0:0:0:
128,152,59508,6,0,L|130:371,1,201,0|2,1:0|0:0,0:0:0:0:
496,328,60879,5,4,0:0:0:0:
256,192,61565,12,2,63622,0:0:0:0:
236,39,65679,6,0,L|216:124,2,67,0|0|0,1:0|0:0|1:0,0:0:0:0:
144,168,66365,6,0,P|112:216|136:304,1,134,4|8,0:0|0:0,0:0:0:0:
192,239,66879,1,0,0:0:0:0:
239,309,67051,2,0,P|271:261|260:189,1,134,0|8,0:0|0:0,0:0:0:0:
192,239,67565,1,0,0:0:0:0:
239,310,67737,6,0,L|95:334,1,134,0|8,0:0|0:0,0:0:0:0:
40,176,68422,2,0,L|184:152,1,134,0|8,0:0|0:0,0:0:0:0:
251,138,68937,1,0,0:0:0:0:
251,138,69108,6,0,B|280:112|296:104|296:104|336:128|336:240|304:304|248:296,1,268,4|8,0:0|0:0,0:0:0:0:
231,358,69965,2,0,P|295:366|359:318,1,134
432,312,70479,6,0,B|465:341|465:341|440:390,1,83.75,4|0,0:0|0:0,0:0:0:0:
376,257,70822,2,0,P|368:201|376:177,1,83.75
389,98,71165,2,0,P|405:58|517:10,1,167.5
296,0,71851,5,4,0:0:0:0:
168,96,72194,6,0,L|72:72,1,67
48,136,72537,2,0,P|8:216|32:272,1,134,0|8,0:0|0:0,0:0:0:0:
64,320,73051,6,0,P|144:344|256:272,1,201,0|8,0:0|0:0,0:0:0:0:
320,272,73737,2,0,L|480:288,1,134
496,352,74251,1,8,0:0:0:0:
504,192,74594,5,0,0:0:0:0:
424,176,74765,1,0,0:0:0:0:
480,112,74937,1,8,0:0:0:0:
328,56,75279,5,0,0:0:0:0:
248,72,75451,1,0,0:0:0:0:
304,136,75622,1,8,0:0:0:0:
256,192,75965,12,4,77337,0:0:0:0:
96,96,78022,5,0,0:0:0:0:
72,176,78194,1,0,0:0:0:0:
40,248,78365,2,0,L|8:336,1,67,8|0,0:0|0:0,0:0:0:0:
88,344,78708,6,0,P|160:376|216:352,1,134,0|8,0:0|0:0,0:0:0:0:
272,312,79222,1,0,0:0:0:0:
296,232,79394,1,0,0:0:0:0:
288,152,79565,1,0,0:0:0:0:
312,72,79737,1,8,0:0:0:0:
384,40,79908,1,0,0:0:0:0:
464,56,80079,6,0,L|488:128,1,67
416,160,80422,2,0,L|440:232,1,67,8|0,0:0|0:0,0:0:0:0:
368,264,80765,2,0,B|390:329|390:329|368:360|304:360|312:344,1,134,0|8,0:0|0:0,0:0:0:0:
256,344,81279,1,0,0:0:0:0:
176,328,81451,6,0,P|114:328|21:399,1,167.5,4|0,0:0|0:0,0:0:0:0:
32,280,81965,2,0,L|16:184,1,83.75
96,136,82308,2,0,L|128:32,1,83.75
32,8,82651,1,0,0:0:0:0:
256,192,82822,12,4,84194,0:0:0:0:
256,192,85565,12,4,88137,0:0:0:0:
