osu file format v11

[General]
AudioFilename: Psycho-Pass OP.mp3
AudioLeadIn: 0
PreviewTime: 66815
Countdown: 1
SampleSet: Soft
StackLeniency: 0.7
Mode: 0
LetterboxInBreaks: 1

[Editor]
Bookmarks: 20186,22929,27729,52758,61329,66129,81729
DistanceSpacing: 1
BeatDivisor: 4
GridSize: 4

[Metadata]
Title:Abnormalize [TV Size]
TitleUnicode:Abnormalize [TV Size]
Artist:Ling Tosite Sigure
ArtistUnicode:Ling Tosite Sigure
Creator:Teras
Version:Fatal
Source:Psycho-Pass
Tags:
BeatmapID:205024
BeatmapSetID:71563

[Difficulty]
HPDrainRate:9
CircleSize:5
OverallDifficulty:9
ApproachRate:9
SliderMultiplier:1.4
SliderTickRate:1

[Events]
//Background and Video events
Video,0,"op.avi"
0,0,"wallpaper-2382472.jpg"
//Break Periods
2,61529,65529
//Storyboard Layer 0 (Background)
//Storyboard Layer 1 (Fail)
//Storyboard Layer 2 (Pass)
//Storyboard Layer 3 (Foreground)
//Storyboard Sound Samples
//Background Colour Transformations
3,100,163,162,255

[TimingPoints]
986.645549218561,342.857142857143,4,2,0,70,1,0
11958,-100,4,1,1,50,0,0
21515,-100,4,2,1,50,0,0
21600,-100,4,2,1,50,0,0
22672,-50,4,1,1,50,0,0
23100,-100,4,1,1,50,0,0
28372,-100,4,2,1,50,0,0
30043,-83.3333333333333,4,2,1,50,0,0
37929,-50,4,2,1,50,0,0
38958,-83.3333333333333,4,2,1,50,0,0
39386,-83.3333333333333,4,1,1,50,0,0
50358,-100,4,2,1,50,0,0
56100,-83.3333333333333,4,2,1,50,0,0
65872,-83.3333333333333,4,1,1,50,0,0
66815,-71.4285714285714,4,1,1,50,0,1
86015,-100,4,2,1,50,0,0
88672,-100,4,2,1,5,0,0

[HitObjects]
259,308,986,2,0,P|297:305|297:306|297:306|322:281|322:281|409:280,1,140
255,50,1500,2,0,P|217:53|217:52|217:52|192:77|192:77|105:78,1,140
69,140,2015,1,0,0:0:0
125,201,2186,2,0,P|163:203|163:203|188:228|188:228|275:229,1,140
314,289,2700,1,0,0:0:0
387,268,2872,2,0,P|400:215|498:220|503:294,1,140
441,329,3386,2,0,P|366:355,2,70
472,140,4243,5,0,0:0:0
412,74,4415,2,0,P|339:84|339:84|321:56|260:63,1,140
100,310,4929,2,0,P|173:300|173:300|191:328|252:321,1,140
310,290,5443,1,0,0:0:0
388,320,5615,2,0,P|447:320|424:250,1,140
422,240,6129,2,0,P|363:240|386:310,1,140,0|2,0:0|0:0,0:0:0
209,145,6815,5,0,0:0:0
192,62,6986,2,0,P|95:73|95:73|48:189,1,210,0|0,0:0|0:0,0:0:0
102,245,7672,2,0,P|64:328|167:332,1,210,2|0,0:0|0:0,0:0:0
192,330,8358,1,0,0:0:0
233,338,8529,1,0,0:0:0
272,325,8700,1,0,0:0:0
313,331,8872,1,0,0:0:0
353,341,9043,2,0,P|425:315|445:255,1,140
433,219,9558,1,0,0:0:0
399,194,9729,2,0,P|376:167|400:61,1,140
389,70,10243,1,2,0:0:0
389,70,10329,1,0,0:0:0
389,70,10415,1,0,0:0:0
306,54,10586,6,0,P|226:40,1,70
162,79,10929,1,0,0:0:0
80,60,11100,2,0,P|49:134|94:205,1,140
70,185,11615,2,0,P|39:256|72:316,1,140
173,332,12300,6,0,P|225:305|306:325,1,140
405,365,12986,1,0,0:0:0
465,270,13329,1,0,0:0:0
419,167,13672,1,0,0:0:0
419,167,13843,2,0,P|384:143|432:58,1,140
409,62,14358,2,0,P|348:27,1,70
348,27,14700,1,0,0:0:0
242,64,15043,5,0,0:0:0
131,44,15386,1,0,0:0:0
67,136,15729,1,0,0:0:0
67,136,15900,2,0,P|125:174|93:233,1,140
101,228,16415,2,0,P|172:268,1,70
162,262,16758,1,0,0:0:0
256,323,17100,1,0,0:0:0
352,266,17443,1,0,0:0:0
258,162,17786,6,0,P|286:130|327:132,1,70
394,139,18129,1,0,0:0:0
472,108,18300,1,0,0:0:0
420,41,18472,1,0,0:0:0
342,74,18643,1,0,0:0:0
257,80,18815,1,0,0:0:0
173,75,18986,1,0,0:0:0
94,43,19158,1,0,0:0:0
40,108,19329,1,0,0:0:0
118,139,19500,1,0,0:0:0
172,74,19672,1,0,0:0:0
255,64,19843,1,0,0:0:0
342,74,20015,1,0,0:0:0
396,137,20186,1,0,0:0:0
388,163,20272,5,0,0:0:0
379,189,20358,1,0,0:0:0
382,216,20443,1,0,0:0:0
396,239,20529,1,0,0:0:0
412,261,20615,1,0,0:0:0
413,288,20700,1,0,0:0:0
403,314,20786,1,0,0:0:0
380,330,20872,1,0,0:0:0
352,337,20958,1,0,0:0:0
324,333,21043,1,0,0:0:0
302,315,21129,1,0,0:0:0
290,289,21215,1,0,0:0:0
275,265,21300,1,0,0:0:0
253,246,21386,1,0,0:0:0
224,248,21472,1,0,0:0:0
202,265,21558,1,4,0:0:0
77,328,21729,5,0,0:0:0
49,191,21900,1,0,0:0:0
132,77,22072,1,0,0:0:0
256,140,22415,1,0,0:0:0
257,140,22758,2,0,P|257:292,1,140,0|4,0:0|0:0,0:0:0
351,325,23100,5,0,0:0:0
482,274,23272,1,8,0:0:0
351,325,23443,1,0,0:0:0
210,325,23615,1,0,0:0:0
351,325,23786,1,0,0:0:0
210,325,23958,1,8,0:0:0
70,284,24129,2,0,P|122:240|88:153,1,140
67,79,24643,1,8,0:0:0
67,79,24729,1,0,0:0:0
67,79,24815,1,0,0:0:0
154,136,24986,1,0,0:0:0
256,39,25158,1,0,0:0:0
358,136,25329,1,8,0:0:0
442,284,25500,6,0,P|390:240|424:153,1,140
437,75,26015,1,8,0:0:0
437,75,26100,1,0,0:0:0
437,75,26186,1,0,0:0:0
360,192,26358,1,0,0:0:0
255,285,26529,1,0,0:0:0
155,187,26700,1,8,0:0:0
257,90,26872,6,0,P|257:232,1,140
312,319,27386,1,8,0:0:0
200,319,27558,1,0,0:0:0
254,229,27729,1,0,0:0:0
149,228,27900,1,0,0:0:0
128,230,27986,1,0,0:0:0
108,223,28072,1,0,0:0:0
92,209,28158,1,0,0:0:0
82,190,28243,1,0,0:0:0
77,169,28329,1,0,0:0:0
78,147,28415,1,4,0:0:0
108,69,28586,5,0,0:0:0
185,35,28758,1,8,0:0:0
255,80,28929,1,0,0:0:0
325,34,29100,1,0,0:0:0
401,69,29272,1,0,0:0:0
401,69,29358,1,0,0:0:0
401,69,29443,2,0,P|472:107,1,70,8|0,0:0|0:0,0:0:0
398,157,29786,1,0,0:0:0
471,198,29958,1,0,0:0:0
400,243,30129,2,0,P|349:302|401:373,1,167.999994873047,8|0,0:0|0:0,0:0:0
451,311,30643,1,0,0:0:0
451,311,30815,2,0,P|272:308,1,167.999994873047,8|2,0:0|0:0,0:0:0
64,248,31329,5,0,0:0:0
64,248,31500,1,8,0:0:0
143,276,31672,1,0,0:0:0
143,276,31843,1,0,0:0:0
125,193,32015,1,0,0:0:0
125,193,32100,1,0,0:0:0
125,193,32186,1,8,0:0:0
46,161,32358,2,0,P|81:80|168:93,1,167.999994873047,2|0,0:0|0:0,0:0:0
414,194,32872,2,0,P|326:156,1,83.9999974365235,8|0,0:0|0:0,0:0:0
98,190,33215,2,0,P|186:228,1,83.9999974365235,2|0,0:0|0:0,0:0:0
255,196,33558,1,8,0:0:0
256,175,33643,1,0,0:0:0
257,153,33729,1,0,0:0:0
258,131,33815,1,0,0:0:0
259,110,33900,1,4,0:0:0
330,65,34072,6,0,P|424:55,1,83.9999974365235,0|8,0:0|0:0,0:0:0
179,108,34415,2,0,P|85:117,1,83.9999974365235
369,146,34758,2,0,P|463:136,1,83.9999974365235,0|8,0:0|0:0,0:0:0
146,196,35100,2,0,P|52:205,1,83.9999974365235
188,313,35443,5,2,0:0:0
220,340,35615,1,8,0:0:0
261,341,35786,1,0,0:0:0
294,314,35958,1,0,0:0:0
303,273,36129,1,0,0:0:0
303,273,36300,2,0,P|355:226|456:251,2,167.999994873047,8|0|8,0:0|0:0|0:0,0:0:0
445,241,37158,1,0,0:0:0
469,160,37329,1,2,0:0:0
347,80,37500,1,0,0:0:0
362,162,37672,1,8,0:0:0
290,242,37843,1,0,0:0:0
250,167,38015,6,0,P|197:27,1,140,2|0,0:0|0:0,0:0:0
95,296,38358,2,0,P|234:347,1,140,4|0,0:0|0:0,0:0:0
465,181,38700,2,0,P|314:226,1,140,2|0,0:0|0:0,0:0:0
330,220,39043,2,0,P|358:313|436:325,1,167.999994873047,4|4,0:0|0:0,0:0:0
464,181,39558,5,0,0:0:0
417,73,39729,1,8,0:0:0
305,108,39900,1,0,0:0:0
281,97,39986,1,0,0:0:0
257,86,40072,1,0,0:0:0
233,76,40158,1,0,0:0:0
210,65,40243,1,0,0:0:0
120,99,40415,1,4,0:0:0
69,186,40586,2,0,P|113:207|164:173,1,83.9999974365235
240,164,40929,2,0,P|251:211|226:253,1,83.9999974365235,0|8,0:0|0:0,0:0:0
158,297,41272,1,0,0:0:0
132,300,41358,1,0,0:0:0
107,305,41443,1,0,0:0:0
82,309,41529,1,0,0:0:0
57,314,41615,1,0,0:0:0
158,297,41786,1,8,0:0:0
253,329,41958,2,0,P|344:348|427:304,1,167.999994873047
443,150,42472,5,8,0:0:0
386,66,42643,1,0,0:0:0
386,66,42729,1,0,0:0:0
386,66,42815,1,0,0:0:0
306,127,42986,1,0,0:0:0
148,74,43158,1,8,0:0:0
306,127,43329,2,0,P|272:154|230:133,1,83.9999974365235
175,61,43672,2,0,P|141:30|102:41,1,83.9999974365235,0|8,0:0|0:0,0:0:0
42,114,44015,1,0,0:0:0
109,188,44186,1,0,0:0:0
210,188,44358,1,0,0:0:0
227,205,44443,1,0,0:0:0
244,223,44529,1,8,0:0:0
262,240,44615,1,0,0:0:0
279,257,44700,1,0,0:0:0
298,273,44786,1,0,0:0:0
315,291,44872,2,0,P|367:312|400:288,1,83.9999974365235
463,58,45215,6,0,P|421:41|383:64,1,83.9999974365235,8|0,0:0|0:0,0:0:0
290,80,45558,1,0,0:0:0
187,60,45729,1,0,0:0:0
87,39,45900,1,8,0:0:0
132,129,46072,1,0,0:0:0
87,39,46243,2,0,P|60:123|91:219,1,167.999994873047,0|8,0:0|0:0,0:0:0
163,253,46758,1,0,0:0:0
163,253,46843,1,0,0:0:0
163,253,46929,1,0,0:0:0
67,285,47100,1,0,0:0:0
156,333,47272,1,8,0:0:0
250,298,47443,1,0,0:0:0
256,192,47615,12,0,48643,0:0:0
254,146,48815,5,0,0:0:0
305,232,48986,2,0,P|360:270|360:270|420:247,1,125.999996154785,0|8,0:0|0:0,0:0:0
254,90,49500,1,8,0:0:0
201,279,49672,2,0,P|146:317|146:317|50:275,1,167.999994873047,0|8,0:0|0:0,0:0:0
252,28,50358,1,4,0:0:0
456,284,52586,5,2,0:0:0
447,221,52758,1,0,0:0:0
437,158,52929,1,0,0:0:0
391,201,53100,2,0,P|334:166|357:85,1,140,2|0,0:0|0:0,0:0:0
340,102,53615,2,0,P|265:131|221:87,1,140,2|0,0:0|0:0,0:0:0
225,97,54300,2,0,P|194:170|120:166,1,140,2|0,0:0|0:0,0:0:0
76,174,54815,1,0,0:0:0
47,230,54986,1,0,0:0:0
51,293,55158,1,2,0:0:0
172,323,55500,1,0,0:0:0
172,323,55843,2,0,P|260:306,1,70,4|0,0:0|0:0,0:0:0
412,265,56186,5,8,0:0:0
412,265,56358,2,0,P|329:238,1,83.9999974365235
127,183,56700,1,0,0:0:0
126,182,56872,2,0,P|226:151,1,83.9999974365235,8|0,0:0|0:0,0:0:0
463,85,57215,1,0,0:0:0
463,85,57386,2,0,P|361:58,1,83.9999974365235,0|8,0:0|0:0,0:0:0
293,113,57729,1,0,0:0:0
202,68,57900,1,0,0:0:0
101,76,58072,1,0,0:0:0
154,161,58243,1,8,0:0:0
202,68,58415,2,0,P|149:19|100:95,1,167.999994873047
131,171,58929,2,0,P|224:173,1,83.9999974365235,8|0,0:0|0:0,0:0:0
193,271,59272,2,0,P|282:270,1,83.9999974365235
339,349,59615,2,0,P|438:349,1,83.9999974365235,8|0,0:0|0:0,0:0:0
463,256,59958,5,2,0:0:0
443,239,60043,1,0,0:0:0
427,219,60129,1,0,0:0:0
419,194,60215,1,0,0:0:0
420,169,60300,1,0,0:0:0
427,144,60386,1,0,0:0:0
438,121,60472,1,0,0:0:0
444,96,60558,1,0,0:0:0
434,72,60643,1,0,0:0:0
416,53,60729,1,0,0:0:0
392,44,60815,1,0,0:0:0
367,45,60900,1,0,0:0:0
342,52,60986,1,0,0:0:0
323,69,61072,1,0,0:0:0
311,91,61158,1,0,0:0:0
306,115,61243,1,0,0:0:0
305,140,61329,1,4,0:0:0
255,78,66129,5,0,0:0:0
244,100,66215,1,0,0:0:0
227,119,66300,1,0,0:0:0
205,131,66386,1,0,0:0:0
180,135,66472,1,0,0:0:0
155,127,66558,1,0,0:0:0
132,116,66643,1,0,0:0:0
107,110,66729,1,0,0:0:0
85,111,66815,6,0,P|46:202|76:300,1,195.999994018555,4|8,0:0|0:0,0:0:0
178,339,67329,2,0,P|207:294|183:245,1,97.9999970092774
100,183,67672,2,0,P|84:232|115:275,1,97.9999970092774,0|8,0:0|0:0,0:0:0
195,191,68015,1,0,0:0:0
195,191,68100,1,0,0:0:0
195,191,68186,1,0,0:0:0
253,88,68358,1,0,0:0:0
350,153,68529,2,0,P|397:169|446:147,1,97.9999970092774,8|0,0:0|0:0,0:0:0
397,42,68872,2,0,P|333:30|290:41,1,97.9999970092774
207,108,69215,1,8,0:0:0
177,109,69300,1,0,0:0:0
154,89,69386,1,0,0:0:0
138,63,69472,1,0,0:0:0
108,62,69558,2,0,P|55:144|121:160,1,195.999994018555,0|8,0:0|0:0,0:0:0
173,250,70072,1,0,0:0:0
85,328,70243,1,0,0:0:0
68,211,70415,1,0,0:0:0
85,328,70586,1,8,0:0:0
219,345,70758,1,0,0:0:0
335,334,70929,5,4,0:0:0
372,320,71015,1,0,0:0:0
402,344,71100,1,0,0:0:0
439,331,71186,1,0,0:0:0
449,292,71272,1,8,0:0:0
432,256,71358,1,0,0:0:0
403,229,71443,1,0,0:0:0
382,195,71529,1,0,0:0:0
389,156,71615,1,0,0:0:0
415,127,71700,1,0,0:0:0
444,101,71786,1,0,0:0:0
455,63,71872,1,0,0:0:0
428,34,71958,2,0,P|318:26,1,97.9999970092774,8|0,0:0|0:0,0:0:0
265,70,72300,2,0,P|65:86,1,195.999994018555,4|0,0:0|0:0,0:0:0
190,333,72986,5,0,0:0:0
190,333,73158,2,0,P|292:346,1,97.9999970092774,0|8,0:0|0:0,0:0:0
399,312,73500,1,0,0:0:0
399,312,73586,1,0,0:0:0
399,312,73672,2,0,P|400:255|445:242,1,97.9999970092774
383,132,74015,2,0,P|410:90|372:50,1,97.9999970092774,8|0,0:0|0:0,0:0:0
296,130,74358,2,0,P|276:179|320:215,1,97.9999970092774
301,210,74700,1,8,0:0:0
268,231,74786,1,0,0:0:0
231,245,74872,1,0,0:0:0
191,242,74958,1,0,0:0:0
155,226,75043,2,0,P|93:166|89:48,1,195.999994018555,4|0,0:0|0:0,0:0:0
427,60,75558,2,0,P|419:166|357:226,1,195.999994018555,4|0,0:0|0:0,0:0:0
255,340,76072,2,0,P|255:143,1,195.999994018555,0|0,0:0|0:0,0:0:0
255,144,76500,5,0,0:0:0
292,130,76586,1,0,0:0:0
330,121,76672,1,0,0:0:0
368,130,76758,1,0,0:0:0
403,146,76843,1,0,0:0:0
432,171,76929,1,0,0:0:0
452,204,77015,1,0,0:0:0
461,241,77100,1,0,0:0:0
451,279,77186,1,0,0:0:0
426,309,77272,1,0,0:0:0
391,327,77358,1,0,0:0:0
352,324,77443,1,0,0:0:0
261,362,77615,5,0,0:0:0
199,288,77786,2,0,P|152:260|96:261,1,97.9999970092774,4|0,0:0|0:0,0:0:0
18,332,78129,2,0,P|81:356|128:351,1,97.9999970092774,8|0,0:0|0:0,0:0:0
206,286,78472,1,0,0:0:0
301,217,78643,1,0,0:0:0
394,289,78815,1,8,0:0:0
206,286,78986,1,0,0:0:0
301,217,79158,2,0,P|328:154|461:120,1,195.999994018555,0|8,0:0|0:0,0:0:0
441,114,79672,2,0,P|359:58,2,97.9999970092774,0|0|0,0:0|0:0|0:0,0:0:0
254,145,80186,1,8,0:0:0
140,112,80358,1,0,0:0:0
69,18,80529,2,0,P|4:104,1,97.9999970092774
86,185,80872,1,8,0:0:0
4,269,81043,1,0,0:0:0
121,263,81215,1,0,0:0:0
39,347,81386,1,0,0:0:0
121,263,81558,2,0,P|172:284|230:273,1,97.9999970092774,8|0,0:0|0:0,0:0:0
273,229,81900,5,4,0:0:0
298,198,81986,1,0,0:0:0
307,159,82072,1,0,0:0:0
295,121,82158,1,0,0:0:0
267,93,82243,1,8,0:0:0
256,55,82329,1,0,0:0:0
284,27,82415,1,0,0:0:0
322,25,82500,1,0,0:0:0
356,43,82586,1,0,0:0:0
381,72,82672,1,0,0:0:0
404,103,82758,1,0,0:0:0
404,141,82843,1,0,0:0:0
394,179,82929,2,0,P|382:241|407:264,1,97.9999970092774,8|0,0:0|0:0,0:0:0
464,310,83272,6,0,P|452:360|379:355,1,97.9999970092774,4|0,0:0|0:0,0:0:0
303,327,83615,1,8,0:0:0
303,327,83786,1,0,0:0:0
185,338,83958,1,0,0:0:0
185,338,84129,1,0,0:0:0
67,346,84300,2,0,P|38:251|39:141,1,195.999994018555,8|0,0:0|0:0,0:0:0
36,154,84815,1,0,0:0:0
254,65,85158,1,0,0:0:0
254,65,85329,1,0,0:0:0
475,154,85672,2,0,P|474:251|445:346,1,195.999994018555,0|4,0:0|0:0,0:0:0
376,332,86186,5,2,0:0:0
307,315,86358,1,0,0:0:0
240,292,86529,1,2,0:0:0
171,307,86700,2,0,P|87:331,1,70,0|2,0:0|0:0,0:0:0
103,326,87043,1,0,0:0:0
58,272,87215,1,2,0:0:0
86,208,87386,1,0,0:0:0
68,140,87558,1,2,0:0:0
87,73,87729,1,0,0:0:0
147,108,87900,1,2,0:0:0
200,62,88072,1,0,0:0:0
200,62,88243,1,2,0:0:0
310,62,88415,1,0,0:0:0
256,131,88586,2,0,P|264:224,1,70,4|0,0:0|0:0,0:0:0
