osu file format v13

[General]
AudioFilename: Nightstep - Shatter Me.mp3
AudioLeadIn: 0
PreviewTime: 56841
Countdown: 0
SampleSet: Soft
StackLeniency: 0.5
Mode: 0
LetterboxInBreaks: 0
WidescreenStoryboard: 1

[Editor]
DistanceSpacing: 0.7
BeatDivisor: 4
GridSize: 4
TimelineZoom: 1.1

[Metadata]
Title:Shatter me (Nightstep Mix)
TitleUnicode:Shatter me (Nightstep Mix)
Artist:Lindsey Stirling feat Lzzy Hale
ArtistUnicode:Lindsey Stirling feat Lzzy Hale
Creator:ScyRox
Version:Shattered
Source:
Tags:Violin Dubstep Shatter Me Lzzy Hale Nightstep Lindsey Stirling
BeatmapID:606185
BeatmapSetID:265991

[Difficulty]
HPDrainRate:6.3
CircleSize:4.3
OverallDifficulty:7.8
ApproachRate:9.7
SliderMultiplier:1.4
SliderTickRate:1

[Events]
//Background and Video events
0,0,"shatterme.jpg",0,0
//Break Periods
2,85086,104153
2,173620,178539
//Storyboard Layer 0 (Background)
//Storyboard Layer 1 (Fail)
//Storyboard Layer 2 (Pass)
//Storyboard Layer 3 (Foreground)
//Storyboard Sound Samples

[TimingPoints]
2192,350.877192982456,4,2,0,15,1,0
13420,-111.111111111111,4,2,0,15,0,0
14823,-125,4,2,0,15,0,0
19034,-166.666666666667,4,2,0,15,0,0
23420,-117.647058823529,4,2,0,15,0,0
30262,-166.666666666667,4,2,0,15,0,0
32367,-125,4,2,0,15,0,0
33069,-200,4,2,0,15,0,0
35525,-111.111111111111,4,2,0,25,0,0
45700,-90.9090909090908,4,2,0,25,0,0
47279,-83.3333333333333,4,2,0,30,0,0
49911,-83.3333333333333,4,2,0,35,0,0
52893,-83.3333333333333,4,2,0,40,0,0
55525,-83.3333333333333,4,2,0,45,0,0
57455,-83.3333333333333,4,2,0,30,0,0
57981,-200,4,2,0,10,0,0
59735,-125,4,2,0,30,0,1
60613,-83.3333333333333,4,2,0,55,0,1
62542,-125,4,2,0,30,0,1
63420,-83.3333333333333,4,2,0,55,0,1
65349,-125,4,2,0,30,0,1
65700,-83.3333333333333,4,2,0,55,0,1
66051,-125,4,2,0,30,0,1
66490,-83.3333333333333,4,2,0,55,0,1
66753,-125,4,2,0,30,0,1
67191,-83.3333333333333,4,2,0,55,0,1
67455,-125,4,2,0,30,0,0
68683,-111.111111111111,4,2,0,30,0,0
70963,-125,4,2,0,30,0,1
71841,-83.3333333333333,4,2,0,55,0,1
73069,-66.6666666666667,4,2,0,45,0,1
73770,-125,4,2,0,30,0,1
74648,-76.9230769230769,4,2,0,55,0,1
76577,-125,4,2,0,30,0,1
76928,-76.9230769230769,4,2,0,55,0,1
77279,-125,4,2,0,30,0,1
77718,-76.9230769230769,4,2,0,55,0,1
78858,-111.111111111111,4,2,0,30,0,1
79384,-125,4,2,0,30,0,1
80613,-125,4,2,0,20,0,1
81928,-111.111111111111,4,2,0,20,0,0
115876,-99.9999999999999,4,2,0,20,0,0
126402,-71.4285714285714,4,2,0,20,0,0
126753,-200,4,2,0,10,0,0
128507,-125,4,2,0,10,0,1
129384,-76.9230769230769,4,2,0,55,0,1
131314,-125,4,2,0,30,0,1
132191,-76.9230769230769,4,2,0,55,0,1
134121,-142.857142857143,4,2,0,30,0,1
134472,-76.9230769230769,4,2,0,55,0,1
134823,-142.857142857143,4,2,0,30,0,1
135174,-76.9230769230769,4,2,0,55,0,1
135525,-142.857142857143,4,2,0,30,0,1
135963,-76.923076923077,4,2,0,55,0,1
136227,-90.9090909090909,4,2,0,30,0,0
136928,-125,4,2,0,30,0,0
137455,-200,4,2,0,30,0,0
139501,-83.3333333333333,4,2,0,30,0,0
139735,-142.857142857143,4,2,0,30,0,1
140613,-71.4285714285714,4,2,0,55,0,1
142542,-125,4,2,0,30,0,1
143420,-71.4285714285714,4,2,0,55,0,1
145349,-142.857142857143,4,2,0,30,0,1
145700,-71.4285714285714,4,2,0,55,0,1
146051,-142.857142857143,4,2,0,30,0,1
146402,-71.4285714285714,4,2,0,55,0,1
147630,-111.111111111111,4,2,0,55,0,1
148156,-125,4,2,0,55,0,1
150876,-200,4,2,0,55,0,0
151490,-200,4,2,0,55,0,0
152191,-200,4,2,0,10,0,0
152367,-200,4,2,0,55,0,0
153946,-142.857142857143,4,2,0,10,0,0
154297,-142.857142857143,4,2,0,55,0,0
154648,-142.857142857143,4,2,0,10,0,0
155174,-111.111111111111,4,2,0,55,0,0
156577,-142.857142857143,4,2,0,55,0,0
157630,-142.857142857143,4,2,0,10,0,0
157981,-200,4,2,0,55,0,0
159034,-142.857142857143,4,2,0,10,0,0
159034,-142.857142857143,4,2,0,55,0,0
159560,-142.857142857143,4,2,0,10,0,0
160086,-142.857142857143,4,2,0,55,0,0
160700,-142.857142857143,4,2,0,10,0,0
160788,-100,4,2,0,55,0,0
162455,-100,4,2,0,10,0,0
162718,-100,4,2,0,55,0,0
162893,-100,4,2,0,55,0,0
163156,-100,4,2,0,10,0,0
163420,-100,4,2,0,55,0,0
163595,-100,4,2,0,10,0,0
163770,-100,4,2,0,55,0,0
164034,-100,4,2,0,10,0,0
164121,-100,4,2,0,55,0,0
164472,-100,4,2,0,10,0,0
164999,-100,4,2,0,55,0,0
165613,-100,4,2,0,10,0,0
165700,-100,4,2,0,55,0,0
166665,-100,4,2,0,10,0,0
166753,-100,4,2,0,55,0,0
167016,-100,4,2,0,10,0,0
167104,-100,4,2,0,55,0,0
167367,-100,4,2,0,10,0,0
167455,-200,4,2,0,55,0,0
168683,-200,4,2,0,10,0,0
169034,-100,4,2,0,55,0,0
169297,-100,4,2,0,10,0,0
169384,-100,4,2,0,55,0,0
169560,-100,4,2,0,10,0,0
169735,-100,4,2,0,55,0,0
170086,-100,4,2,0,10,0,0
170613,-100,4,2,0,55,0,0
179034,-100,4,2,0,20,0,0
183069,-100,4,2,0,10,0,0
184297,-83.3333333333333,4,2,0,10,0,0
186051,-111.111111111111,4,2,0,10,0,0

[Colours]
Combo1 : 157,47,47
Combo2 : 255,255,255
Combo3 : 192,192,192
Combo4 : 147,255,255
Combo5 : 43,255,255
Combo6 : 35,84,109
Combo7 : 174,71,28

[HitObjects]
204,248,13420,5,0,0:0:0:0:
280,184,13595,1,0,0:0:0:0:
364,232,13770,2,0,P|394:216|404:173,1,62.9999980773926
496,120,14121,2,0,P|456:120|428:148,1,62.9999980773926
344,80,14472,2,0,P|356:120|392:148,1,62.9999980773926
456,248,14823,5,0,0:0:0:0:
364,336,14999,1,0,0:0:0:0:
308,228,15174,1,0,0:0:0:0:
208,296,15349,2,0,P|160:292|116:260,1,84
104,224,15700,2,0,L|32:196,1,56
232,176,16051,1,0,0:0:0:0:
240,332,16227,5,0,0:0:0:0:
160,252,16402,1,0,0:0:0:0:
312,176,16577,1,0,0:0:0:0:
168,92,16753,1,0,0:0:0:0:
156,88,16841,1,0,0:0:0:0:
144,84,16928,1,0,0:0:0:0:
300,140,17104,5,0,0:0:0:0:
120,208,17279,1,0,0:0:0:0:
208,316,17455,1,0,0:0:0:0:
220,112,17630,1,0,0:0:0:0:
220,112,17718,1,0,0:0:0:0:
220,112,17806,53,0,0:0:0:0:
112,280,17981,1,0,0:0:0:0:
328,328,18156,1,0,0:0:0:0:
184,240,18332,1,0,0:0:0:0:
376,192,18507,1,0,0:0:0:0:
376,192,18595,1,0,0:0:0:0:
376,192,18683,1,0,0:0:0:0:
220,316,18858,1,0,0:0:0:0:
164,248,19034,6,0,B|180:209|220:197|220:197|216:153|216:153|236:113|276:101|304:137|292:173|244:160,1,251.999992309571
144,132,20262,1,0,0:0:0:0:
144,132,20437,2,0,B|108:112|92:80|92:80|100:188,1,167.999994873047,0|0,0:0|0:0,0:0:0:0:
136,324,21490,1,0,0:0:0:0:
184,340,21841,2,0,B|219:336|219:336|248:324|281:326|281:326|312:308|320:252,2,167.999994873047,0|0|0,0:0|0:0|0:0,0:0:0:0:
128,240,23420,6,0,L|116:180,1,59.5000011348725
160,44,23770,2,0,L|120:104,1,59.5000011348725,0|0,0:0|0:0,0:0:0:0:
0,116,24121,2,0,L|57:129,1,59.5000011348725,0|0,0:0|0:0,0:0:0:0:
264,156,24472,1,0,0:0:0:0:
264,156,24560,1,0,0:0:0:0:
264,156,24648,1,0,0:0:0:0:
204,268,25525,5,0,0:0:0:0:
208,276,25613,1,0,0:0:0:0:
212,284,25700,1,0,0:0:0:0:
340,332,25876,1,0,0:0:0:0:
440,240,26051,2,0,L|372:260,1,59.5000011348725
228,336,26402,1,0,0:0:0:0:
36,276,26577,2,0,P|84:260|160:268,1,119.000002269745,0|0,0:0|0:0,0:0:0:0:
188,296,27016,53,0,0:0:0:0:
188,296,27104,1,0,0:0:0:0:
308,240,27279,2,0,L|236:192,1,59.5000011348725
248,112,27630,2,0,L|320:72,2,59.5000011348725,0|0|0,0:0|0:0|0:0,0:0:0:0:
136,204,28156,2,0,P|112:176|100:120,1,89.2500017023087
112,80,28507,2,0,L|176:36,1,59.5000011348725
288,32,28858,5,0,0:0:0:0:
264,224,29034,1,0,0:0:0:0:
180,124,29209,1,0,0:0:0:0:
408,188,29384,2,0,P|400:244|372:296,1,89.2500017023087
316,324,29735,1,0,0:0:0:0:
168,244,29911,1,0,0:0:0:0:
256,132,30086,21,0,0:0:0:0:
260,120,30174,1,0,0:0:0:0:
264,112,30262,2,0,B|292:64|324:80|340:124|324:152|288:140|288:140|304:180|304:180|280:220|312:252,1,251.999992309571
368,312,31490,1,0,0:0:0:0:
480,268,31665,2,0,B|468:244|432:216|384:236|384:236|372:212|348:208,1,146.999995513916
276,216,32367,54,0,P|236:228|184:228,1,84
128,240,32718,2,0,P|132:276|160:336,1,84
244,344,33069,2,0,P|296:348|352:300,1,122.5,0|0,0:0|0:0,0:0:0:0:
280,272,33770,2,0,P|308:236|304:160,1,122.5,0|0,0:0|0:0,0:0:0:0:
240,128,34472,2,0,B|272:108|276:84|276:84|248:60|308:32,1,122.5
380,52,35174,2,0,P|412:60|432:84,1,52.5
388,184,35525,6,0,L|364:252,1,62.9999980773926
492,136,35876,2,0,L|480:204,1,62.9999980773926
448,264,36139,1,0,0:0:0:0:
448,264,36227,1,0,0:0:0:0:
288,196,36402,1,0,0:0:0:0:
400,120,36577,1,0,0:0:0:0:
392,304,36753,1,0,0:0:0:0:
276,324,36928,5,0,0:0:0:0:
268,328,37016,1,0,0:0:0:0:
260,332,37104,1,0,0:0:0:0:
108,252,37279,2,0,L|40:232,2,62.9999980773926,0|0|0,0:0|0:0|0:0,0:0:0:0:
260,200,37806,2,0,P|300:180|336:124,1,94.499997116089
368,80,38156,2,0,L|424:20,1,62.9999980773926
464,172,38507,5,0,0:0:0:0:
456,188,38595,1,0,0:0:0:0:
448,204,38683,1,0,0:0:0:0:
352,320,38858,1,0,0:0:0:0:
328,164,39034,1,0,0:0:0:0:
248,252,39209,1,0,0:0:0:0:
408,148,39384,53,0,0:0:0:0:
196,144,39560,1,0,0:0:0:0:
400,80,39735,1,0,0:0:0:0:
216,216,39911,1,0,0:0:0:0:
208,224,39999,1,0,0:0:0:0:
200,232,40086,1,0,0:0:0:0:
280,68,40262,5,0,0:0:0:0:
120,296,40437,1,0,0:0:0:0:
124,104,40613,1,0,0:0:0:0:
112,84,40700,1,0,0:0:0:0:
100,64,40788,1,0,0:0:0:0:
16,200,40963,6,0,P|56:216|128:212,1,94.499997116089
160,168,41314,1,0,0:0:0:0:
168,160,41402,1,0,0:0:0:0:
176,152,41490,1,0,0:0:0:0:
208,240,41665,2,0,L|256:300,1,62.9999980773926
368,316,42016,1,0,0:0:0:0:
368,316,42104,1,0,0:0:0:0:
368,316,42191,6,0,P|388:284|392:240,1,62.9999980773926
356,44,42542,1,0,0:0:0:0:
284,136,42718,2,0,L|292:208,1,62.9999980773926
336,344,43069,1,0,0:0:0:0:
184,272,43244,1,0,0:0:0:0:
284,180,43420,2,0,P|232:160|182:186,1,94.499997116089
176,196,43770,1,0,0:0:0:0:
320,284,43946,53,0,0:0:0:0:
328,288,44034,1,0,0:0:0:0:
336,292,44121,1,0,0:0:0:0:
96,248,44297,1,0,0:0:0:0:
204,352,44472,1,0,0:0:0:0:
260,156,44648,5,0,0:0:0:0:
268,144,44735,1,0,0:0:0:0:
276,132,44823,1,0,0:0:0:0:
204,36,44999,1,0,0:0:0:0:
320,224,45174,1,0,0:0:0:0:
424,148,45349,2,0,L|432:76,1,62.9999980773926
448,40,45613,5,0,0:0:0:0:
496,24,45700,2,0,B|452:116|452:116|392:132|348:68,1,192.500005874634
200,152,46227,2,0,B|298:124|298:124|349:159|330:234,1,192.500005874634
436,284,46753,2,0,B|398:225|398:225|411:185|463:182,1,154.000004699707
472,48,47279,5,0,0:0:0:0:
396,164,47455,2,0,L|411:79,1,83.9999974365235
336,216,47806,1,0,0:0:0:0:
256,344,47981,2,0,L|271:259,1,83.9999974365235
344,328,48332,53,0,0:0:0:0:
168,176,48507,1,0,0:0:0:0:
160,304,48683,1,0,0:0:0:0:
296,96,48858,1,0,0:0:0:0:
276,236,49034,2,0,B|220:244|220:244|180:264|180:264|104:276,1,167.999994873047
76,312,49472,1,0,0:0:0:0:
76,312,49560,1,0,0:0:0:0:
20,188,49735,5,0,0:0:0:0:
48,332,49911,2,0,L|64:236,1,83.9999974365235
96,100,50262,1,0,0:0:0:0:
140,248,50437,2,0,L|156:152,1,83.9999974365235
188,16,50788,1,0,0:0:0:0:
244,72,50963,2,0,L|228:164,1,83.9999974365235
192,264,51314,5,0,0:0:0:0:
184,268,51402,1,0,0:0:0:0:
176,272,51490,2,0,L|344:288,1,167.999994873047
420,128,52016,1,0,0:0:0:0:
480,260,52191,1,0,0:0:0:0:
480,260,52279,1,0,0:0:0:0:
480,260,52367,1,0,0:0:0:0:
328,336,52542,6,0,P|272:336|228:320,1,83.9999974365235
176,184,52893,1,0,0:0:0:0:
284,52,53069,2,0,P|327:87|351:127,1,83.9999974365235
368,252,53420,1,0,0:0:0:0:
116,216,53595,2,0,P|121:160|142:118,1,83.9999974365235
300,32,53946,1,0,0:0:0:0:
372,164,54121,53,0,0:0:0:0:
280,320,54297,1,0,0:0:0:0:
152,164,54472,1,0,0:0:0:0:
404,92,54648,1,0,0:0:0:0:
256,264,54823,1,0,0:0:0:0:
88,116,54999,1,0,0:0:0:0:
352,32,55174,5,0,0:0:0:0:
232,188,55349,1,0,0:0:0:0:
28,60,55525,1,0,0:0:0:0:
32,72,55613,1,0,0:0:0:0:
40,80,55700,1,0,0:0:0:0:
48,88,55788,1,0,0:0:0:0:
64,96,55876,5,0,0:0:0:0:
76,104,55963,1,0,0:0:0:0:
100,120,56051,1,0,0:0:0:0:
128,140,56139,1,0,0:0:0:0:
144,168,56227,1,0,0:0:0:0:
144,208,56314,1,0,0:0:0:0:
120,244,56402,5,0,0:0:0:0:
72,244,56490,1,0,0:0:0:0:
40,212,56577,1,0,0:0:0:0:
48,168,56665,1,0,0:0:0:0:
84,140,56753,1,0,0:0:0:0:
128,148,56841,1,0,0:0:0:0:
164,176,56928,5,0,0:0:0:0:
220,192,57016,1,0,0:0:0:0:
280,200,57104,1,0,0:0:0:0:
332,176,57191,1,0,0:0:0:0:
376,136,57279,1,0,0:0:0:0:
392,84,57367,1,0,0:0:0:0:
364,60,57455,6,0,L|361:80,1,20.9999993591309,0|0,0:0|0:0,0:0:0:0:
336,72,57542,2,0,L|333:92,1,20.9999993591309,0|0,0:0|0:0,0:0:0:0:
309,84,57630,2,0,L|307:105,1,20.9999993591309,0|0,0:0|0:0,0:0:0:0:
240,120,57718,2,0,L|237:99,1,20.9999993591309,0|0,0:0|0:0,0:0:0:0:
212,108,57806,2,0,L|209:87,1,20.9999993591309,0|0,0:0|0:0,0:0:0:0:
185,95,57893,2,0,L|182:74,1,20.9999993591309,0|0,0:0|0:0,0:0:0:0:
108,48,57981,22,0,B|89:94|108:140|108:140|24:169|53:240|128:223|120:165,1,262.5
120,172,59735,2,0,B|160:160|204:192|204:192|212:232|212:232|256:264|312:248,1,224
400,336,60613,6,0,P|424:336|456:328,1,41.9999987182618
448,256,60789,2,0,P|480:256|516:248,1,41.9999987182618
384,184,60964,2,0,P|356:192|320:208,1,41.9999987182618,0|0,0:0|0:0,0:0:0:0:
304,112,61139,2,0,P|276:120|236:140,1,41.9999987182618
256,256,61314,6,0,L|232:312,1,41.9999987182618
232,136,61490,2,0,L|184:116,1,41.9999987182618
356,120,61665,2,0,L|376:80,1,41.9999987182618
348,240,61841,2,0,L|386:256,1,41.9999987182618
288,160,62016,5,0,0:0:0:0:
280,144,62104,1,0,0:0:0:0:
228,96,62191,1,0,0:0:0:0:
220,112,62279,1,0,0:0:0:0:
160,156,62367,1,0,0:0:0:0:
144,136,62455,1,0,0:0:0:0:
88,84,62542,38,0,B|100:128|100:128|92:168|92:168|132:188|148:232|148:232|132:296,1,224
192,340,63420,22,0,L|216:280,2,41.9999987182618,0|0|0,0:0|0:0|0:0,0:0:0:0:
260,212,63683,2,0,L|304:168,2,41.9999987182618,0|0|0,0:0|0:0|0:0,0:0:0:0:
384,116,63946,2,0,L|440:100,2,41.9999987182618,0|0|0,0:0|0:0|0:0,0:0:0:0:
472,172,64209,5,0,0:0:0:0:
476,204,64297,1,0,0:0:0:0:
472,236,64384,1,0,0:0:0:0:
456,268,64472,1,0,0:0:0:0:
432,292,64560,1,0,0:0:0:0:
393,301,64648,6,0,L|327:294,1,41.9999987182618
144,224,64823,2,0,L|189:228,1,41.9999987182618
348,380,64999,2,0,L|288:322,1,41.9999987182618
164,136,65174,2,0,L|205:175,1,41.9999987182618
80,288,65349,6,0,P|60:248|60:200,1,84
80,140,65700,53,0,0:0:0:0:
152,120,65788,1,0,0:0:0:0:
212,72,65876,1,0,0:0:0:0:
288,72,65963,1,0,0:0:0:0:
272,148,66051,70,0,B|276:192|276:192|272:228|272:228|276:284,1,112
284,336,66490,37,0,0:0:0:0:
340,280,66577,1,0,0:0:0:0:
372,200,66665,1,0,0:0:0:0:
420,140,66753,38,0,B|428:176|416:208|416:208|420:276,1,112
416,324,67191,69,0,0:0:0:0:
328,300,67279,1,0,0:0:0:0:
264,252,67367,1,0,0:0:0:0:
228,176,67455,54,0,L|240:108,1,56,0|0,0:0|0:0,0:0:0:0:
168,24,67718,1,0,0:0:0:0:
148,40,67806,2,0,L|136:100,1,56,0|0,0:0|0:0,0:0:0:0:
140,256,68156,2,0,B|104:272|52:256|52:256|72:216,1,112
168,112,68683,70,0,B|228:80|292:112|292:112|312:36,1,188.999994232178,0|0,0:0|0:0,0:0:0:0:
307,54,69384,1,0,0:0:0:0:
436,32,69560,2,0,B|400:104|400:104|440:116|428:176,1,157.499995193482
484,224,70086,2,0,B|440:240|448:280|448:280|360:236,1,157.499995193482
288,184,70613,1,0,0:0:0:0:
268,320,70744,2,0,L|260:356,3,20.9999993591309,0|0|0|0,0:0|0:0|0:0|0:0,0:0:0:0:
260,280,70963,6,0,B|168:276|168:276|164:312|164:312|56:312,1,224
36,288,71841,22,0,P|40:263|56:219,1,41.9999987182618
72,108,72016,2,0,P|68:133|52:177,1,41.9999987182618
96,328,72191,2,0,P|99:302|115:258,1,41.9999987182618
140,88,72367,2,0,P|136:113|120:157,1,41.9999987182618
152,360,72542,2,0,P|155:334|171:290,1,41.9999987182618
200,136,72718,5,0,0:0:0:0:
224,88,72806,1,0,0:0:0:0:
264,56,72893,1,0,0:0:0:0:
308,32,72981,1,0,0:0:0:0:
344,68,73069,6,0,L|336:148,1,52.5000020027161
332,204,73244,1,0,0:0:0:0:
344,248,73332,1,0,0:0:0:0:
372,280,73420,1,0,0:0:0:0:
392,312,73507,1,0,0:0:0:0:
432,328,73595,2,0,L|440:272,1,52.5000020027161,0|0,0:0|0:0,0:0:0:0:
392,124,73770,6,0,B|336:120|336:120|284:148|304:208|304:208|340:144,1,224
328,72,74648,54,0,L|364:16,2,45.4999979171754,0|0|0,0:0|0:0|0:0,0:0:0:0:
240,188,74911,2,0,L|288:148,2,45.4999979171754,0|0|0,0:0|0:0|0:0,0:0:0:0:
84,296,75174,1,0,0:0:0:0:
108,264,75262,1,0,0:0:0:0:
140,240,75349,1,0,0:0:0:0:
180,236,75437,1,0,0:0:0:0:
140,224,75525,5,0,0:0:0:0:
116,192,75613,1,0,0:0:0:0:
108,152,75700,1,0,0:0:0:0:
84,116,75788,1,0,0:0:0:0:
48,100,75876,1,0,0:0:0:0:
76,76,75963,1,0,0:0:0:0:
116,64,76051,5,0,0:0:0:0:
156,60,76139,1,0,0:0:0:0:
196,72,76227,1,0,0:0:0:0:
236,92,76314,1,0,0:0:0:0:
268,124,76402,1,0,0:0:0:0:
280,164,76490,1,0,0:0:0:0:
240,232,76577,6,0,P|200:252|156:240,1,84
124,172,76928,5,0,0:0:0:0:
48,168,77016,1,0,0:0:0:0:
60,240,77104,1,0,0:0:0:0:
104,300,77191,1,0,0:0:0:0:
52,344,77279,54,0,L|20:216,1,112
20,156,77718,53,0,0:0:0:0:
72,96,77806,1,0,0:0:0:0:
144,64,77893,1,0,0:0:0:0:
224,48,77981,2,0,P|248:60|296:68,1,45.4999979171754
320,124,78156,1,0,0:0:0:0:
248,164,78244,1,0,0:0:0:0:
196,224,78332,2,0,P|224:244|260:244,1,45.4999979171754
312,216,78507,69,0,0:0:0:0:
360,160,78595,1,0,0:0:0:0:
420,112,78683,1,0,0:0:0:0:
492,124,78770,1,0,0:0:0:0:
456,192,78858,54,0,L|444:276,1,62.9999980773926
376,316,79209,1,0,0:0:0:0:
376,316,79384,2,0,B|334:292|290:305|290:305|269:264|269:264|224:232|180:254,1,224
193,183,80613,85,0,0:0:0:0:
120,64,81139,1,0,0:0:0:0:
232,296,81490,1,0,0:0:0:0:
112,224,81665,1,0,0:0:0:0:
356,104,81972,1,0,0:0:0:0:
360,136,104648,6,0,P|352:172|360:220,1,62.9999980773926
236,168,104999,2,0,P|269:151|301:115,1,62.9999980773926,0|0,0:0|0:0,0:0:0:0:
312,264,105349,2,0,P|281:243|234:232,1,62.9999980773926,0|0,0:0|0:0,0:0:0:0:
92,288,105700,1,0,0:0:0:0:
92,288,105788,1,0,0:0:0:0:
92,288,105876,1,0,0:0:0:0:
152,172,106051,6,0,L|156:256,1,62.9999980773926
212,336,106402,1,0,0:0:0:0:
248,156,106577,1,0,0:0:0:0:
304,284,106753,1,0,0:0:0:0:
92,188,106928,1,0,0:0:0:0:
92,188,107016,1,0,0:0:0:0:
92,188,107104,1,0,0:0:0:0:
224,60,107279,1,0,0:0:0:0:
392,188,107455,6,0,L|312:164,1,62.9999980773926
148,156,107806,2,0,L|208:174,1,62.9999980773926
252,236,108069,1,0,0:0:0:0:
252,236,108156,1,0,0:0:0:0:
312,340,108332,1,0,0:0:0:0:
432,192,108507,54,0,P|408:152|368:136,1,62.9999980773926
120,108,108858,1,0,0:0:0:0:
116,116,108946,1,0,0:0:0:0:
112,124,109034,2,0,L|228:112,1,94.499997116089
288,152,109384,2,0,L|226:159,1,62.9999980773926
88,244,109735,5,0,0:0:0:0:
88,244,109823,1,0,0:0:0:0:
88,244,109911,1,0,0:0:0:0:
272,304,110086,1,0,0:0:0:0:
272,80,110262,2,0,L|232:144,1,62.9999980773926
136,184,110613,1,0,0:0:0:0:
224,264,110788,2,0,P|272:276|320:264,1,94.499997116089
372,232,111139,6,0,P|404:228|448:236,1,62.9999980773926
380,356,111490,2,0,P|361:329|347:287,1,62.9999980773926
480,296,111841,2,0,P|472:329|448:360,1,62.9999980773926
200,300,112191,1,0,0:0:0:0:
196,308,112279,1,0,0:0:0:0:
192,316,112367,1,0,0:0:0:0:
276,236,112542,1,0,0:0:0:0:
280,228,112630,1,0,0:0:0:0:
284,220,112718,1,0,0:0:0:0:
256,84,112893,5,0,0:0:0:0:
368,228,113069,1,0,0:0:0:0:
424,92,113244,1,0,0:0:0:0:
264,256,113420,1,0,0:0:0:0:
296,76,113595,1,0,0:0:0:0:
440,252,113770,1,0,0:0:0:0:
376,96,113946,53,0,0:0:0:0:
208,224,114121,2,0,B|172:228|132:204|132:204|152:240,1,94.499997116089
272,308,114472,2,0,P|280:264|272:224,1,62.9999980773926
212,48,114823,2,0,P|210:79|218:109,1,62.9999980773926
356,208,115174,1,0,0:0:0:0:
384,204,115262,1,0,0:0:0:0:
416,184,115349,1,0,0:0:0:0:
296,48,115525,5,0,0:0:0:0:
148,160,115700,1,0,0:0:0:0:
224,348,115876,2,0,P|208:320|208:280,1,70,0|0,0:0|0:0,0:0:0:0:
212,112,116227,1,0,0:0:0:0:
384,216,116402,2,0,P|348:208|312:184,1,70,0|0,0:0|0:0,0:0:0:0:
112,96,116753,1,0,0:0:0:0:
148,236,116928,6,0,P|189:240|216:252,1,70,0|0,0:0|0:0,0:0:0:0:
364,320,117279,2,0,L|444:332,2,70,0|0|0,0:0|0:0|0:0,0:0:0:0:
404,220,117806,2,0,P|388:176|392:96,1,105
396,92,118156,2,0,L|332:136,1,70
212,260,118507,1,0,0:0:0:0:
212,260,118595,1,0,0:0:0:0:
212,260,118683,5,0,0:0:0:0:
324,88,118858,1,0,0:0:0:0:
280,196,119034,2,0,L|292:272,1,70
364,32,119384,1,0,0:0:0:0:
316,156,119560,2,0,L|328:232,1,70,0|0,0:0|0:0,0:0:0:0:
324,40,119911,1,0,0:0:0:0:
260,144,120086,1,0,0:0:0:0:
324,40,120262,54,0,P|392:40|440:64,1,105
460,96,120613,2,0,L|468:180,1,70
400,308,120963,1,0,0:0:0:0:
400,308,121051,1,0,0:0:0:0:
400,308,121139,1,0,0:0:0:0:
268,152,121314,1,0,0:0:0:0:
332,312,121490,1,0,0:0:0:0:
328,320,121577,1,0,0:0:0:0:
324,328,121665,6,0,B|269:333|269:333|243:344|243:344|171:355,1,140
60,316,122191,2,0,L|144:304,1,70
388,208,122542,2,0,L|318:217,1,70
120,224,122893,1,0,0:0:0:0:
340,128,123069,1,0,0:0:0:0:
340,128,123156,1,0,0:0:0:0:
340,128,123244,1,0,0:0:0:0:
292,264,123420,5,0,0:0:0:0:
220,168,123595,1,0,0:0:0:0:
296,300,123770,1,0,0:0:0:0:
208,124,123946,1,0,0:0:0:0:
308,332,124121,1,0,0:0:0:0:
200,84,124297,1,0,0:0:0:0:
160,104,124384,1,0,0:0:0:0:
128,132,124472,1,0,0:0:0:0:
112,168,124560,5,0,0:0:0:0:
112,200,124648,1,0,0:0:0:0:
112,232,124735,1,0,0:0:0:0:
112,264,124823,1,0,0:0:0:0:
120,304,124911,1,0,0:0:0:0:
152,268,124999,1,0,0:0:0:0:
184,232,125086,5,0,0:0:0:0:
232,216,125174,1,0,0:0:0:0:
280,220,125262,1,0,0:0:0:0:
328,244,125349,1,0,0:0:0:0:
368,276,125437,1,0,0:0:0:0:
344,232,125525,1,0,0:0:0:0:
332,176,125613,5,0,0:0:0:0:
328,124,125700,1,0,0:0:0:0:
356,80,125788,1,0,0:0:0:0:
404,56,125876,1,0,0:0:0:0:
360,76,125963,1,0,0:0:0:0:
316,100,126051,1,0,0:0:0:0:
272,120,126139,1,0,0:0:0:0:
224,144,126227,1,0,0:0:0:0:
176,164,126314,5,0,0:0:0:0:
128,192,126402,2,0,L|112:228,1,24.4999992523194
84,216,126490,2,0,L|68:252,1,24.4999992523194
116,280,126577,2,0,L|132:316,1,24.4999992523194
160,304,126665,2,0,L|176:340,1,24.4999992523194
228,312,126753,6,0,B|292:284|268:240|268:240|340:208|308:108|212:144|252:208,1,288.75
251,206,128507,2,0,B|308:195|324:131|324:131|368:88|436:96,1,224
456,148,129384,54,0,L|443:214,1,45.4999979171754
360,272,129560,2,0,L|376:216,1,45.4999979171754
472,164,129735,2,0,L|448:220,1,45.4999979171754
328,256,129911,6,0,L|376:204,1,45.4999979171754
496,192,130086,2,0,L|444:228,1,45.4999979171754
292,220,130262,1,0,0:0:0:0:
256,252,130349,1,0,0:0:0:0:
220,284,130437,1,0,0:0:0:0:
180,316,130525,5,0,0:0:0:0:
132,340,130613,1,0,0:0:0:0:
84,332,130700,1,0,0:0:0:0:
44,300,130788,1,0,0:0:0:0:
32,252,130876,1,0,0:0:0:0:
56,208,130963,1,0,0:0:0:0:
104,196,131051,5,0,0:0:0:0:
152,208,131139,1,0,0:0:0:0:
200,204,131227,1,0,0:0:0:0:
248,180,131314,2,0,B|252:208|252:208|296:260|264:320|264:320|272:352|272:352|304:304,1,224
323,301,132191,54,0,L|264:316,1,45.4999979171754
436,228,132367,2,0,L|495:242,1,45.4999979171754,0|0,0:0|0:0,0:0:0:0:
264,140,132542,2,0,L|204:154,1,45.4999979171754,0|0,0:0|0:0,0:0:0:0:
460,144,132718,2,0,L|519:158,1,45.4999979171754,0|0,0:0|0:0,0:0:0:0:
292,224,132893,2,0,L|232:238,1,45.4999979171754,0|0,0:0|0:0,0:0:0:0:
412,304,133069,2,0,L|471:318,1,45.4999979171754
364,152,133244,5,0,0:0:0:0:
352,108,133332,1,0,0:0:0:0:
332,68,133420,2,0,P|308:52|284:20,1,45.4999979171754
456,164,133595,2,0,P|480:180|504:212,1,45.4999979171754
456,36,133770,2,0,P|472:12|504:-12,1,45.4999979171754
336,208,133946,2,0,P|320:232|288:256,1,45.4999979171754
200,124,134121,6,0,L|292:132,1,73.4999977569581
348,148,134472,1,0,0:0:0:0:
400,212,134560,1,0,0:0:0:0:
328,252,134648,1,0,0:0:0:0:
256,204,134735,1,0,0:0:0:0:
184,232,134823,6,0,B|175:260|175:260|164:280|164:280|152:316,1,73.4999977569581
88,344,135174,1,0,0:0:0:0:
32,288,135262,1,0,0:0:0:0:
32,208,135349,1,0,0:0:0:0:
88,152,135437,1,0,0:0:0:0:
152,192,135525,2,0,L|184:292,1,97.9999970092774
244,328,135963,5,0,0:0:0:0:
280,256,136051,1,0,0:0:0:0:
260,180,136139,1,0,0:0:0:0:
248,104,136227,6,0,P|300:100|344:128,1,77.0000023498536
363,180,136490,1,0,0:0:0:0:
352,212,136577,2,0,P|316:233|279:240,1,77.0000023498536
128,284,136928,2,0,B|168:276|196:288|196:288|256:280,1,112
376,292,137455,70,0,B|340:300|311:292|311:292|258:299,1,105
264,304,138156,1,0,0:0:0:0:
336,136,138507,1,0,0:0:0:0:
340,128,138595,1,0,0:0:0:0:
344,120,138683,1,0,0:0:0:0:
180,240,139034,1,0,0:0:0:0:
256,108,139297,1,0,0:0:0:0:
392,196,139516,2,0,L|400:236,3,27.9999991455078,0|0|0|0,0:0|0:0|0:0|0:0,0:0:0:0:
456,240,139735,6,0,B|441:277|397:289|366:282|341:257|341:257|313:273|281:265,1,195.999994018555
284,265,140613,38,0,L|233:287,1,48.9999985046387
360,152,140788,2,0,L|376:84,1,48.9999985046387
268,292,140963,2,0,L|212:304,1,48.9999985046387
384,148,141139,2,0,L|392:84,1,48.9999985046387
260,324,141314,2,0,L|204:324,1,48.9999985046387,0|0,0:0|0:0,0:0:0:0:
408,144,141490,2,0,L|408:72,1,48.9999985046387
268,188,141665,5,0,0:0:0:0:
228,192,141753,1,0,0:0:0:0:
188,196,141841,1,0,0:0:0:0:
148,200,141928,1,0,0:0:0:0:
60,152,142016,5,0,0:0:0:0:
112,156,142104,1,0,0:0:0:0:
164,160,142191,1,0,0:0:0:0:
216,164,142279,1,0,0:0:0:0:
276,116,142367,1,0,0:0:0:0:
340,76,142455,1,0,0:0:0:0:
416,60,142542,38,0,B|397:142|397:142|402:192|402:192|379:288,1,224
316,300,143420,22,0,L|263:313,2,48.9999985046387,0|0|0,0:0|0:0|0:0,0:0:0:0:
160,284,143683,2,0,L|104:268,2,48.9999985046387,0|0|0,0:0|0:0|0:0,0:0:0:0:
24,232,143946,1,0,0:0:0:0:
28,192,144033,1,0,0:0:0:0:
48,156,144121,1,0,0:0:0:0:
80,132,144209,1,0,0:0:0:0:
104,100,144296,5,0,0:0:0:0:
112,60,144384,1,0,0:0:0:0:
104,20,144472,1,0,0:0:0:0:
132,44,144560,1,0,0:0:0:0:
164,64,144647,1,0,0:0:0:0:
204,72,144735,1,0,0:0:0:0:
244,76,144823,5,0,0:0:0:0:
284,72,144911,1,0,0:0:0:0:
320,60,144998,1,0,0:0:0:0:
312,100,145086,1,0,0:0:0:0:
288,132,145174,1,0,0:0:0:0:
256,152,145262,1,0,0:0:0:0:
216,160,145349,6,0,P|236:200|276:236,1,97.9999970092774
320,296,145788,1,0,0:0:0:0:
396,320,145876,1,0,0:0:0:0:
380,248,145963,1,0,0:0:0:0:
328,192,146051,6,0,B|308:160|308:160|320:120|296:88,1,97.9999970092774
232,68,146490,1,0,0:0:0:0:
164,36,146577,1,0,0:0:0:0:
88,44,146665,1,0,0:0:0:0:
28,96,146753,1,0,0:0:0:0:
40,172,146841,1,0,0:0:0:0:
108,208,146928,1,0,0:0:0:0:
160,152,147016,1,0,0:0:0:0:
216,96,147104,5,0,0:0:0:0:
260,88,147191,1,0,0:0:0:0:
304,148,147279,1,0,0:0:0:0:
264,164,147366,1,0,0:0:0:0:
200,216,147455,1,0,0:0:0:0:
240,236,147542,1,0,0:0:0:0:
328,296,147630,86,0,L|304:224,1,62.9999980773926,0|0,0:0|0:0,0:0:0:0:
216,96,147981,1,0,0:0:0:0:
216,96,148156,2,0,B|228:128|220:152|220:152|212:180|220:216|220:216|203:206|184:245|218:275|251:262|246:225,1,224
246,229,149384,85,0,0:0:0:0:
400,116,149911,1,0,0:0:0:0:
420,296,150262,1,0,0:0:0:0:
296,112,150525,1,0,0:0:0:0:
456,156,150744,1,0,0:0:0:0:
216,220,150963,1,0,0:0:0:0:
216,220,151490,5,0,0:0:0:0:
344,256,151665,2,0,L|228:248,1,105
88,176,152367,2,0,L|192:183,1,105
316,120,153069,1,0,0:0:0:0:
184,236,153595,1,0,0:0:0:0:
312,152,153770,1,0,0:0:0:0:
208,124,153946,5,0,0:0:0:0:
208,124,154034,1,0,0:0:0:0:
208,124,154121,1,0,0:0:0:0:
304,256,154297,1,0,0:0:0:0:
308,140,154472,2,0,P|314:100|308:71,1,48.9999985046387,0|0,0:0|0:0,0:0:0:0:
308,140,154823,2,0,P|299:178|305:222,1,73.4999977569581
280,248,155174,6,0,P|279:291|266:326,1,62.9999980773926
164,216,155525,2,0,P|204:202|242:203,1,62.9999980773926,0|0,0:0|0:0,0:0:0:0:
204,336,155876,2,0,P|171:307|153:275,1,62.9999980773926
108,148,156227,1,0,0:0:0:0:
108,148,156577,6,0,B|152:156|184:144|184:144|196:156|204:180|204:180|244:164|296:176,1,195.999994018555
356,293,157630,2,0,P|392:288|424:272,1,48.9999985046387,0|0,0:0|0:0,0:0:0:0:
356,293,157981,2,0,P|304:284|252:260,1,105
176,152,158683,1,0,0:0:0:0:
184,136,159034,6,0,L|180:84,1,48.9999985046387
112,176,159384,2,0,L|108:228,1,48.9999985046387
152,280,159648,1,0,0:0:0:0:
152,280,159735,1,0,0:0:0:0:
332,236,159911,1,0,0:0:0:0:
184,136,160086,6,0,B|105:117|72:196|72:196|64:144,1,171.499994766236
72,88,160788,1,0,0:0:0:0:
284,168,160963,1,0,0:0:0:0:
96,264,161139,1,0,0:0:0:0:
376,300,161314,1,0,0:0:0:0:
396,140,161665,5,0,0:0:0:0:
416,128,161753,1,0,0:0:0:0:
436,116,161841,1,0,0:0:0:0:
452,320,162016,1,0,0:0:0:0:
260,284,162191,2,0,P|244:224|260:172,1,105
240,160,162542,6,0,L|260:68,1,70
392,208,162893,2,0,L|276:216,1,105
248,192,163244,1,0,0:0:0:0:
296,76,163420,2,0,P|344:68|392:88,1,70
312,168,163770,2,0,P|288:208|224:244,1,105
196,228,164121,1,0,0:0:0:0:
412,188,164297,1,0,0:0:0:0:
248,332,164472,5,0,0:0:0:0:
248,332,164560,1,0,0:0:0:0:
248,332,164648,1,0,0:0:0:0:
248,332,164999,2,0,B|200:336|172:304|172:304|144:316|144:316|88:252|160:176,1,245
224,156,165700,2,0,P|220:188|196:224,1,70
88,312,166051,1,0,0:0:0:0:
88,136,166227,1,0,0:0:0:0:
88,136,166314,1,0,0:0:0:0:
88,136,166402,6,0,L|76:60,1,70
156,200,166665,1,0,0:0:0:0:
156,200,166753,2,0,L|144:276,1,70,0|0,0:0|0:0,0:0:0:0:
224,104,167016,1,0,0:0:0:0:
224,104,167104,2,0,L|212:28,1,70,0|0,0:0|0:0,0:0:0:0:
268,264,167367,1,0,0:0:0:0:
268,264,167455,6,0,L|256:340,1,70,0|0,0:0|0:0,0:0:0:0:
380,132,168507,5,0,0:0:0:0:
380,44,168683,1,0,0:0:0:0:
468,96,168858,1,0,0:0:0:0:
356,160,169034,2,0,P|308:144|268:92,1,105
248,72,169384,2,0,L|216:-4,1,70
168,184,169735,5,0,0:0:0:0:
360,144,169911,1,0,0:0:0:0:
180,196,170086,2,0,L|184:272,1,70
364,132,170437,1,0,0:0:0:0:
192,208,170613,1,0,0:0:0:0:
364,132,171139,5,0,0:0:0:0:
356,156,171227,1,0,0:0:0:0:
348,180,171314,1,0,0:0:0:0:
184,184,172016,5,0,0:0:0:0:
392,180,172191,1,0,0:0:0:0:
192,296,172367,1,0,0:0:0:0:
276,76,172542,5,0,0:0:0:0:
256,144,172893,1,0,0:0:0:0:
260,152,172981,1,0,0:0:0:0:
264,160,173069,1,0,0:0:0:0:
260,196,173156,5,0,0:0:0:0:
260,232,173244,1,0,0:0:0:0:
272,264,173332,1,0,0:0:0:0:
296,292,173420,1,0,0:0:0:0:
488,36,179034,6,0,L|476:108,1,70
380,64,179384,2,0,L|360:132,1,70
256,300,179735,2,0,L|284:228,1,70
168,224,180085,2,0,L|216:164,1,70
24,240,180437,6,0,L|13:310,1,70
112,180,180787,2,0,L|124:250,1,70
180,92,181138,2,0,L|184:20,1,70
284,120,181488,2,0,L|273:51,1,70
264,328,181841,5,0,0:0:0:0:
240,316,181928,1,0,0:0:0:0:
224,292,182016,1,0,0:0:0:0:
216,264,182104,1,0,0:0:0:0:
216,236,182191,1,0,0:0:0:0:
180,248,182279,1,0,0:0:0:0:
140,252,182367,1,0,0:0:0:0:
104,244,182455,1,0,0:0:0:0:
72,224,182542,1,0,0:0:0:0:
52,192,182630,5,0,0:0:0:0:
60,152,182718,1,0,0:0:0:0:
68,116,182806,1,0,0:0:0:0:
83,79,182893,1,0,0:0:0:0:
119,67,182980,5,0,0:0:0:0:
156,68,183069,2,0,L|160:96,1,17.5,0|0,0:0|0:0,0:0:0:0:
194,80,183156,2,0,L|196:100,1,17.5
226,100,183244,2,0,L|224:128,1,17.5,0|0,0:0|0:0,0:0:0:0:
232,73,183332,2,0,L|236:104,1,17.5,0|0,0:0|0:0,0:0:0:0:
246,47,183420,2,0,L|256:76,1,17.5
267,28,183507,2,0,L|280:52,1,17.5
292,20,183595,6,0,L|316:36,3,17.5,0|0|0|0,0:0|0:0|0:0|0:0,0:0:0:0:
384,60,183770,2,0,L|360:76,3,17.5,0|0|0|0,0:0|0:0|0:0|0:0,0:0:0:0:
304,124,183946,2,0,L|328:140,3,17.5,0|0|0|0,0:0|0:0|0:0|0:0,0:0:0:0:
424,144,184121,2,0,L|400:160,3,17.5,0|0|0|0,0:0|0:0|0:0|0:0,0:0:0:0:
348,208,184297,2,0,L|344:220,14,10.4999996795654,0|0|0|0|0|0|0|0|0|0|0|0|0|0|0,0:0|0:0|0:0|0:0|0:0|0:0|0:0|0:0|0:0|0:0|0:0|0:0|0:0|0:0|0:0,0:0:0:0:
376,248,184648,6,0,L|364:308,1,41.9999987182618
304,376,184823,2,0,L|312:334,1,41.9999987182618
300,220,184999,1,0,0:0:0:0:
268,200,185086,1,0,0:0:0:0:
232,196,185174,1,0,0:0:0:0:
196,212,185262,1,0,0:0:0:0:
144,332,185349,5,0,0:0:0:0:
200,344,185436,1,0,0:0:0:0:
248,320,185524,1,0,0:0:0:0:
276,280,185612,1,0,0:0:0:0:
152,160,185700,5,0,0:0:0:0:
100,208,185787,1,0,0:0:0:0:
96,280,185875,1,0,0:0:0:0:
144,332,185963,1,0,0:0:0:0:
236,300,186051,2,0,B|296:276|352:324|352:324|392:308|432:324|432:324|412:284,1,251.999992309571
