osu file format v14

[General]
AudioFilename: Radioactive (Cover) Imagine Dragons- Lindsey Stirling and Pentatonix.mp3
AudioLeadIn: 0
PreviewTime: 60031
Countdown: 0
SampleSet: None
StackLeniency: 0.7
Mode: 0
LetterboxInBreaks: 1
WidescreenStoryboard: 1

[Editor]
Bookmarks: 112031,120031,153808,179586
DistanceSpacing: 1.1
BeatDivisor: 4
GridSize: 4
TimelineZoom: 1.3

[Metadata]
Title:Radioactive (Cover) Imagine Dragons
TitleUnicode:Radioactive (Cover) Imagine Dragons
Artist:Lindsey Stirling and Pentatonix
ArtistUnicode:Lindsey Stirling and Pentatonix
Creator:aonidn1
Version:Radioactive Cover
Source:
Tags:
BeatmapID:775510
BeatmapSetID:351888

[Difficulty]
HPDrainRate:4
CircleSize:3
OverallDifficulty:4
ApproachRate:4
SliderMultiplier:1.2
SliderTickRate:1

[Events]
//Background and Video events
0,0,"radioactive___by_pentatonix_and_lindsey_stirling_by_schnufflerlvl-d6bx8us.jpg",0,0
//Break Periods
2,89808,95142
2,112031,120031
2,153808,179586
//Storyboard Layer 0 (Background)
//Storyboard Layer 1 (Fail)
//Storyboard Layer 2 (Pass)
//Storyboard Layer 3 (Foreground)
//Storyboard Sound Samples

[TimingPoints]
32920,444.444444444444,4,1,1,100,1,0
32920,-100,4,1,1,100,0,0
45364,-200,4,1,1,100,0,0
47142,-100,4,1,1,100,0,0
60031,-153.846153846153,4,1,1,100,0,0
61364,-100,4,1,1,100,0,1
89808,-100,4,1,1,100,0,0
96919,-100,4,1,1,100,0,0
108919,-200,4,1,1,100,0,0
109586,-100,4,1,1,100,0,0
125364,-100,4,1,1,100,0,1
153364,-100,4,1,1,100,0,0
182253,-50,4,1,1,100,0,0
187586,-100,4,1,1,100,0,0
189475,-100,4,1,1,100,0,0
191142,-66.6666666666667,4,1,1,100,0,0
192919,-50,4,1,1,100,0,0
194697,-100,4,1,1,100,0,0
196475,-100,4,1,1,100,0,1
224475,-100,4,1,1,100,0,0

[Colours]
Combo1 : 128,255,128
Combo2 : 128,255,255
Combo3 : 255,255,255

[HitObjects]
40,88,32919,6,0,B|80:112|112:88|172:100,1,120,2|0,0:0|0:0,0:0:0:0:
256,192,33808,1,8,0:0:0:0:
352,88,34253,2,0,P|408:68|472:96,1,120,2|0,0:0|0:0,0:0:0:0:
408,152,35142,2,0,L|408:288,2,120,0|2|0,0:0|0:0|0:0,0:0:0:0:
352,88,36475,2,0,P|296:60|232:60,1,120,8|0,0:0|0:0,0:0:0:0:
200,144,37364,2,0,P|140:136|88:84,2,120,2|0|0,0:0|0:0|0:0,0:0:0:0:
352,88,38697,6,0,L|416:88,1,60,8|0,0:0|0:0,0:0:0:0:
400,136,39142,1,2,0:0:0:0:
380,172,39364,1,8,0:0:0:0:
356,208,39586,1,2,0:0:0:0:
332,240,39808,1,8,0:0:0:0:
352,88,40031,6,0,P|280:88|220:124,2,120,4|2|0,0:0|0:0|0:0,0:0:0:0:
332,240,41364,2,0,L|456:200,1,120,0|8,0:0|0:0,0:0:0:0:
236,112,42253,2,0,L|236:232,2,120,0|2|0,0:0|0:0|0:0,0:0:0:0:
152,80,43586,1,2,0:0:0:0:
112,64,43808,1,2,0:0:0:0:
72,48,44031,1,8,0:0:0:0:
56,192,44475,6,0,L|176:192,1,120,8|0,0:0|0:0,0:0:0:0:
248,92,45364,2,0,B|264:120|264:120|260:136|260:136|264:152|264:152|260:172|260:172|264:192|264:192|264:256|360:288,1,240,0|4,0:0|0:0,0:0:0:0:
372,208,47364,2,0,L|372:136,1,60,8|0,0:0|0:0,0:0:0:0:
356,124,47808,2,0,L|328:72,1,60,0|2,0:0|0:0,0:0:0:0:
184,92,48475,2,0,L|72:36,2,120,8|0|0,0:0|0:0|0:0,0:0:0:0:
256,136,49586,6,0,L|316:172,1,60,0|2,0:0|0:0,0:0:0:0:
340,172,50031,2,0,L|404:172,2,60
184,92,50697,2,0,P|128:124|96:172,1,120,0|8,0:0|0:0,0:0:0:0:
152,264,51586,2,0,P|92:300|64:340,2,120,2|0|0,0:0|0:0|0:0,0:0:0:0:
236,220,52919,2,0,L|288:184,1,60,0|2,0:0|0:0,0:0:0:0:
320,164,53364,1,8,0:0:0:0:
352,136,53586,1,2,0:0:0:0:
384,104,53808,1,0,0:0:0:0:
420,72,54031,1,0,0:0:0:0:
452,40,54253,1,4,0:0:0:0:
384,104,54697,6,0,P|320:88|260:104,2,120,0|2|0,0:0|0:0|0:0,0:0:0:0:
456,176,55808,2,0,L|516:204,1,60,0|8,0:0|0:0,0:0:0:0:
452,304,56475,2,0,B|408:292|376:312|324:292,2,120,0|2|0,0:0|0:0|0:0,0:0:0:0:
456,164,57586,5,0,0:0:0:0:
292,164,57808,1,2,0:0:0:0:
376,240,58031,1,0,0:0:0:0:
376,88,58253,1,8,0:0:0:0:
288,92,58697,2,0,P|228:92|184:136,1,120
186,131,59586,1,8,0:0:0:0:
256,192,60031,6,0,P|312:192|348:176,2,77.9999964294435,0|2|0,0:0|0:0|0:0,0:0:0:0:
184,300,61364,1,4,0:0:0:0:
80,284,61808,2,0,P|32:248|0:172,2,120,0|2|0,0:0|0:0|0:0,0:0:0:0:
216,240,63142,1,8,0:0:0:0:
224,100,63364,1,8,0:0:0:0:
156,200,63586,1,2,0:0:0:0:
288,68,63808,1,0,0:0:0:0:
304,176,64031,2,0,P|364:148|404:96,2,120,8|0|4,0:0|0:0|0:0,0:0:0:0:
320,304,65364,6,0,P|380:292|440:240,1,120,0|2,0:0|0:0,0:0:0:0:
304,176,66253,2,0,P|240:204|208:240,1,120,0|2,0:0|0:0,0:0:0:0:
80,204,67142,2,0,P|36:156|20:96,2,120,0|2|0,0:0|0:0|0:0,0:0:0:0:
256,144,68475,1,8,0:0:0:0:
376,64,68697,1,8,0:0:0:0:
192,128,68919,1,2,0:0:0:0:
432,80,69142,1,0,0:0:0:0:
360,172,69364,2,0,L|360:300,1,120,8|2,0:0|0:0,0:0:0:0:
316,304,70697,6,0,L|235:304,1,60,8|0,0:0|0:0,0:0:0:0:
256,304,71142,2,0,L|256:184,1,120,2|8,0:0|0:0,0:0:0:0:
168,192,72031,1,8,0:0:0:0:
312,112,72253,1,8,0:0:0:0:
120,160,72475,1,2,0:0:0:0:
360,144,72697,1,0,0:0:0:0:
208,104,72919,2,0,L|88:52,1,120,2|8,0:0|0:0,0:0:0:0:
123,287,74253,6,0,L|36:288,1,60,8|0,0:0|0:0,0:0:0:0:
64,288,74697,2,0,L|64:144,1,120,2|8,0:0|0:0,0:0:0:0:
184,136,75586,1,8,0:0:0:0:
300,256,75808,1,8,0:0:0:0:
232,80,76031,1,2,0:0:0:0:
232,280,76253,1,0,0:0:0:0:
296,156,76475,2,0,B|332:132|392:152|432:128,1,120,8|0,0:0|0:0,0:0:0:0:
368,64,77364,5,2,0:0:0:0:
328,224,77586,1,2,0:0:0:0:
444,48,77808,1,8,0:0:0:0:
268,180,78031,1,0,0:0:0:0:
256,72,78253,2,0,B|200:72|200:72|128:116,1,120,8|2,0:0|0:0,0:0:0:0:
176,144,79363,5,8,0:0:0:0:
368,220,79585,1,0,0:0:0:0:
268,180,79808,1,2,0:0:0:0:
268,180,80031,2,0,L|268:300,1,120,0|8,0:0|0:0,0:0:0:0:
176,144,81142,5,2,0:0:0:0:
32,48,81364,1,0,0:0:0:0:
100,96,81586,1,2,0:0:0:0:
100,96,81808,2,0,L|100:228,1,120,0|8,0:0|0:0,0:0:0:0:
176,228,82697,5,4,0:0:0:0:
52,344,82920,1,0,0:0:0:0:
96,216,83142,1,8,0:0:0:0:
136,348,83364,1,2,0:0:0:0:
244,304,83586,2,0,P|312:284|344:232,1,120,0|2,0:0|0:0,0:0:0:0:
351,202,84475,6,0,L|421:202,1,60,2|0,0:0|0:0,0:0:0:0:
301,127,84919,2,0,L|230:128,1,60,8|0,0:0|0:0,0:0:0:0:
224,80,85364,2,0,P|152:88|104:120,1,120,8|2,0:0|0:0,0:0:0:0:
76,192,86475,5,8,0:0:0:0:
76,192,86697,1,0,0:0:0:0:
76,192,86919,1,8,0:0:0:0:
76,192,87142,2,0,L|208:192,1,120
440,192,88253,1,8,0:0:0:0:
440,192,88475,1,0,0:0:0:0:
440,192,88697,1,8,0:0:0:0:
440,192,88919,2,0,L|316:192,1,120,0|2,0:0|0:0,0:0:0:0:
60,328,96919,5,4,0:0:0:0:
172,276,97364,2,0,L|256:276,1,60,0|8,0:0|0:0,0:0:0:0:
344,276,98253,2,0,L|412:276,1,60,8|0,0:0|0:0,0:0:0:0:
440,160,99142,1,8,0:0:0:0:
352,76,99364,1,8,0:0:0:0:
368,192,99586,1,2,0:0:0:0:
280,56,99808,1,8,0:0:0:0:
288,148,100031,2,0,L|216:148,1,60,0|2,0:0|0:0,0:0:0:0:
344,276,100919,6,8,L|264:276,1,60
208,228,101808,2,0,L|128:228,1,60,8|0,0:0|0:0,0:0:0:0:
92,284,102253,1,8,0:0:0:0:
164,152,102475,1,2,0:0:0:0:
52,212,102697,1,0,0:0:0:0:
120,88,103142,1,2,0:0:0:0:
212,60,103364,2,0,L|276:60,2,60,0|8|0,0:0|0:0|0:0,0:0:0:0:
64,112,104031,5,4,0:0:0:0:
164,152,104475,2,0,L|240:152,1,60,2|0,0:0|0:0,0:0:0:0:
80,272,105364,2,0,L|164:272,1,60,0|2,0:0|0:0,0:0:0:0:
208,224,105808,1,8,0:0:0:0:
268,280,106031,1,0,0:0:0:0:
328,224,106253,1,2,0:0:0:0:
388,280,106697,1,8,0:0:0:0:
456,228,106919,2,0,L|528:184,2,60,0|8|0,0:0|0:0|0:0,0:0:0:0:
392,164,107586,1,2,0:0:0:0:
464,308,108475,5,8,0:0:0:0:
356,308,108919,2,0,L|316:308,1,30,0|2,0:0|0:0,0:0:0:0:
256,192,109586,12,4,111142,0:0:0:0:
256,192,121586,12,2,124919,0:0:0:0:
344,152,125364,5,4,0:0:0:0:
136,152,125808,2,0,L|136:20,2,120,0|2|8,0:0|0:0|0:0,0:0:0:0:
56,132,127142,1,8,0:0:0:0:
196,220,127364,1,0,0:0:0:0:
8,184,127587,1,8,0:0:0:0:
236,172,127808,1,2,0:0:0:0:
176,80,128031,2,0,B|240:80|240:52|300:52,1,120,0|2,0:0|0:0,0:0:0:0:
236,172,128919,6,0,P|312:172|364:140,1,120,4|0,0:0|0:0,0:0:0:0:
432,100,129808,2,0,P|472:144|472:224,1,120,2|0,0:0|0:0,0:0:0:0:
284,296,130697,2,0,P|364:260|396:216,2,120,8|0|2,0:0|0:0|0:0,0:0:0:0:
146,241,132475,2,0,L|145:167,1,60,8|0,0:0|0:0,0:0:0:0:
202,99,132919,2,0,L|202:178,1,60,2|0,0:0|0:0,0:0:0:0:
272,144,133364,2,0,P|328:120|368:76,1,120,0|2,0:0|0:0,0:0:0:0:
452,108,134475,5,8,0:0:0:0:
452,108,134697,1,0,0:0:0:0:
452,108,134919,1,0,0:0:0:0:
452,108,135142,2,0,L|452:244,1,120,0|2,0:0|0:0,0:0:0:0:
356,272,136031,1,8,0:0:0:0:
296,128,136253,1,8,0:0:0:0:
392,208,136475,1,0,0:0:0:0:
224,132,136697,1,2,0:0:0:0:
264,228,136919,2,0,B|224:240|204:272|164:304,1,120
80,248,138031,5,8,0:0:0:0:
80,248,138253,1,0,0:0:0:0:
80,248,138475,1,8,0:0:0:0:
80,248,138697,2,0,L|80:128,1,120,0|2,0:0|0:0,0:0:0:0:
264,232,139808,1,2,0:0:0:0:
264,232,140031,1,0,0:0:0:0:
264,232,140253,1,2,0:0:0:0:
264,232,140475,2,0,L|264:104,1,120,0|8,0:0|0:0,0:0:0:0:
340,96,141586,6,0,L|427:96,1,60,2|0,0:0|0:0,0:0:0:0:
400,96,142031,1,2,0:0:0:0:
400,96,142253,2,0,L|400:232,1,120,0|8,0:0|0:0,0:0:0:0:
300,236,143142,1,8,0:0:0:0:
160,104,143364,1,0,0:0:0:0:
228,240,143586,1,2,0:0:0:0:
136,172,143808,1,0,0:0:0:0:
136,260,144031,2,0,L|52:352,1,120,0|8,0:0|0:0,0:0:0:0:
136,172,144919,5,8,0:0:0:0:
228,240,145142,1,2,0:0:0:0:
152,104,145364,1,0,0:0:0:0:
308,236,145586,1,8,0:0:0:0:
256,132,145808,2,0,L|360:48,1,120,0|2,0:0|0:0,0:0:0:0:
456,120,146919,1,8,0:0:0:0:
456,120,147142,1,0,0:0:0:0:
456,120,147364,1,2,0:0:0:0:
456,120,147586,2,0,L|456:248,1,120,0|2,0:0|0:0,0:0:0:0:
360,288,148697,5,8,0:0:0:0:
360,288,148919,1,0,0:0:0:0:
360,288,149142,1,8,0:0:0:0:
360,288,149364,2,0,L|232:288,1,120,0|2,0:0|0:0,0:0:0:0:
220,218,150253,2,8,L|155:219,1,60,8|0,0:0|0:0,0:0:0:0:
42,152,150697,2,0,L|125:155,1,60,2|0,0:0|0:0,0:0:0:0:
148,68,151142,2,0,P|204:32|276:32,1,120,0|2,0:0|0:0,0:0:0:0:
266,133,152031,6,0,L|346:133,1,60
408,217,152475,2,0,L|325:217,1,60,8|0,0:0|0:0,0:0:0:0:
356,316,152919,2,0,L|488:316,1,120,0|2,0:0|0:0,0:0:0:0:
256,188,180919,5,8,0:0:0:0:
256,188,181364,1,2,0:0:0:0:
256,188,181808,1,8,0:0:0:0:
256,192,182253,12,2,187586,0:0:0:0:
252,192,188031,5,0,0:0:0:0:
252,192,188475,1,2,0:0:0:0:
252,192,188919,1,8,0:0:0:0:
252,192,189364,1,2,0:0:0:0:
256,192,189475,12,2,194697,0:0:0:0:
152,212,195142,6,0,L|152:144,1,60,2|0,0:0|0:0,0:0:0:0:
200,128,195586,1,2,0:0:0:0:
248,156,195808,2,0,L|248:240,1,60,0|8,0:0|0:0,0:0:0:0:
300,220,196253,1,2,0:0:0:0:
248,156,196475,5,4,0:0:0:0:
304,328,196919,2,0,L|424:328,2,120,0|2|0,0:0|0:0|0:0,0:0:0:0:
196,272,198253,1,8,0:0:0:0:
260,188,198475,1,2,0:0:0:0:
120,252,198697,1,0,0:0:0:0:
208,124,198919,1,8,0:0:0:0:
96,156,199142,2,0,B|40:156|108:80|16:96|16:44,1,120,2|0,0:0|0:0,0:0:0:0:
208,124,200031,6,0,P|288:104|332:72,1,120,4|0,0:0|0:0,0:0:0:0:
120,252,200919,2,0,P|192:280|228:324,1,120,2|0,0:0|0:0,0:0:0:0:
312,224,201808,2,0,P|380:188|448:188,2,120,0|0|2,0:0|0:0|0:0,0:0:0:0:
128,252,203586,1,8,0:0:0:0:
236,136,203808,1,0,0:0:0:0:
188,240,204031,1,8,0:0:0:0:
296,120,204253,1,2,0:0:0:0:
304,216,204475,2,0,P|376:216|420:184,1,120,0|2,0:0|0:0,0:0:0:0:
350,178,205808,6,0,L|295:223,1,60,8|0,0:0|0:0,0:0:0:0:
304,216,206253,2,0,P|256:184|180:184,1,120,8|2,0:0|0:0,0:0:0:0:
172,256,207142,1,8,0:0:0:0:
256,64,207364,1,2,0:0:0:0:
104,248,207586,1,0,0:0:0:0:
192,96,207808,1,8,0:0:0:0:
256,192,208031,2,0,L|376:144,1,120,0|2,0:0|0:0,0:0:0:0:
472,192,209142,5,8,0:0:0:0:
472,192,209364,1,0,0:0:0:0:
472,192,209586,1,8,0:0:0:0:
472,192,209808,2,0,L|472:320,1,120,0|2,0:0|0:0,0:0:0:0:
360,284,210919,1,2,0:0:0:0:
304,208,211142,1,0,0:0:0:0:
244,284,211364,1,2,0:0:0:0:
192,204,211586,2,0,L|64:204,1,120
76,108,212697,5,2,0:0:0:0:
144,44,212919,1,0,0:0:0:0:
212,108,213141,1,2,0:0:0:0:
276,44,213364,2,0,L|412:44,1,120,0|8,0:0|0:0,0:0:0:0:
408,272,214475,5,8,0:0:0:0:
408,272,214697,1,0,0:0:0:0:
408,272,214919,2,0,L|324:272,1,60,0|2,0:0|0:0,0:0:0:0:
264,272,215586,1,8,0:0:0:0:
172,336,216253,1,8,0:0:0:0:
172,336,216475,1,0,0:0:0:0:
172,336,216697,2,0,L|88:336,1,60,2|0,0:0|0:0,0:0:0:0:
44,268,217364,1,8,0:0:0:0:
120,116,217808,6,0,L|184:116,1,60,4|0,0:0|0:0,0:0:0:0:
216,152,218253,1,2,0:0:0:0:
264,120,218475,2,0,L|328:120,1,60,0|8,0:0|0:0,0:0:0:0:
428,124,219142,1,8,0:0:0:0:
392,252,219808,6,0,L|316:252,1,60,8|0,0:0|0:0,0:0:0:0:
284,288,220253,1,0,0:0:0:0:
228,252,220475,1,2,0:0:0:0:
96,276,220919,1,8,0:0:0:0:
68,180,221808,2,0,P|112:128|172:104,2,120,0|2|0,0:0|0:0|0:0,0:0:0:0:
232,216,223586,2,0,P|288:188|332:144,2,120,2|0|0,0:0|0:0|0:0,0:0:0:0:
