osu file format v12

[General]
AudioFilename: Radioactive - Lindsey Stirling and Pentatonix (Imagine Dragons Cover).mp3
AudioLeadIn: 0
PreviewTime: 59999
Countdown: 1
SampleSet: Soft
StackLeniency: 0.7
Mode: 0
LetterboxInBreaks: 0

[Editor]
Bookmarks: 32887,61332,89776,109332,125332,153776,182221,224887
DistanceSpacing: 1.1
BeatDivisor: 2
GridSize: 4

[Metadata]
Title:Radioactive
TitleUnicode:Radioactive
Artist:Lindsey Stirling and Pentatonix
ArtistUnicode:Lindsey Stirling and Pentatonix
Creator:Ayu
Version:Nemis
Source:
Tags:nemis imagine dragons continued silence ep cover
BeatmapID:262555
BeatmapSetID:98023

[Difficulty]
HPDrainRate:4
CircleSize:4
OverallDifficulty:4
ApproachRate:4
SliderMultiplier:0.8
SliderTickRate:1

[Events]
//Background and Video events
0,0,"wallpaper-390658.jpg",0,0
//Break Periods
2,153976,180901
//Storyboard Layer 0 (Background)
//Storyboard Layer 1 (Fail)
//Storyboard Layer 2 (Pass)
//Storyboard Layer 3 (Foreground)
//Storyboard Sound Samples
//Background Colour Transformations
3,100,163,162,255

[TimingPoints]
32888,444.444444444444,4,2,0,60,1,0
61332,-100,4,2,0,60,0,1
89776,-100,4,2,0,60,0,0
125332,-100,4,2,0,60,0,1
153776,-100,4,2,0,60,0,0
182221,-100,4,2,0,60,0,0
189332,-100,4,2,0,50,0,0
191110,-100,4,2,0,60,0,0
192887,-100,4,2,0,70,0,0
194665,-100,4,2,0,60,0,0
196443,-100,4,2,0,60,0,1
224887,-100,4,2,0,5,0,0

[Colours]
Combo1 : 198,198,255
Combo2 : 255,255,255

[HitObjects]
72,92,32887,1,2,0:0:0:0:
144,144,33332,2,0,L|240:140,2,80,0|8|0,0:0|0:0|0:0,0:0:0:0:
64,180,34665,2,0,P|44:240|68:300,1,120,2|0,0:0|0:0,0:0:0:0:
96,316,35554,2,0,L|192:312,1,80,8|0,0:0|0:0,0:0:0:0:
252,268,36443,5,2,0:0:0:0:
328,312,36887,2,0,P|340:272|328:224,1,80,0|8,0:0|0:0,0:0:0:0:
264,184,37776,1,0,0:0:0:0:
344,152,38221,2,0,L|472:144,1,120,2|0,0:0|0:0,0:0:0:0:
500,116,39110,2,0,P|508:80|496:32,1,80,8|8,0:0|0:0,0:0:0:0:
416,8,39999,5,2,0:0:0:0:
340,52,40443,1,0,0:0:0:0:
252,36,40887,2,0,L|164:40,1,80,8|0,0:0|0:0,0:0:0:0:
92,76,41776,2,0,P|76:128|108:200,1,120,2|0,0:0|0:0,0:0:0:0:
140,180,42665,2,0,L|232:188,1,80,8|0,0:0|0:0,0:0:0:0:
176,264,43554,6,0,L|96:257,2,80,2|0|8,0:0|0:0|0:0,0:0:0:0:
248,316,44887,1,0,0:0:0:0:
320,264,45332,2,2,B|344:260|376:280|384:304|384:304|372:252|412:188|480:200,1,240,0|0,0:0|0:0,0:0:0:0:
468,288,47110,6,0,P|464:344|440:372,2,80,2|0|8,0:0|0:0|0:0,0:0:0:0:
471,198,48443,1,0,0:0:0:0:
492,112,48887,1,2,0:0:0:0:
416,64,49332,2,0,P|384:56|328:64,1,80,0|8,0:0|0:0,0:0:0:0:
264,108,50221,1,0,0:0:0:0:
184,64,50665,6,0,L|100:60,1,80,2|0,0:0|0:0,0:0:0:0:
28,108,51554,2,0,P|12:148|24:200,1,80,8|0,0:0|0:0,0:0:0:0:
88,232,52443,2,0,P|100:288|72:352,1,120,2|0,0:0|0:0,0:0:0:0:
108,380,53332,1,8,0:0:0:0:
184,336,53776,6,0,B|224:328|224:328|304:340|304:340|344:332,1,160,8|0,0:0|0:0,0:0:0:0:
424,368,55110,2,0,P|432:320|412:276,1,80,8|0,0:0|0:0,0:0:0:0:
384,212,55999,2,0,P|368:168|384:96,1,120,2|0,0:0|0:0,0:0:0:0:
420,72,56887,2,0,L|328:76,1,80,8|0,0:0|0:0,0:0:0:0:
264,32,57776,6,0,P|252:76|268:120,1,80,2|0,0:0|0:0,0:0:0:0:
332,160,58665,1,8,0:0:0:0:
252,192,59110,2,0,L|212:196,1,40
172,216,59554,2,0,P|176:176|160:132,2,80,2|0|2,0:0|0:0|0:0,0:0:0:0:
100,268,60887,1,2,0:0:0:0:
180,304,61332,6,0,B|220:300|220:300|296:324|296:324|336:316,1,160,4|8,0:0|0:0,0:0:0:0:
368,232,62665,1,0,0:0:0:0:
448,268,63110,2,0,P|456:244|444:180,1,80,2|0,0:0|0:0,0:0:0:0:
376,144,63999,1,8,0:0:0:0:
456,104,64443,1,0,0:0:0:0:
376,144,64887,6,0,L|204:136,1,160,4|8,0:0|0:0,0:0:0:0:
148,80,66221,1,0,0:0:0:0:
80,136,66665,2,0,P|72:176|84:220,1,80,2|0,0:0|0:0,0:0:0:0:
148,268,67554,2,0,L|232:264,1,80,8|8,0:0|0:0,0:0:0:0:
300,316,68443,6,2,P|292:344|296:372,2,40,2|2|2,0:0|0:0|0:0,0:0:0:0:
380,348,69332,2,0,P|416:344|456:304,1,80,8|0,0:0|0:0,0:0:0:0:
456,228,70221,1,2,0:0:0:0:
388,172,70665,2,2,P|384:152|384:128,1,40
396,92,71110,2,0,L|304:88,1,80,8|0,0:0|0:0,0:0:0:0:
232,112,71999,6,2,P|236:136|232:164,2,40
148,140,72887,1,8,0:0:0:0:
180,224,73332,1,0,0:0:0:0:
92,212,73776,2,0,P|92:244|100:268,1,40,2|0,0:0|0:0,0:0:0:0:
116,292,74221,2,2,P|148:316|204:312,1,80,0|8,0:0|0:0,0:0:0:0:
260,268,75110,1,8,0:0:0:0:
328,324,75554,6,0,P|352:268|296:184,1,160,4|8,0:3|0:0,0:0:0:0:
348,112,76887,2,0,L|428:108,2,80,0|2|0,0:0|0:0|0:0,0:0:0:0:
280,56,78221,1,8,0:0:0:0:
200,92,78665,1,0,0:0:0:0:
120,132,79110,6,0,P|112:84|124:44,1,80
200,92,79999,2,2,P|207:121|199:169,1,80,8|0,0:0|0:0,0:0:0:0:
128,220,80887,2,0,P|108:276|156:360,1,160,2|8,0:0|0:0,0:0:0:0:
244,368,82221,1,8,0:0:0:0:
300,300,82665,6,0,P|308:296|356:296,2,40,4|0|0,0:3|0:0|0:0,0:0:0:0:
336,380,83554,1,8,0:0:0:0:
416,340,83999,1,0,0:0:0:0:
420,252,84443,2,0,L|420:200,1,40,2|0,0:0|0:0,0:0:0:0:
400,172,84887,2,0,P|356:172|324:148,1,80,0|8,0:0|0:0,0:0:0:0:
280,80,85776,1,0,0:0:0:0:
208,128,86221,6,0,P|132:112|68:172,1,160,0|2,0:0|0:0,0:0:0:0:
152,196,87554,1,0,0:0:0:0:
192,276,87999,2,0,B|216:260|228:236|228:236|260:284|324:276,1,160,0|2,0:0|0:0,0:0:0:0:
304,184,89332,1,2,0:0:0:0:
388,216,89776,5,4,0:0:0:0:
405,300,90221,2,0,P|440:288|468:248,1,80,0|8,0:0|0:0,0:0:0:0:
464,168,91110,2,0,B|480:88|480:88|416:40,1,160
328,44,92443,2,0,L|232:48,1,80,8|0,0:0|0:0,0:0:0:0:
240,136,93332,5,2,0:0:0:0:
164,88,93776,2,0,P|152:128|164:176,1,80,0|8,0:0|0:0,0:0:0:0:
228,220,94665,1,0,0:0:0:0:
144,248,95110,2,0,L|16:256,1,120,0|0,1:0|0:0,0:0:0:0:
8,296,95999,2,0,P|0:332|12:380,1,80,2|0,0:0|0:0,0:0:0:0:
96,380,96888,5,2,0:0:0:0:
172,332,97332,1,0,0:0:0:0:
260,348,97776,2,0,L|348:344,1,80,8|0,0:0|0:0,0:0:0:0:
420,308,98665,2,0,P|436:256|404:184,1,120,2|0,0:0|0:0,0:0:0:0:
372,204,99554,2,0,L|280:196,1,80,8|0,0:0|0:0,0:0:0:0:
336,120,100443,6,0,L|416:127,2,80,2|0|8,0:0|0:0|0:0,0:0:0:0:
256,84,101776,1,0,0:0:0:0:
188,140,102221,2,0,P|196:172|184:216,2,80,2|0|8,0:0|0:0|0:0,0:0:0:0:
128,76,103554,1,8,0:0:0:0:
44,96,103999,6,0,P|48:40|72:12,2,80,2|0|8,0:0|0:0|0:0,0:0:0:0:
44,184,105332,2,0,L|51:274,1,80,0|2,0:0|0:0,0:0:0:0:
104,332,106221,2,0,P|136:340|156:336,1,40
164,300,106665,2,0,P|208:292|256:300,1,80,8|0,0:0|0:0,0:0:0:0:
328,320,107554,6,0,L|412:324,1,80,2|0,0:0|0:0,0:0:0:0:
484,276,108443,2,0,P|500:236|488:184,1,80,8|0,0:0|0:0,0:0:0:0:
452,188,109110,2,0,P|424:128|452:28,1,160,2|0,0:0|0:0,0:0:0:0:
408,12,110221,2,0,L|324:16,1,80
248,56,111110,5,2,0:0:0:0:
172,16,111554,1,0,0:0:0:0:
96,60,111999,2,0,P|88:108|108:152,1,80,8|0,0:0|0:0,0:0:0:0:
48,212,112888,2,0,P|64:256|48:328,1,120,2|0,0:0|0:0,0:0:0:0:
92,312,113776,2,0,L|184:308,1,80,8|0,0:0|0:0,0:0:0:0:
248,352,114665,6,0,P|260:308|244:264,1,80,2|0,0:0|0:0,0:0:0:0:
180,224,115554,1,8,0:0:0:0:
260,192,115999,2,0,L|300:188,1,40
340,168,116443,2,0,P|336:208|352:252,2,80,2|0|8,0:0|0:0|0:0,0:0:0:0:
412,116,117776,1,8,0:0:0:0:
332,80,118221,6,0,L|244:76,1,80,2|0,0:0|0:0,0:0:0:0:
168,48,119110,1,8,0:0:0:0:
116,116,119554,1,0,0:0:0:0:
176,184,119999,2,0,P|192:236|168:300,1,120,2|0,0:0|0:0,0:0:0:0:
140,328,120887,2,0,L|60:332,2,80,8|0|2,0:0|0:0|0:0,0:0:0:0:
220,368,122221,5,2,0:0:0:0:
296,324,122665,2,0,P|336:332|388:320,1,80,8|2,0:0|0:0,0:0:0:0:
436,264,123554,2,0,L|440:172,1,80,2|0,0:0|0:0,0:0:0:0:
472,104,124443,1,8,0:0:0:0:
408,44,124887,1,8,0:0:0:0:
328,80,125332,6,0,P|256:104|180:56,1,160,4|8,0:0|0:0,0:0:0:0:
112,20,126665,1,0,0:0:0:0:
56,88,127110,2,0,P|48:112|60:176,1,80,2|0,0:0|0:0,0:0:0:0:
136,200,127999,1,8,0:0:0:0:
68,256,128443,1,0,0:0:0:0:
152,288,128887,6,0,B|232:280|232:280|308:304,1,160,4|8,0:0|0:0,0:0:0:0:
392,328,130221,1,0,0:0:0:0:
452,264,130665,2,0,P|464:220|452:180,1,80,2|0,0:0|0:0,0:0:0:0:
384,140,131554,1,8,0:0:0:0:
464,104,131999,1,8,0:0:0:0:
392,52,132443,6,2,P|408:32|428:24,2,40
312,88,133332,2,0,L|224:80,1,80,8|0,0:0|0:0,0:0:0:0:
160,132,134221,1,2,0:0:0:0:
72,128,134665,2,2,P|72:147|80:172,1,40
104,204,135110,2,0,P|148:224|192:216,1,80,8|0,0:0|0:0,0:0:0:0:
264,248,135999,6,2,P|268:224|264:196,2,40
200,312,136887,1,8,0:0:0:0:
284,336,137332,1,0,0:0:0:0:
352,280,137776,2,0,L|392:276,1,40,2|0,0:0|0:0,0:0:0:0:
424,248,138221,2,2,P|436:208|420:164,1,80,0|8,0:0|0:0,0:0:0:0:
360,116,139110,1,8,0:0:0:0:
288,168,139554,6,0,P|220:192|148:136,1,160,4|8,0:3|0:0,0:0:0:0:
228,104,140887,1,0,0:0:0:0:
152,56,141332,1,2,0:0:0:0:
76,100,141776,1,0,0:0:0:0:
72,188,142221,2,0,L|68:280,1,80,8|0,0:0|0:0,0:0:0:0:
32,348,143110,6,0,P|76:356|120:340,1,80
180,292,143999,2,2,P|208:280|272:292,1,80,8|0,0:0|0:0,0:0:0:0:
340,316,144887,2,0,P|386:241|366:177,1,160,2|8,0:0|0:0,0:0:0:0:
308,112,146221,1,8,0:0:0:0:
396,96,146665,6,0,L|436:92,2,40,4|0|0,0:3|0:0|0:0,0:0:0:0:
308,112,147554,1,8,0:0:0:0:
228,72,147999,1,0,0:0:0:0:
152,116,148443,2,0,P|160:144|152:172,1,40,2|0,0:0|0:0,0:0:0:0:
136,192,148887,2,0,L|56:200,1,80,0|8,0:0|0:0,0:0:0:0:
0,268,149776,1,0,0:0:0:0:
60,332,150221,6,0,P|144:344|200:288,1,160,0|2,0:0|0:0,0:0:0:0:
224,212,151554,1,0,0:0:0:0:
308,192,151999,2,0,B|348:188|376:208|376:208|420:180|412:116,1,160,0|2,0:0|0:0,0:0:0:0:
360,64,153332,1,2,0:0:0:0:
280,104,153776,5,4,0:0:0:0:
96,120,182221,6,0,P|168:148|244:120,1,160,0|0,3:0|3:0,0:0:0:0:
288,44,183554,1,2,0:0:0:0:
360,96,183999,2,0,L|440:92,1,80,0|0,3:0|0:0,0:0:0:0:
492,164,184887,2,0,P|508:208|496:252,1,80,0|2,3:0|0:0,0:0:0:0:
468,320,185776,6,0,B|428:316|428:316|348:336|348:336|308:332,1,160,0|0,3:0|3:0,0:0:0:0:
240,280,187110,1,2,0:0:0:0:
184,348,187554,2,0,P|160:316|204:200,1,160,0|0,3:0|3:0,0:0:0:0:
240,280,188887,1,2,0:0:0:0:
256,192,189332,12,0,194665,1:0:0:0:
180,304,196443,6,0,B|256:280|260:336|340:296,1,160,4|8,0:0|0:0,0:0:0:0:
372,216,197776,1,0,0:0:0:0:
448,260,198221,2,0,P|460:228|444:172,2,80,2|0|8,0:0|0:0|0:0,0:0:0:0:
372,216,199554,1,0,0:0:0:0:
380,128,199999,6,0,B|304:100|304:100|212:108,1,160,4|8,0:0|0:0,0:0:0:0:
148,64,201332,1,0,0:0:0:0:
84,124,201776,2,0,L|80:208,1,80,2|0,0:0|0:0,0:0:0:0:
44,284,202665,1,8,0:0:0:0:
104,348,203110,1,8,0:0:0:0:
168,288,203554,6,2,P|152:272|120:268,2,40
220,360,204443,2,0,L|300:352,1,80,8|0,0:0|0:0,0:0:0:0:
368,296,205332,1,2,0:0:0:0:
448,328,205776,2,2,P|452:308|452:284,1,40
440,244,206221,2,0,P|424:196|436:156,1,80,8|0,0:0|0:0,0:0:0:0:
472,92,207110,6,2,L|512:84,2,40
384,88,207998,1,8,0:0:0:0:
304,128,208443,1,0,0:0:0:0:
236,72,208887,2,0,P|212:72|180:64,1,40,2|0,0:0|1:0,0:0:0:0:
156,52,209332,2,2,P|136:96|144:144,1,80,0|8,0:0|0:0,0:0:0:0:
184,200,210221,1,8,0:0:0:0:
124,264,210665,6,0,P|188:288|264:232,1,160,4|8,0:3|0:3,0:0:0:0:
340,280,211999,2,0,P|376:264|424:264,1,80,0|2,0:0|0:0,0:0:0:0:
492,220,212887,1,0,0:0:0:0:
416,176,213332,1,8,0:3:0:0:
492,132,213776,1,0,0:0:0:0:
416,88,214221,6,0,L|336:84,1,80,4|0,0:3|0:0,0:0:0:0:
256,120,215110,2,2,L|176:116,1,80,8|0,0:3|0:0,0:0:0:0:
116,52,215998,2,0,P|88:116|132:196,1,160,2|8,0:0|0:3,0:0:0:0:
212,204,217332,1,8,0:0:0:0:
160,276,217776,6,0,L|152:328,2,40,4|0|0,0:3|0:0|0:0,0:0:0:0:
212,204,218665,1,8,0:3:0:0:
252,280,219110,1,0,0:0:0:0:
340,264,219554,2,0,L|384:256,1,40,2|0,0:0|0:0,0:0:0:0:
404,220,219998,2,0,P|416:180|404:136,1,80,0|8,0:0|0:3,0:0:0:0:
340,88,220887,1,0,0:0:0:0:
256,112,221332,5,4,0:3:0:0:
256,192,221554,12,0,224887,0:0:0:0:
