osu file format v11

[General]
AudioFilename: Lindsey Stirling Song of the Caged Bird.mp3
AudioLeadIn: 2000
PreviewTime: 44410
Countdown: 0
SampleSet: Soft
StackLeniency: 0.7
Mode: 0
LetterboxInBreaks: 1

[Editor]
DistanceSpacing: 1.2
BeatDivisor: 4
GridSize: 4

[Metadata]
Title:Song of the Caged Bird
TitleUnicode:Song of the Caged Bird
Artist:Lindsey Stirling
ArtistUnicode:Lindsey Stirling
Creator:-Bakari-
Version:Hard
Source:
Tags:eLtigreXXx violin classical crossover stomp sallad4ever
BeatmapID:179050
BeatmapSetID:59795

[Difficulty]
HPDrainRate:6
CircleSize:4
OverallDifficulty:7
ApproachRate:8
SliderMultiplier:2.1
SliderTickRate:2

[Events]
//Background and Video events
0,0,"1868775-1.jpg"
//Break Periods
//Storyboard Layer 0 (Background)
//Storyboard Layer 1 (Fail)
//Storyboard Layer 2 (Pass)
//Storyboard Layer 3 (Foreground)
//Storyboard Sound Samples
//Background Colour Transformations
3,100,163,162,255

[TimingPoints]
55,693.64161849711,4,2,0,45,1,0
5604,-100,4,2,0,55,0,0
22251,-100,4,2,0,35,0,0
22424,-100,4,2,0,65,0,0
44448,-83.3333333333333,4,2,0,65,0,1
55546,-83.3333333333333,4,2,0,35,0,1
55719,-83.3333333333333,4,2,0,65,0,1
66644,-100,4,2,0,40,0,1
69419,-100,4,2,0,55,0,0
88841,-83.3333333333333,4,2,0,35,0,1
89014,-83.3333333333333,4,2,0,65,0,1
99939,-83.3333333333333,4,2,0,35,0,1
100112,-83.3333333333333,4,2,0,65,0,1
111037,-100,4,2,0,35,0,0
127685,-100,4,2,0,5,0,0

[Colours]
Combo1 : 143,186,151
Combo2 : 150,150,109
Combo3 : 129,138,167
Combo4 : 156,136,159

[HitObjects]
136,340,54,2,0,B|172:276|132:180,1,157.5,2|0,0:0|0:0,0:0:0
116,152,748,2,0,B|56:60,1,105,8|0,0:0|0:0,0:0:0
304,72,1789,2,0,B|336:116|336:116|372:136|396:132,1,105,0|8,0:0|0:0,0:0:0
380,216,2482,1,0,0:0:0
462,230,2829,6,0,B|462:258|428:304|381:313|338:289,1,157.5,0|0,0:0|0:0,0:0:0
304,272,3523,2,0,B|256:252|256:252|208:272,1,105,8|0,0:0|0:0,0:0:0
61,186,4563,1,0,0:0:0
61,186,4910,1,8,0:0:0
170,58,5604,6,0,B|219:89|271:63|271:63|389:79,1,210,0|8,0:0|0:0,0:0:0
448,36,6644,1,0,0:0:0
376,192,7338,1,0,0:0:0
296,192,7685,1,8,0:0:0
40,340,8378,6,0,B|92:272|56:188,1,157.5,0|0,0:0|0:0,0:0:0
76,152,9072,2,0,B|192:112,1,105,8|0,0:0|0:0,0:0:0
332,56,10112,5,0,0:0:0
412,124,10459,1,8,0:0:0
420,228,10806,1,0,0:0:0
376,324,11153,2,0,B|272:280|168:316,1,210,0|8,0:0|0:0,0:0:0
92,252,12193,2,0,B|148:144|100:40,1,210,0|0,0:0|0:0,0:0:0
208,32,13234,2,0,B|232:56|280:56|304:32,1,105,8|0,0:0|0:0,0:0:0
328,136,13927,6,0,B|304:152|256:168|208:152|176:136,1,157.5,0|0,0:0|0:0,0:0:0
124,141,14621,1,8,0:0:0
152,240,14968,2,0,B|192:272|256:280|320:272|368:240,1,210,0|0,0:0|0:0,0:0:0
408,340,16008,2,0,B|452:320|464:276|468:240|448:196,1,157.5,8|0,0:0|0:0,0:0:0
420,164,16702,6,0,B|400:144|384:84|424:44|464:36,1,157.5,0|0,0:0|0:0,0:0:0
480,112,17396,1,8,0:0:0
256,56,17742,1,0,0:0:0
256,328,18436,1,0,0:0:0
480,272,18783,1,8,0:0:0
264,140,19476,6,0,B|239:162|239:226|266:244,1,105,0|0,0:0|0:0,0:0:0
328,192,19997,2,0,B|356:160|348:100|320:80,1,105,0|0,0:0|0:0,0:0:0
256,56,20517,2,0,B|140:68,2,105,0|0|0,0:0|0:0|0:0,0:0:0
256,180,21557,2,0,B|276:223|264:276|240:332|172:344|124:340,1,210,8|4,0:0|1:0,0:0:0
328,308,22598,5,0,0:0:0
152,220,22945,2,0,B|131:176|147:124|172:76|236:56|288:64,1,210,8|0,0:0|0:0,0:0:0
352,72,23985,2,0,B|408:88|428:144,1,105,0|8,0:0|0:0,0:0:0
328,176,24679,1,0,0:0:0
233,218,25026,6,0,B|256:272|312:280,1,105,2|0,0:0|0:0,0:0:0
328,176,25719,2,0,B|304:120|240:112,1,105,8|0,0:0|0:0,0:0:0
312,28,26413,2,0,B|380:60|412:128|412:128|464:168,1,210,0|8,0:0|0:0,0:0:0
492,172,27280,2,0,B|526:159|538:133,2,52.5,0|0|0,0:0|0:0|0:0,0:0:0
452,208,27800,6,0,B|428:276|444:344|500:368|540:368,1,210,2|8,0:0|0:0,0:0:0
404,384,28841,2,0,B|376:360|352:312|348:236|372:184,1,210,0|0,0:0|0:0,0:0:0
304,108,29881,1,8,0:0:0
256,312,30575,5,2,0:0:0
100,340,31095,1,0,0:0:0
140,304,31268,2,0,B|164:256|136:200,1,105,8|0,0:0|0:0,0:0:0
64,88,31962,2,0,B|92:152,1,52.5,0|0,0:0|0:0,0:0:0
136,152,32309,2,0,B|192:132|248:140,1,105,0|8,0:0|0:0,0:0:0
344,156,33002,1,0,0:0:0
440,116,33349,6,0,B|496:92|500:32,2,105,2|0|8,0:0|0:0|0:0,0:0:0
436,220,34390,2,0,B|416:272|340:300|264:276|232:216|224:184|232:132,1,315,0|8,0:0|0:0,0:0:0
288,52,35777,2,0,B|340:28|392:48,1,105,0|2,0:0|0:0,0:0:0
344,156,36471,5,0,0:0:0
436,220,36818,2,0,B|412:272|344:272,1,105,8|0,0:0|0:0,0:0:0
376,376,37511,2,0,B|308:392|232:320|260:236,1,210,2|8,0:0|0:0,0:0:0
152,200,38552,1,0,0:0:0
48,196,38898,6,0,B|40:164|64:112|112:88|160:88,1,157.5,0|0,0:0|0:0,0:0:0
196,96,39592,1,8,0:0:0
300,120,39939,2,0,B|364:136|408:88,1,105,0|0,0:0|0:0,0:0:0
328,24,40633,5,0,0:0:0
368,216,40979,1,8,0:0:0
256,192,41673,12,8,43754,0:0:0
288,156,44448,6,0,B|352:148,1,62.9999980773926,4|0,0:0|0:0,0:0:0
224,228,44794,2,0,B|160:236,1,62.9999980773926,2|0,0:0|0:0,0:0:0
308,244,45141,1,8,0:0:0
392,360,45315,1,0,0:0:0
392,216,45488,1,2,0:0:0
304,332,45661,1,0,0:0:0
444,288,45835,2,0,B|512:296,2,62.9999980773926,0|0|2,0:0|0:0|0:0,0:0:0
368,288,46355,1,0,0:0:0
304,332,46528,2,0,B|236:324,2,62.9999980773926,8|0|2,0:0|0:0|0:0,0:0:0
368,288,47049,1,0,0:0:0
328,224,47222,5,0,0:0:0
348,144,47396,1,0,0:0:0
324,60,47569,1,2,0:0:0
236,32,47742,1,0,0:0:0
152,88,47916,2,0,B|84:100,1,62.9999980773926,8|0,0:0|0:0,0:0:0
164,176,48263,2,0,B|232:164,1,62.9999980773926,2|0,0:0|0:0,0:0:0
328,224,48609,2,0,B|260:236,2,62.9999980773926,0|0|2,0:0|0:0|0:0,0:0:0
416,300,49130,1,0,0:0:0
440,188,49303,2,0,B|452:120,2,62.9999980773926,8|0|2,0:0|0:0|0:0,0:0:0
416,300,49823,1,0,0:0:0
328,224,49997,6,0,B|312:160|248:132,1,125.999996154785,4|0,0:0|0:0,0:0:0
184,76,50517,2,0,B|132:28,2,62.9999980773926,0|8|0,0:0|0:0|0:0,0:0:0
172,160,51037,2,0,B|160:224|104:264,2,125.999996154785,0|0|0,0:0|0:0|0:0,0:0:0
248,132,51904,1,0,0:0:0
260,212,52078,2,0,B|248:268|192:320|192:320|172:376,1,188.999994232178,8|0,0:0|0:0,0:0:0
88,312,52771,6,0,B|24:284,1,62.9999980773926,0|0,0:0|0:0,0:0:0
256,244,53118,2,0,B|332:276,1,62.9999980773926,2|0,0:0|0:0,0:0:0
184,76,53465,2,0,B|120:48,1,62.9999980773926,8|0,0:0|0:0,0:0:0
264,72,53812,6,0,B|320:40|392:64,1,125.999996154785,2|0,0:0|0:0,0:0:0
412,68,54332,1,0,0:0:0
436,72,54505,1,0,0:0:0
460,68,54679,1,0,0:0:0
484,60,54852,2,0,B|512:120|484:184,1,125.999996154785,8|0,0:0|0:0,0:0:0
472,208,55372,1,0,0:0:0
460,228,55546,6,0,B|428:244|416:272,1,62.9999980773926,4|0,1:0|0:0,0:0:0
352,304,55893,2,0,B|284:312,1,62.9999980773926,2|0,0:0|0:0,0:0:0
224,272,56239,1,8,0:0:0
168,220,56413,1,0,0:0:0
108,264,56586,1,0,0:0:0
60,204,56760,1,0,0:0:0
120,160,56933,2,0,B|120:124|92:100,1,62.9999980773926,2|0,0:0|0:0,0:0:0
160,60,57280,2,0,B|176:32|224:20,1,62.9999980773926,0|0,0:0|0:0,0:0:0
228,100,57627,1,8,0:0:0
292,56,57800,2,0,B|356:40,2,62.9999980773926,0|0|0,0:0|0:0|0:0,0:0:0
300,132,58320,6,0,B|356:160|428:140|452:100|468:48|444:-4,1,251.999992309571,2|8,0:0|0:0,0:0:0
412,232,59361,1,0,0:0:0
336,272,59534,1,0,0:0:0
260,224,59708,2,0,B|220:224|184:168|196:128,1,125.999996154785,2|0,0:0|0:0,0:0:0
132,72,60228,1,0,0:0:0
108,156,60401,2,0,B|112:192|132:224,2,62.9999980773926,8|0|0,0:0|0:0|0:0,0:0:0
48,92,60922,1,0,0:0:0
132,72,61095,6,0,B|156:48|184:40|224:44|252:68,1,125.999996154785,4|0,0:0|0:0,0:0:0
332,84,61615,1,0,0:0:0
420,84,61789,2,0,B|456:76|468:40,2,62.9999980773926,8|0|0,0:0|0:0|0:0,0:0:0
496,128,62309,5,0,0:0:0
469,163,62482,2,0,B|501:223,1,62.9999980773926,0|0,0:0|0:0,0:0:0
455,207,62829,2,0,B|487:267,1,62.9999980773926,0|0,0:0|0:0,0:0:0
442,251,63176,2,0,B|474:311,1,62.9999980773926,8|0,0:0|0:0,0:0:0
428,296,63523,2,0,B|460:356,1,62.9999980773926,0|0,0:0|0:0,0:0:0
404,324,63870,6,0,B|339:351|277:311,1,125.999996154785,0|8,0:0|0:0,0:0:0
228,264,64390,1,0,0:0:0
300,244,64563,2,0,B|288:208|272:196|236:180|196:194,2,125.999996154785,8|0|0,0:0|0:0|0:0,0:0:0
352,296,65430,1,8,0:0:0
372,224,65604,2,0,B|368:192|344:152|284:124,1,125.999996154785,0|8,0:0|0:0,0:0:0
308,52,66124,2,0,P|236:24,2,62.9999980773926
380,80,66644,6,0,B|432:108|480:196|456:272,1,210,2|8,0:0|0:0,0:0:0
488,364,67685,2,0,B|440:376|384:360|344:308|352:248,1,210,0|0,0:0|0:0,0:0:0
256,304,68725,1,8,0:0:0
53,227,69419,6,0,B|36:264|60:316|100:320,2,105,0|0|8,0:0|0:0|0:0,0:0:0
124,252,70459,2,0,B|140:216|132:176|100:152|64:136|24:144|-4:176,1,210,0|0,0:0|0:0,0:0:0
36,76,71500,2,0,B|92:72|144:104,1,105,8|0,0:0|0:0,0:0:0
212,172,72193,6,0,B|232:232|208:292|208:292|280:352,1,210,0|8,0:0|0:0,0:0:0
380,336,73234,1,0,0:0:0
480,104,73927,1,0,0:0:0
380,48,74274,1,8,0:0:0
320,136,74621,1,0,0:0:0
220,164,74968,6,0,B|240:112|212:56,1,105,0|0,0:0|0:0,0:0:0
315,35,75661,2,0,B|340:84|320:136,1,105,8|0,0:0|0:0,0:0:0
316,241,76355,2,0,B|296:293|324:349,1,105,0|0,0:0|0:0,0:0:0
221,370,77049,2,0,B|195:320|215:268,1,105,8|0,0:0|0:0,0:0:0
316,240,77742,6,0,B|384:240|420:192|424:136,1,157.5,0|0,0:0|0:0,0:0:0
428,108,78436,2,0,B|488:84,2,52.5,8|0|0,0:0|0:0|0:0,0:0:0
396,92,78956,1,0,0:0:0
356,104,79130,2,0,B|302:87|284:23,1,105,0|0,0:0|0:0,0:0:0
188,64,79823,2,0,B|204:116|248:152,1,105,8|0,0:0|0:0,0:0:0
340,200,80517,6,0,B|396:236|408:288,2,105,0|0|8,0:0|0:0|0:0,0:0:0
312,308,81557,2,0,B|328:364|380:400|464:384|488:328,1,210,0|0,0:0|0:0,0:0:0
500,296,82424,1,0,0:0:0
496,244,82598,1,8,0:0:0
460,208,82771,1,0,0:0:0
424,172,82945,1,0,0:0:0
416,120,83118,1,0,0:0:0
436,72,83291,5,0,0:0:0
308,164,83812,1,0,0:0:0
308,216,83985,2,0,B|320:272|380:292,1,105,8|0,0:0|0:0,0:0:0
204,164,85026,5,0,0:0:0
104,136,85372,2,0,B|116:80|171:61,1,105,8|0,0:0|0:0,0:0:0
296,60,86066,6,0,B|340:92|396:88,1,105,0|0,0:0|0:0,0:0:0
408,212,86760,1,8,0:0:0
280,224,87107,1,0,0:0:0
180,300,87453,1,0,0:0:0
224,348,87627,2,0,B|268:324|328:332,1,105,8|0,0:0|0:0,0:0:0
428,316,88147,2,0,B|380:336|324:332,1,105,8|0,0:0|0:0,0:0:0
224,348,88841,5,4,1:0:0
84,280,89014,1,0,0:0:0
224,248,89187,1,2,0:0:0
128,360,89361,1,0,0:0:0
140,204,89534,1,8,0:0:0
208,68,89708,1,0,0:0:0
72,140,89881,1,2,0:0:0
228,156,90054,1,0,0:0:0
112,48,90228,6,0,B|76:32|44:44,2,62.9999980773926,0|0|2,0:0|0:0|0:0,0:0:0
152,120,90748,1,0,0:0:0
228,156,90922,2,0,B|264:168|296:156,2,62.9999980773926,8|0|2,0:0|0:0|0:0,0:0:0
260,76,91442,1,0,0:0:0
344,100,91615,6,0,B|372:120|384:180|348:216,1,125.999996154785,0|2,0:0|0:0,0:0:0
364,300,92135,2,0,B|428:336,2,62.9999980773926,0|8|0,0:0|0:0|0:0,0:0:0
280,272,92656,1,2,0:0:0
192,308,92829,1,0,0:0:0
92,288,93002,1,0,0:0:0
32,200,93176,1,0,0:0:0
68,92,93349,1,2,0:0:0
184,56,93523,1,0,0:0:0
160,184,93696,1,8,0:0:0
160,184,93870,2,0,B|187:210|139:234|172:246,2,62.9999980773926,0|0|0,0:0|0:0|0:0,0:0:0
248,180,94390,6,0,B|317:161|339:99,1,125.999996154785,4|0,0:0|0:0,0:0:0
228,68,94910,1,0,0:0:0
339,99,95083,2,0,B|383:144|455:135,1,125.999996154785,8|0,0:0|0:0,0:0:0
428,24,95604,1,0,0:0:0
454,135,95777,2,0,B|423:192|443:264,1,125.999996154785,2|0,0:0|0:0,0:0:0
384,356,96297,1,0,0:0:0
441,257,96471,2,0,B|372:228|308:272,1,125.999996154785,8|0,0:0|0:0,0:0:0
260,168,96991,1,0,0:0:0
320,264,97164,6,0,B|288:320,2,62.9999980773926,2|0|0,0:0|0:0|0:0,0:0:0
372,192,97685,1,0,0:0:0
352,104,97858,2,0,B|320:48|236:56,1,125.999996154785,8|0,0:0|0:0,0:0:0
156,44,98378,1,0,0:0:0
200,120,98552,2,0,B|216:188|172:240,1,125.999996154785,2|0,0:0|0:0,0:0:0
132,316,99072,2,0,B|120:348|125:379,2,62.9999980773926,0|8|0,0:0|0:0|0:0,0:0:0
76,172,99592,1,2,0:0:0
156,44,99765,1,2,0:0:0
220,192,99939,6,0,B|264:172|272:128,1,62.9999980773926,4|0,1:0|0:0,0:0:0
344,188,100286,2,0,B|360:156|348:120,1,62.9999980773926,2|0,0:0|0:0,0:0:0
428,84,100633,2,0,B|408:56|376:44,2,62.9999980773926,8|0|0,0:0|0:0|0:0,0:0:0
464,164,101153,1,0,0:0:0
432,248,101326,1,2,0:0:0
348,272,101500,1,0,0:0:0
268,232,101673,1,0,0:0:0
264,144,101846,1,0,0:0:0
332,88,102020,1,8,0:0:0
360,172,102193,5,0,0:0:0
432,344,102367,1,0,0:0:0
244,316,102540,1,0,0:0:0
348,272,102713,6,0,B|396:280|436:252|448:224|452:200,1,125.999996154785,2|0,0:0|0:0,0:0:0
436,124,103234,1,0,0:0:0
360,172,103407,2,0,B|288:184|252:116,1,125.999996154785,8|0,0:0|0:0,0:0:0
332,88,103927,1,0,0:0:0
254,121,104101,2,0,B|220:57|148:69,1,125.999996154785,2|0,0:0|0:0,0:0:0
173,154,104621,5,0,0:0:0
80,276,104794,1,8,0:0:0
221,238,104968,1,0,0:0:0
79,184,105141,1,2,0:0:0
166,312,105315,1,0,0:0:0
147,230,105488,5,4,0:0:0
100,72,105835,1,0,0:0:0
257,116,106182,1,8,0:0:0
292,128,106355,1,0,0:0:0
328,128,106528,1,0,0:0:0
360,112,106702,1,0,0:0:0
388,88,106875,2,0,B|400:56|428:40,2,62.9999980773926,0|0|0,0:0|0:0|0:0,0:0:0
400,124,107396,1,0,0:0:0
420,156,107569,2,0,B|448:216|436:280,1,125.999996154785,8|0,0:0|0:0,0:0:0
272,340,108263,6,0,B|404:360,1,125.999996154785,2|0,0:0|0:0,0:0:0
240,44,108956,2,0,B|108:24,1,125.999996154785,8|0,0:0|0:0,0:0:0
216,276,109650,2,0,B|84:296,1,125.999996154785,2|0,0:0|0:0,0:0:0
296,108,110344,2,0,B|428:88,1,125.999996154785,8|0,0:0|0:0,0:0:0
256,192,111037,12,8,113118,0:0:0
256,280,113812,5,0,0:0:0
224,252,113985,1,0,0:0:0
184,248,114159,1,0,0:0:0
144,260,114332,1,0,0:0:0
112,288,114505,2,0,B|68:324|0:308,2,105,8|0|0,0:0|0:0|0:0,0:0:0
152,216,115546,1,0,0:0:0
120,140,115893,1,8,0:0:0
368,88,116586,6,0,B|356:144|424:236|492:232,1,210,0|8,0:0|0:0,0:0:0
392,312,117627,1,0,0:0:0
140,324,118320,2,0,B|40:264,2,105,0|8|0,0:0|0:0|0:0,0:0:0
112,200,119361,6,0,B|172:204|200:152,1,105,0|0,0:0|0:0,0:0:0
300,80,120054,2,0,B|336:128|320:180,1,105,8|0,0:0|0:0,0:0:0
264,292,120748,2,0,B|312:316|372:296,1,105,0|0,0:0|0:0,0:0:0
420,184,121442,2,0,B|432:128|408:76,1,105,8|0,0:0|0:0,0:0:0
256,192,122135,12,0,127685,0:0:0
