osu file format v14

[General]
AudioFilename: Lindsey Stirling - Senbonzakura.mp3
AudioLeadIn: 0
PreviewTime: 44167
Countdown: 0
SampleSet: Normal
StackLeniency: 0.7
Mode: 1
LetterboxInBreaks: 0
WidescreenStoryboard: 1

[Editor]
Bookmarks: 156764,158323,159881,161440,162998
DistanceSpacing: 0.8
BeatDivisor: 4
GridSize: 32
TimelineZoom: 2.899999

[Metadata]
Title:Senbonzakura
TitleUnicode:Senbonzakura
Artist:Lindsey Stirling
ArtistUnicode:Lindsey Stirling
Creator:xBourbon_Kid
Version:Taiko Muzukashii
Source:
Tags:
BeatmapID:644047
BeatmapSetID:275335

[Difficulty]
HPDrainRate:5
CircleSize:5
OverallDifficulty:4
ApproachRate:5
SliderMultiplier:1.4
SliderTickRate:1

[Events]
//Background and Video events
//Break Periods
2,94627,99460
2,144107,149331
2,163198,174266
//Storyboard Layer 0 (Background)
//Storyboard Layer 1 (Fail)
//Storyboard Layer 2 (Pass)
//Storyboard Layer 3 (Foreground)
//Storyboard Sound Samples

[TimingPoints]
19620,389.61038961039,4,1,0,100,1,0
44557,389.61038961039,4,1,0,100,1,1
53907,-100,4,1,0,100,0,0
57024,-100,4,1,0,100,0,1
69102,-100,4,1,0,100,0,0
106894,-100,4,1,0,100,0,1
116245,-100,4,1,0,100,0,0
119362,-100,4,1,0,100,0,1
131440,-100,4,1,0,100,0,0
150531,-100,4,1,0,100,0,1
162998,-100,4,1,0,100,0,0

[HitObjects]
256,192,19620,5,8,0:0:0:0:
256,192,20009,1,8,0:0:0:0:
256,192,20269,1,0,0:0:0:0:
256,192,20399,1,8,0:0:0:0:
256,192,20594,1,0,0:0:0:0:
256,192,20788,1,8,0:0:0:0:
256,192,20983,1,0,0:0:0:0:
256,192,21178,1,8,0:0:0:0:
256,192,21568,1,8,0:0:0:0:
256,192,21827,1,0,0:0:0:0:
256,192,21957,1,8,0:0:0:0:
256,192,22152,1,0,0:0:0:0:
256,192,22347,1,0,0:0:0:0:
256,192,22542,1,0,0:0:0:0:
256,192,22736,1,8,0:0:0:0:
256,192,23126,1,8,0:0:0:0:
256,192,23386,1,0,0:0:0:0:
256,192,23516,1,8,0:0:0:0:
256,192,23710,1,8,0:0:0:0:
256,192,23905,1,0,0:0:0:0:
256,192,24100,1,8,0:0:0:0:
256,192,24295,1,8,0:0:0:0:
256,192,24684,1,0,0:0:0:0:
256,192,24879,1,8,0:0:0:0:
256,192,25074,1,0,0:0:0:0:
256,192,25464,1,0,0:0:0:0:
256,192,25853,1,0,0:0:0:0:
256,192,26113,1,8,0:0:0:0:
256,192,26243,1,0,0:0:0:0:
256,192,26438,1,8,0:0:0:0:
256,192,26632,1,0,0:0:0:0:
256,192,26827,1,8,0:0:0:0:
256,192,27022,1,0,0:0:0:0:
256,192,27217,1,8,0:0:0:0:
256,192,27412,1,0,0:0:0:0:
256,192,27671,1,0,0:0:0:0:
256,192,27801,1,8,0:0:0:0:
256,192,27996,1,0,0:0:0:0:
256,192,28191,1,8,0:0:0:0:
256,192,28386,1,0,0:0:0:0:
256,192,28581,1,0,0:0:0:0:
256,192,28775,1,8,0:0:0:0:
256,192,28970,1,0,0:0:0:0:
256,192,29230,1,8,0:0:0:0:
256,192,29360,1,0,0:0:0:0:
256,192,29555,1,8,0:0:0:0:
256,192,29749,1,0,0:0:0:0:
256,192,29944,1,0,0:0:0:0:
256,192,30139,1,8,0:0:0:0:
256,192,30334,1,8,0:0:0:0:
256,192,30529,1,8,0:0:0:0:
256,192,30918,1,0,0:0:0:0:
256,192,31113,1,8,0:0:0:0:
256,192,31210,1,8,0:0:0:0:
256,192,31308,1,8,0:0:0:0:
256,192,31697,1,0,0:0:0:0:
256,192,32087,1,8,0:0:0:0:
256,192,32477,1,0,0:0:0:0:
256,192,32866,1,0,0:0:0:0:
256,192,33256,1,8,0:0:0:0:
256,192,33645,1,0,0:0:0:0:
256,192,34035,1,0,0:0:0:0:
256,192,34230,1,8,0:0:0:0:
256,192,34425,1,0,0:0:0:0:
256,192,34620,1,8,0:0:0:0:
256,192,35204,1,0,0:0:0:0:
256,192,35399,1,0,0:0:0:0:
256,192,35594,1,8,0:0:0:0:
256,192,35983,1,8,0:0:0:0:
256,192,36178,1,8,0:0:0:0:
256,192,36373,1,0,0:0:0:0:
256,192,36762,1,8,0:0:0:0:
256,192,37152,1,8,0:0:0:0:
256,192,37347,1,0,0:0:0:0:
256,192,37542,1,8,0:0:0:0:
256,192,37931,1,0,0:0:0:0:
256,192,38029,1,0,0:0:0:0:
256,192,38126,1,0,0:0:0:0:
256,192,38321,1,8,0:0:0:0:
256,192,38710,1,8,0:0:0:0:
256,192,39100,1,8,0:0:0:0:
256,192,39490,1,0,0:0:0:0:
256,192,39879,1,8,0:0:0:0:
256,192,40269,1,8,0:0:0:0:
256,192,40464,1,0,0:0:0:0:
256,192,40658,1,8,0:0:0:0:
256,192,40853,1,8,0:0:0:0:
256,192,41243,1,0,0:0:0:0:
256,192,41438,1,8,0:0:0:0:
256,192,41632,1,8,0:0:0:0:
256,192,42022,1,0,0:0:0:0:
256,192,42217,1,8,0:0:0:0:
256,192,42412,1,8,0:0:0:0:
256,192,42801,1,8,0:0:0:0:
256,192,42996,1,0,0:0:0:0:
256,192,43094,1,0,0:0:0:0:
256,192,43191,1,0,0:0:0:0:
256,192,43386,1,8,0:0:0:0:
256,192,43581,1,8,0:0:0:0:
256,192,43678,1,8,0:0:0:0:
256,192,43775,1,8,0:0:0:0:
256,192,44165,1,0,0:0:0:0:
256,192,44557,1,8,0:0:0:0:
256,192,44751,1,0,0:0:0:0:
256,192,44946,1,8,0:0:0:0:
256,192,45141,1,0,0:0:0:0:
256,192,45336,1,8,0:0:0:0:
256,192,45531,1,0,0:0:0:0:
256,192,45725,1,8,0:0:0:0:
256,192,45920,1,8,0:0:0:0:
256,192,46115,1,8,0:0:0:0:
256,192,46310,1,0,0:0:0:0:
256,192,46505,1,8,0:0:0:0:
256,192,46699,1,0,0:0:0:0:
256,192,46894,1,8,0:0:0:0:
256,192,47089,1,0,0:0:0:0:
256,192,47284,1,8,0:0:0:0:
256,192,47479,1,8,0:0:0:0:
256,192,47673,1,8,0:0:0:0:
256,192,47868,1,0,0:0:0:0:
256,192,48063,1,0,0:0:0:0:
256,192,48258,1,8,0:0:0:0:
256,192,48453,1,8,0:0:0:0:
256,192,48647,1,0,0:0:0:0:
256,192,48842,1,0,0:0:0:0:
256,192,49037,1,8,0:0:0:0:
256,192,49232,1,0,0:0:0:0:
256,192,49329,1,0,0:0:0:0:
256,192,49427,1,0,0:0:0:0:
256,192,49621,1,8,0:0:0:0:
256,192,49816,1,0,0:0:0:0:
256,192,50011,1,8,0:0:0:0:
256,192,50401,1,0,0:0:0:0:
256,192,50595,1,0,0:0:0:0:
256,192,50790,1,8,0:0:0:0:
256,192,50985,1,0,0:0:0:0:
256,192,51180,1,8,0:0:0:0:
256,192,51375,1,8,0:0:0:0:
256,192,51569,1,8,0:0:0:0:
256,192,51764,1,0,0:0:0:0:
256,192,51959,1,8,0:0:0:0:
256,192,52154,1,0,0:0:0:0:
256,192,52349,1,8,0:0:0:0:
256,192,52446,1,8,0:0:0:0:
256,192,52544,1,8,0:0:0:0:
256,192,52738,1,0,0:0:0:0:
256,192,52933,1,0,0:0:0:0:
256,192,53128,1,8,0:0:0:0:
256,192,53518,1,0,0:0:0:0:
256,192,53712,1,0,0:0:0:0:
256,192,53907,1,8,0:0:0:0:
256,192,54297,1,8,0:0:0:0:
256,192,54686,1,0,0:0:0:0:
256,192,55076,1,8,0:0:0:0:
256,192,55466,1,0,0:0:0:0:
256,192,55758,1,8,0:0:0:0:
256,192,55855,1,0,0:0:0:0:
256,192,56050,1,0,0:0:0:0:
256,192,56245,1,8,0:0:0:0:
256,192,56634,1,0,0:0:0:0:
256,192,56829,1,0,0:0:0:0:
256,192,57024,1,8,0:0:0:0:
256,192,57121,1,8,0:0:0:0:
256,192,57219,1,8,0:0:0:0:
256,192,57414,1,0,0:0:0:0:
256,192,57608,1,0,0:0:0:0:
256,192,57803,1,8,0:0:0:0:
256,192,57901,1,8,0:0:0:0:
256,192,57998,1,8,0:0:0:0:
256,192,58193,1,0,0:0:0:0:
256,192,58388,1,0,0:0:0:0:
256,192,58582,1,8,0:0:0:0:
256,192,58777,1,0,0:0:0:0:
256,192,58972,1,8,0:0:0:0:
256,192,59167,1,0,0:0:0:0:
256,192,59362,1,8,0:0:0:0:
256,192,59557,1,0,0:0:0:0:
256,192,59751,1,0,0:0:0:0:
256,192,59946,1,0,0:0:0:0:
256,192,60141,1,8,0:0:0:0:
256,192,60238,1,8,0:0:0:0:
256,192,60336,1,8,0:0:0:0:
256,192,60531,1,0,0:0:0:0:
256,192,60725,1,0,0:0:0:0:
256,192,60920,1,8,0:0:0:0:
256,192,61018,1,8,0:0:0:0:
256,192,61115,1,8,0:0:0:0:
256,192,61310,1,0,0:0:0:0:
256,192,61505,1,0,0:0:0:0:
256,192,61699,1,8,0:0:0:0:
256,192,62089,1,0,0:0:0:0:
256,192,62479,1,8,0:0:0:0:
256,192,62868,1,0,0:0:0:0:
256,192,63258,1,8,0:0:0:0:
256,192,63453,1,0,0:0:0:0:
256,192,63647,1,0,0:0:0:0:
256,192,63842,1,0,0:0:0:0:
256,192,64037,1,8,0:0:0:0:
256,192,64232,1,0,0:0:0:0:
256,192,64427,1,0,0:0:0:0:
256,192,64621,1,0,0:0:0:0:
256,192,64816,1,8,0:0:0:0:
256,192,65011,1,0,0:0:0:0:
256,192,65206,1,8,0:0:0:0:
256,192,65401,1,0,0:0:0:0:
256,192,65595,1,8,0:0:0:0:
256,192,65790,1,0,0:0:0:0:
256,192,65985,1,0,0:0:0:0:
256,192,66180,1,8,0:0:0:0:
256,192,66375,1,8,0:0:0:0:
256,192,66764,1,8,0:0:0:0:
256,192,67154,1,8,0:0:0:0:
256,192,67544,1,0,0:0:0:0:
256,192,67933,1,0,0:0:0:0:
256,192,68225,1,8,0:0:0:0:
256,192,68323,1,0,0:0:0:0:
256,192,68518,1,0,0:0:0:0:
256,192,68712,1,8,0:0:0:0:
256,192,69102,1,12,0:0:0:0:
256,192,69492,1,8,0:0:0:0:
256,192,69686,1,8,0:0:0:0:
256,192,69881,1,0,0:0:0:0:
256,192,69979,1,0,0:0:0:0:
256,192,70076,1,0,0:0:0:0:
256,192,70271,1,8,0:0:0:0:
256,192,70466,1,8,0:0:0:0:
256,192,70660,1,0,0:0:0:0:
256,192,70855,1,0,0:0:0:0:
256,192,71050,1,8,0:0:0:0:
256,192,71245,1,8,0:0:0:0:
256,192,71440,1,0,0:0:0:0:
256,192,71537,1,0,0:0:0:0:
256,192,71634,1,0,0:0:0:0:
256,192,71829,1,8,0:0:0:0:
256,192,72024,1,8,0:0:0:0:
256,192,72219,1,0,0:0:0:0:
256,192,72414,1,0,0:0:0:0:
256,192,72608,1,8,0:0:0:0:
256,192,72803,1,8,0:0:0:0:
256,192,72998,1,0,0:0:0:0:
256,192,73095,1,0,0:0:0:0:
256,192,73193,1,0,0:0:0:0:
256,192,73388,1,8,0:0:0:0:
256,192,73582,1,8,0:0:0:0:
256,192,73777,1,0,0:0:0:0:
256,192,73972,1,0,0:0:0:0:
256,192,74167,1,0,0:0:0:0:
256,192,74557,1,8,0:0:0:0:
256,192,74751,1,8,0:0:0:0:
256,192,74946,1,8,0:0:0:0:
256,192,75336,1,0,0:0:0:0:
256,192,75531,1,0,0:0:0:0:
256,192,75725,1,8,0:0:0:0:
256,192,75920,1,8,0:0:0:0:
256,192,76115,1,0,0:0:0:0:
256,192,76212,1,0,0:0:0:0:
256,192,76310,1,0,0:0:0:0:
256,192,76505,1,8,0:0:0:0:
256,192,76699,1,8,0:0:0:0:
256,192,76894,1,0,0:0:0:0:
256,192,77089,1,0,0:0:0:0:
256,192,77284,1,8,0:0:0:0:
256,192,77479,1,8,0:0:0:0:
256,192,77673,1,0,0:0:0:0:
256,192,77771,1,0,0:0:0:0:
256,192,77868,1,0,0:0:0:0:
256,192,78063,1,8,0:0:0:0:
256,192,78258,1,8,0:0:0:0:
256,192,78453,1,0,0:0:0:0:
256,192,78647,1,0,0:0:0:0:
256,192,78842,1,8,0:0:0:0:
256,192,79037,1,0,0:0:0:0:
256,192,79232,1,8,0:0:0:0:
256,192,79427,1,0,0:0:0:0:
256,192,79621,1,8,0:0:0:0:
256,192,79816,1,0,0:0:0:0:
256,192,80011,1,8,0:0:0:0:
256,192,80206,1,0,0:0:0:0:
256,192,80401,1,12,0:0:0:0:
256,192,80693,1,12,0:0:0:0:
256,192,80985,1,4,0:0:0:0:
256,192,81180,1,12,0:0:0:0:
256,192,81959,1,8,0:0:0:0:
256,192,82219,1,0,0:0:0:0:
256,192,82349,1,8,0:0:0:0:
256,192,82544,1,0,0:0:0:0:
256,192,82738,1,8,0:0:0:0:
256,192,82933,1,0,0:0:0:0:
256,192,83128,1,8,0:0:0:0:
256,192,83323,1,8,0:0:0:0:
256,192,83518,1,8,0:0:0:0:
256,192,83777,1,0,0:0:0:0:
256,192,83907,1,8,0:0:0:0:
256,192,84102,1,0,0:0:0:0:
256,192,84297,1,8,0:0:0:0:
256,192,84492,1,0,0:0:0:0:
256,192,84686,1,0,0:0:0:0:
256,192,84881,1,8,0:0:0:0:
256,192,85076,1,8,0:0:0:0:
256,192,85466,1,0,0:0:0:0:
256,192,85660,1,0,0:0:0:0:
256,192,86050,1,0,0:0:0:0:
256,192,86245,1,8,0:0:0:0:
256,192,86634,1,8,0:0:0:0:
256,192,86829,1,8,0:0:0:0:
256,192,87024,1,0,0:0:0:0:
256,192,87219,1,0,0:0:0:0:
256,192,87414,1,8,0:0:0:0:
256,192,87608,1,8,0:0:0:0:
256,192,87803,1,0,0:0:0:0:
256,192,87998,1,0,0:0:0:0:
256,192,88193,1,8,0:0:0:0:
256,192,88582,1,0,0:0:0:0:
256,192,88972,1,0,0:0:0:0:
256,192,89362,1,8,0:0:0:0:
256,192,89751,1,8,0:0:0:0:
256,192,90141,1,0,0:0:0:0:
256,192,90531,1,8,0:0:0:0:
256,192,90725,1,0,0:0:0:0:
256,192,90920,1,8,0:0:0:0:
256,192,91115,1,8,0:0:0:0:
256,192,91310,1,0,0:0:0:0:
256,192,91699,1,0,0:0:0:0:
256,192,91992,1,8,0:0:0:0:
256,192,92089,1,0,0:0:0:0:
256,192,92284,1,8,0:0:0:0:
256,192,92479,1,0,0:0:0:0:
256,192,92673,1,8,0:0:0:0:
256,192,93258,1,8,0:0:0:0:
256,192,93647,1,8,0:0:0:0:
256,192,93842,1,4,0:0:0:0:
256,192,94037,1,8,0:0:0:0:
256,192,94232,1,4,0:0:0:0:
256,192,94427,1,12,0:0:0:0:
256,192,100660,5,4,0:0:0:0:
256,192,101050,12,4,104557,0:0:0:0:
256,192,104946,5,8,0:0:0:0:
256,192,105336,1,8,0:0:0:0:
256,192,105531,1,0,0:0:0:0:
256,192,105725,1,0,0:0:0:0:
256,192,105920,1,8,0:0:0:0:
256,192,106115,1,0,0:0:0:0:
256,192,106505,1,0,0:0:0:0:
256,192,106699,1,0,0:0:0:0:
256,192,106894,1,8,0:0:0:0:
256,192,107089,1,0,0:0:0:0:
256,192,107284,1,8,0:0:0:0:
256,192,107479,1,0,0:0:0:0:
256,192,107673,1,8,0:0:0:0:
256,192,107868,1,0,0:0:0:0:
256,192,108063,1,8,0:0:0:0:
256,192,108258,1,8,0:0:0:0:
256,192,108453,1,8,0:0:0:0:
256,192,108647,1,0,0:0:0:0:
256,192,108842,1,8,0:0:0:0:
256,192,109037,1,0,0:0:0:0:
256,192,109232,1,8,0:0:0:0:
256,192,109427,1,0,0:0:0:0:
256,192,109621,1,8,0:0:0:0:
256,192,109816,1,8,0:0:0:0:
256,192,109914,1,8,0:0:0:0:
256,192,110011,1,8,0:0:0:0:
256,192,110206,1,0,0:0:0:0:
256,192,110401,1,8,0:0:0:0:
256,192,110595,1,0,0:0:0:0:
256,192,110790,1,0,0:0:0:0:
256,192,110985,1,8,0:0:0:0:
256,192,111180,1,0,0:0:0:0:
256,192,111569,1,0,0:0:0:0:
256,192,111959,1,8,0:0:0:0:
256,192,112349,1,0,0:0:0:0:
256,192,112544,1,0,0:0:0:0:
256,192,112738,1,8,0:0:0:0:
256,192,112933,1,8,0:0:0:0:
256,192,113128,1,0,0:0:0:0:
256,192,113225,1,0,0:0:0:0:
256,192,113323,1,0,0:0:0:0:
256,192,113518,1,8,0:0:0:0:
256,192,113712,1,0,0:0:0:0:
256,192,113907,1,8,0:0:0:0:
256,192,114102,1,0,0:0:0:0:
256,192,114297,1,8,0:0:0:0:
256,192,114492,1,8,0:0:0:0:
256,192,114686,1,8,0:0:0:0:
256,192,114881,1,0,0:0:0:0:
256,192,115076,1,8,0:0:0:0:
256,192,115271,1,0,0:0:0:0:
256,192,115466,1,8,0:0:0:0:
256,192,115660,1,0,0:0:0:0:
256,192,115855,1,8,0:0:0:0:
256,192,116050,1,8,0:0:0:0:
256,192,116245,1,8,0:0:0:0:
256,192,116634,1,8,0:0:0:0:
256,192,117024,1,0,0:0:0:0:
256,192,117414,1,8,0:0:0:0:
256,192,117803,1,0,0:0:0:0:
256,192,118095,1,8,0:0:0:0:
256,192,118193,1,0,0:0:0:0:
256,192,118388,1,0,0:0:0:0:
256,192,118582,1,8,0:0:0:0:
256,192,118972,1,0,0:0:0:0:
256,192,119167,1,0,0:0:0:0:
256,192,119362,1,8,0:0:0:0:
256,192,119459,1,8,0:0:0:0:
256,192,119557,1,8,0:0:0:0:
256,192,119751,1,0,0:0:0:0:
256,192,119946,1,0,0:0:0:0:
256,192,120141,1,8,0:0:0:0:
256,192,120238,1,8,0:0:0:0:
256,192,120336,1,8,0:0:0:0:
256,192,120531,1,0,0:0:0:0:
256,192,120725,1,0,0:0:0:0:
256,192,120920,1,8,0:0:0:0:
256,192,121115,1,0,0:0:0:0:
256,192,121310,1,8,0:0:0:0:
256,192,121505,1,0,0:0:0:0:
256,192,121699,1,8,0:0:0:0:
256,192,121894,1,0,0:0:0:0:
256,192,122089,1,0,0:0:0:0:
256,192,122284,1,0,0:0:0:0:
256,192,122479,1,8,0:0:0:0:
256,192,122576,1,8,0:0:0:0:
256,192,122673,1,8,0:0:0:0:
256,192,122868,1,0,0:0:0:0:
256,192,123063,1,0,0:0:0:0:
256,192,123258,1,8,0:0:0:0:
256,192,123355,1,8,0:0:0:0:
256,192,123453,1,8,0:0:0:0:
256,192,123647,1,0,0:0:0:0:
256,192,123842,1,0,0:0:0:0:
256,192,124037,1,8,0:0:0:0:
256,192,124427,1,8,0:0:0:0:
256,192,124816,1,0,0:0:0:0:
256,192,125206,1,8,0:0:0:0:
256,192,125595,1,8,0:0:0:0:
256,192,125790,1,0,0:0:0:0:
256,192,125985,1,0,0:0:0:0:
256,192,126180,1,0,0:0:0:0:
256,192,126375,1,8,0:0:0:0:
256,192,126569,1,0,0:0:0:0:
256,192,126764,1,0,0:0:0:0:
256,192,126959,1,0,0:0:0:0:
256,192,127154,1,8,0:0:0:0:
256,192,127349,1,0,0:0:0:0:
256,192,127544,1,8,0:0:0:0:
256,192,127738,1,0,0:0:0:0:
256,192,127933,1,8,0:0:0:0:
256,192,128128,1,0,0:0:0:0:
256,192,128323,1,0,0:0:0:0:
256,192,128518,1,8,0:0:0:0:
256,192,128712,1,8,0:0:0:0:
256,192,129102,1,8,0:0:0:0:
256,192,129492,1,8,0:0:0:0:
256,192,129881,1,0,0:0:0:0:
256,192,130271,1,0,0:0:0:0:
256,192,130563,1,8,0:0:0:0:
256,192,130660,1,0,0:0:0:0:
256,192,130855,1,0,0:0:0:0:
256,192,131050,1,8,0:0:0:0:
256,192,131440,1,12,0:0:0:0:
256,192,131829,1,8,0:0:0:0:
256,192,132024,1,8,0:0:0:0:
256,192,132219,1,0,0:0:0:0:
256,192,132316,1,0,0:0:0:0:
256,192,132414,1,0,0:0:0:0:
256,192,132608,1,8,0:0:0:0:
256,192,132803,1,8,0:0:0:0:
256,192,132998,1,0,0:0:0:0:
256,192,133193,1,0,0:0:0:0:
256,192,133388,1,8,0:0:0:0:
256,192,133582,1,8,0:0:0:0:
256,192,133777,1,0,0:0:0:0:
256,192,133875,1,0,0:0:0:0:
256,192,133972,1,0,0:0:0:0:
256,192,134167,1,8,0:0:0:0:
256,192,134362,1,8,0:0:0:0:
256,192,134557,1,0,0:0:0:0:
256,192,134751,1,0,0:0:0:0:
256,192,134946,1,8,0:0:0:0:
256,192,135141,1,8,0:0:0:0:
256,192,135336,1,0,0:0:0:0:
256,192,135433,1,0,0:0:0:0:
256,192,135531,1,0,0:0:0:0:
256,192,135725,1,8,0:0:0:0:
256,192,135920,1,8,0:0:0:0:
256,192,136115,1,0,0:0:0:0:
256,192,136310,1,0,0:0:0:0:
256,192,136505,1,0,0:0:0:0:
256,192,136894,1,8,0:0:0:0:
256,192,137089,1,8,0:0:0:0:
256,192,137284,1,8,0:0:0:0:
256,192,137673,1,0,0:0:0:0:
256,192,137868,1,0,0:0:0:0:
256,192,138063,1,8,0:0:0:0:
256,192,138258,1,8,0:0:0:0:
256,192,138453,1,0,0:0:0:0:
256,192,138550,1,0,0:0:0:0:
256,192,138647,1,0,0:0:0:0:
256,192,138842,1,8,0:0:0:0:
256,192,139037,1,8,0:0:0:0:
256,192,139232,1,0,0:0:0:0:
256,192,139427,1,0,0:0:0:0:
256,192,139621,1,8,0:0:0:0:
256,192,139816,1,8,0:0:0:0:
256,192,140011,1,0,0:0:0:0:
256,192,140108,1,0,0:0:0:0:
256,192,140206,1,0,0:0:0:0:
256,192,140401,1,8,0:0:0:0:
256,192,140595,1,8,0:0:0:0:
256,192,140790,1,0,0:0:0:0:
256,192,140985,1,0,0:0:0:0:
256,192,141180,1,8,0:0:0:0:
256,192,141375,1,0,0:0:0:0:
256,192,141569,1,8,0:0:0:0:
256,192,141764,1,0,0:0:0:0:
256,192,141959,1,8,0:0:0:0:
256,192,142154,1,0,0:0:0:0:
256,192,142349,1,8,0:0:0:0:
256,192,142544,1,0,0:0:0:0:
256,192,142738,1,8,0:0:0:0:
256,192,143031,1,8,0:0:0:0:
256,192,143323,1,0,0:0:0:0:
256,192,143518,1,8,0:0:0:0:
256,192,143907,1,12,0:0:0:0:
256,192,150531,5,8,0:0:0:0:
256,192,150920,1,8,0:0:0:0:
256,192,151310,1,8,0:0:0:0:
256,192,151699,1,8,0:0:0:0:
256,192,152089,1,8,0:0:0:0:
256,192,152284,1,0,0:0:0:0:
256,192,152479,1,8,0:0:0:0:
256,192,152868,1,8,0:0:0:0:
256,192,153258,1,8,0:0:0:0:
256,192,153647,1,8,0:0:0:0:
256,192,153842,1,0,0:0:0:0:
256,192,154037,1,8,0:0:0:0:
256,192,154427,1,8,0:0:0:0:
256,192,154621,1,0,0:0:0:0:
256,192,154816,1,8,0:0:0:0:
256,192,155206,1,8,0:0:0:0:
256,192,155401,1,0,0:0:0:0:
256,192,155595,1,8,0:0:0:0:
256,192,155790,1,0,0:0:0:0:
256,192,155985,1,8,0:0:0:0:
256,192,156180,1,0,0:0:0:0:
256,192,156375,1,8,0:0:0:0:
256,192,156569,1,0,0:0:0:0:
256,192,156764,1,0,0:0:0:0:
256,192,156959,1,0,0:0:0:0:
256,192,157154,1,8,0:0:0:0:
256,192,157349,1,8,0:0:0:0:
256,192,157544,1,0,0:0:0:0:
256,192,157738,1,0,0:0:0:0:
256,192,157933,1,8,0:0:0:0:
256,192,158031,1,8,0:0:0:0:
256,192,158128,1,8,0:0:0:0:
256,192,158323,1,0,0:0:0:0:
256,192,158518,1,0,0:0:0:0:
256,192,158712,1,8,0:0:0:0:
256,192,158907,1,8,0:0:0:0:
256,192,159102,1,0,0:0:0:0:
256,192,159297,1,0,0:0:0:0:
256,192,159492,1,8,0:0:0:0:
256,192,159589,1,8,0:0:0:0:
256,192,159686,1,8,0:0:0:0:
256,192,159881,1,0,0:0:0:0:
256,192,160076,1,0,0:0:0:0:
256,192,160271,1,8,0:0:0:0:
256,192,160466,1,8,0:0:0:0:
256,192,160660,1,0,0:0:0:0:
256,192,160758,1,0,0:0:0:0:
256,192,160855,1,0,0:0:0:0:
256,192,161050,1,8,0:0:0:0:
256,192,161245,1,8,0:0:0:0:
256,192,161440,1,8,0:0:0:0:
256,192,161537,1,8,0:0:0:0:
256,192,161634,1,8,0:0:0:0:
256,192,161829,1,0,0:0:0:0:
256,192,162024,1,0,0:0:0:0:
256,192,162219,1,8,0:0:0:0:
256,192,162316,1,8,0:0:0:0:
256,192,162414,1,8,0:0:0:0:
256,192,162608,1,0,0:0:0:0:
256,192,162803,1,0,0:0:0:0:
256,192,162998,1,12,0:0:0:0:
256,192,175466,5,8,0:0:0:0:
256,192,175660,1,8,0:0:0:0:
256,192,175855,1,0,0:0:0:0:
256,192,175953,1,0,0:0:0:0:
256,192,176050,1,0,0:0:0:0:
256,192,176245,1,8,0:0:0:0:
256,192,176440,1,8,0:0:0:0:
256,192,176634,1,0,0:0:0:0:
256,192,176829,1,0,0:0:0:0:
256,192,177024,1,8,0:0:0:0:
256,192,177219,1,8,0:0:0:0:
256,192,177414,1,0,0:0:0:0:
256,192,177511,1,0,0:0:0:0:
256,192,177608,1,0,0:0:0:0:
256,192,177803,1,8,0:0:0:0:
256,192,177998,1,8,0:0:0:0:
256,192,178193,1,0,0:0:0:0:
256,192,178388,1,0,0:0:0:0:
256,192,178582,1,8,0:0:0:0:
256,192,178777,1,8,0:0:0:0:
256,192,178972,1,0,0:0:0:0:
256,192,179069,1,0,0:0:0:0:
256,192,179167,1,0,0:0:0:0:
256,192,179362,1,8,0:0:0:0:
256,192,179557,1,8,0:0:0:0:
256,192,179751,1,0,0:0:0:0:
256,192,179946,1,0,0:0:0:0:
256,192,180141,1,0,0:0:0:0:
256,192,180531,1,8,0:0:0:0:
256,192,180725,1,8,0:0:0:0:
256,192,180920,1,8,0:0:0:0:
256,192,181310,1,0,0:0:0:0:
256,192,181505,1,0,0:0:0:0:
256,192,181699,1,8,0:0:0:0:
256,192,181894,1,8,0:0:0:0:
256,192,182089,1,0,0:0:0:0:
256,192,182186,1,0,0:0:0:0:
256,192,182284,1,0,0:0:0:0:
256,192,182479,1,8,0:0:0:0:
256,192,182673,1,8,0:0:0:0:
256,192,182868,1,0,0:0:0:0:
256,192,183063,1,0,0:0:0:0:
256,192,183258,1,8,0:0:0:0:
256,192,183453,1,8,0:0:0:0:
256,192,183647,1,0,0:0:0:0:
256,192,183745,1,0,0:0:0:0:
256,192,183842,1,0,0:0:0:0:
256,192,184037,1,8,0:0:0:0:
256,192,184232,1,8,0:0:0:0:
256,192,184427,1,0,0:0:0:0:
256,192,184621,1,0,0:0:0:0:
256,192,184816,1,8,0:0:0:0:
256,192,185011,1,0,0:0:0:0:
256,192,185206,1,8,0:0:0:0:
256,192,185401,1,0,0:0:0:0:
256,192,185595,1,8,0:0:0:0:
256,192,185790,1,0,0:0:0:0:
256,192,185985,1,8,0:0:0:0:
256,192,186180,1,0,0:0:0:0:
256,192,186375,1,12,0:0:0:0:
256,192,186667,1,12,0:0:0:0:
256,192,186959,1,4,0:0:0:0:
256,192,187154,1,12,0:0:0:0:
