osu file format v14

[General]
AudioFilename: Lindsey Stirling - Master of Tides.mp3
AudioLeadIn: 0
PreviewTime: 34311
Countdown: 0
SampleSet: Normal
StackLeniency: 0.2
Mode: 0
LetterboxInBreaks: 1
WidescreenStoryboard: 0

[Editor]
Bookmarks: 92,4317,19317,34311,49311,64311,94311,98061,113061,128067,143061,158067,188067,191817,199311,206817,208692,216186,219936,223692,253686
DistanceSpacing: 1.2
BeatDivisor: 6
GridSize: 4
TimelineZoom: 2.5

[Metadata]
Title:Master of Tides
TitleUnicode:Master of Tides
Artist:Lindsey Stirling
ArtistUnicode:Lindsey Stirling
Creator:LunaSaika
Version:Violin Dance
Source:
Tags:Shatter Me
BeatmapID:1007403
BeatmapSetID:471285

[Difficulty]
HPDrainRate:6
CircleSize:3
OverallDifficulty:8.3
ApproachRate:9.4
SliderMultiplier:2.56
SliderTickRate:1

[Events]
//Background and Video events
0,0,"Konachan.com - 220286 aqua_eyes choker dress eb_(ebkim00) flowers instrument long_hair original pink_hair summer_dress violin water.jpg",0,0
//Break Periods
2,192011,198771
//Storyboard Layer 0 (Background)
//Storyboard Layer 1 (Fail)
//Storyboard Layer 2 (Pass)
//Storyboard Layer 3 (Foreground)
//Storyboard Sound Samples

[TimingPoints]
-3189,468.75,4,2,0,100,1,0
92,-133.333333333333,4,2,1,20,0,0
4311,-133.333333333333,4,2,1,40,0,0
19154,-133.333333333333,4,2,1,5,0,0
19311,-100,4,1,1,55,0,0
34311,-200,4,1,1,50,0,0
34389,-200,4,1,1,35,0,0
35639,-200,4,1,1,5,0,0
36186,-200,4,1,1,50,0,0
36264,-200,4,1,1,35,0,0
37514,-200,4,1,1,5,0,0
38061,-200,4,1,1,50,0,0
38139,-200,4,1,1,35,0,0
39389,-200,4,1,1,5,0,0
39936,-200,4,1,1,45,0,0
40014,-200,4,1,1,30,0,0
40561,-200,4,1,1,5,0,0
40873,-200,4,1,1,45,0,0
40951,-200,4,1,1,30,0,0
41498,-200,4,1,1,5,0,0
41811,-200,4,1,1,50,0,0
41889,-200,4,1,1,35,0,0
43139,-200,4,1,1,5,0,0
43686,-200,4,1,1,45,0,0
43764,-200,4,1,1,30,0,0
44076,-200,4,1,1,5,0,0
44623,-200,4,1,1,45,0,0
44701,-200,4,1,1,30,0,0
45014,-200,4,1,1,5,0,0
45561,-200,4,1,1,50,0,0
45639,-200,4,1,1,35,0,0
46420,-200,4,1,1,15,0,0
47436,-200,4,1,1,35,0,0
47904,-133.333333333333,4,1,1,40,0,0
48373,-100,4,1,1,45,0,0
48842,-80,4,1,1,45,0,0
49311,-80,4,1,1,55,0,0
56811,-80,4,1,1,65,0,0
63373,-100,4,1,1,55,0,0
64311,-66.6666666666667,4,1,1,70,0,1
78920,-66.6666666666667,4,1,1,5,0,0
78998,-66.6666666666667,4,1,1,70,0,0
79076,-66.6666666666667,4,1,1,5,0,0
79154,-66.6666666666667,4,1,1,70,0,0
79232,-66.6666666666667,4,1,1,5,0,0
79311,-66.6666666666667,4,1,1,70,0,1
93607,-66.6666666666667,4,1,1,5,0,1
93686,-66.6666666666667,4,1,1,70,0,1
94311,-80,4,1,1,40,0,0
98061,-100,4,1,1,50,0,0
113061,-100,4,1,1,55,0,0
128061,-200,4,1,1,50,0,0
128139,-200,4,1,1,35,0,0
129389,-200,4,1,1,5,0,0
129936,-200,4,1,1,50,0,0
130014,-200,4,1,1,35,0,0
131264,-200,4,1,1,5,0,0
131811,-200,4,1,1,50,0,0
131889,-200,4,1,1,35,0,0
133139,-200,4,1,1,5,0,0
133686,-200,4,1,1,45,0,0
133764,-200,4,1,1,30,0,0
134389,-200,4,1,1,5,0,0
134623,-200,4,1,1,45,0,0
134701,-200,4,1,1,30,0,0
135248,-200,4,1,1,5,0,0
135561,-200,4,1,1,50,0,0
135639,-200,4,1,1,35,0,0
136889,-200,4,1,1,5,0,0
137436,-200,4,1,1,45,0,0
137826,-200,4,1,1,5,0,0
138373,-200,4,1,1,45,0,0
138764,-200,4,1,1,5,0,0
139311,-200,4,1,1,50,0,0
139389,-200,4,1,1,35,0,0
140170,-200,4,1,1,15,0,0
141186,-200,4,1,1,35,0,0
141654,-133.333333333333,4,1,1,40,0,0
142123,-100,4,1,1,45,0,0
142592,-80,4,1,1,45,0,0
143061,-80,4,1,1,55,0,0
150560,-80,4,1,1,65,0,0
156186,-80,4,1,1,60,0,0
156654,-57.1428571428571,4,1,1,65,0,0
157123,-100,4,1,1,55,0,0
157357,-100,4,1,1,5,0,0
157436,-100,4,1,1,55,0,0
158061,-66.6666666666667,4,1,1,70,0,1
172670,-66.6666666666667,4,1,1,5,0,0
172748,-66.6666666666667,4,1,1,70,0,0
172826,-66.6666666666667,4,1,1,5,0,0
172904,-66.6666666666667,4,1,1,70,0,0
172982,-66.6666666666667,4,1,1,5,0,0
173061,-66.6666666666667,4,1,1,70,0,1
187357,-66.6666666666667,4,1,1,5,0,1
187436,-66.6666666666667,4,1,1,70,0,1
188061,-100,4,1,1,60,0,0
199232,-100,4,1,1,35,0,0
204936,-100,4,2,1,40,0,0
207748,-80,4,2,1,35,0,0
208139,-80,4,2,1,5,0,0
208217,-66.6666666666667,4,2,1,35,0,0
208607,-66.6666666666667,4,2,1,5,0,0
208686,-133.333333333333,4,1,1,70,0,1
208764,-133.333333333333,4,1,1,5,0,1
208842,-133.333333333333,4,1,1,70,0,1
208920,-133.333333333333,4,1,1,5,0,1
208998,-133.333333333333,4,1,1,70,0,1
209076,-133.333333333333,4,1,1,5,0,1
209154,-133.333333333333,4,1,1,70,0,1
209232,-133.333333333333,4,1,1,5,0,1
209311,-133.333333333333,4,1,1,70,0,1
209389,-133.333333333333,4,1,1,5,0,1
209467,-133.333333333333,4,1,1,70,0,1
209545,-133.333333333333,4,1,1,5,0,1
209623,-133.333333333333,4,1,1,70,0,1
209701,-133.333333333333,4,1,1,5,0,1
209779,-133.333333333333,4,1,1,70,0,1
209857,-133.333333333333,4,1,1,5,0,1
209936,-133.333333333333,4,1,1,70,0,1
210014,-133.333333333333,4,1,1,5,0,1
210092,-133.333333333333,4,1,1,70,0,1
210170,-133.333333333333,4,1,1,5,0,1
210248,-133.333333333333,4,1,1,70,0,1
210326,-133.333333333333,4,1,1,5,0,1
210404,-133.333333333333,4,1,1,70,0,1
210482,-133.333333333333,4,1,1,5,0,1
210561,-133.333333333333,4,1,1,70,0,1
210639,-133.333333333333,4,1,1,5,0,1
210717,-133.333333333333,4,1,1,70,0,1
210795,-133.333333333333,4,1,1,5,0,1
210873,-133.333333333333,4,1,1,70,0,1
210951,-133.333333333333,4,1,1,5,0,1
211029,-133.333333333333,4,1,1,70,0,1
211107,-133.333333333333,4,1,1,5,0,1
211186,-133.333333333333,4,1,1,70,0,1
211264,-133.333333333333,4,1,1,5,0,1
211342,-133.333333333333,4,1,1,70,0,1
211420,-133.333333333333,4,1,1,5,0,1
211498,-133.333333333333,4,1,1,70,0,1
211576,-133.333333333333,4,1,1,5,0,1
211654,-133.333333333333,4,1,1,70,0,1
211732,-133.333333333333,4,1,1,5,0,1
211811,-133.333333333333,4,1,1,70,0,1
211889,-133.333333333333,4,1,1,5,0,1
211967,-133.333333333333,4,1,1,70,0,1
212045,-133.333333333333,4,1,1,5,0,1
212123,-133.333333333333,4,1,1,70,0,1
212201,-133.333333333333,4,1,1,5,0,1
212279,-133.333333333333,4,1,1,70,0,1
212357,-133.333333333333,4,1,1,5,0,1
212436,-133.333333333333,4,1,1,70,0,1
212514,-133.333333333333,4,1,1,5,0,1
212592,-133.333333333333,4,1,1,70,0,1
212670,-133.333333333333,4,1,1,5,0,1
212748,-133.333333333333,4,1,1,70,0,1
212826,-133.333333333333,4,1,1,5,0,1
212904,-133.333333333333,4,1,1,70,0,1
212982,-133.333333333333,4,1,1,5,0,1
213061,-133.333333333333,4,1,1,70,0,1
213139,-133.333333333333,4,1,1,5,0,1
213217,-133.333333333333,4,1,1,70,0,1
213295,-133.333333333333,4,1,1,5,0,1
213373,-133.333333333333,4,1,1,70,0,1
213451,-133.333333333333,4,1,1,5,0,1
213529,-133.333333333333,4,1,1,70,0,1
213607,-133.333333333333,4,1,1,5,0,1
213686,-133.333333333333,4,1,1,70,0,1
213764,-133.333333333333,4,1,1,5,0,1
213842,-133.333333333333,4,1,1,70,0,1
213920,-133.333333333333,4,1,1,5,0,1
213998,-133.333333333333,4,1,1,70,0,1
214076,-133.333333333333,4,1,1,5,0,1
214154,-133.333333333333,4,1,1,70,0,1
214232,-133.333333333333,4,1,1,5,0,1
214311,-80,4,1,1,70,0,0
216186,-133.333333333333,4,1,1,70,0,1
216264,-133.333333333333,4,1,1,5,0,1
216342,-133.333333333333,4,1,1,70,0,1
216420,-133.333333333333,4,1,1,5,0,1
216498,-133.333333333333,4,1,1,70,0,1
216576,-133.333333333333,4,1,1,5,0,1
216654,-133.333333333333,4,1,1,70,0,1
216732,-133.333333333333,4,1,1,5,0,1
216811,-133.333333333333,4,1,1,70,0,1
216889,-133.333333333333,4,1,1,5,0,1
216967,-133.333333333333,4,1,1,70,0,1
217045,-133.333333333333,4,1,1,5,0,1
217123,-133.333333333333,4,1,1,70,0,1
217201,-133.333333333333,4,1,1,5,0,1
217279,-133.333333333333,4,1,1,70,0,1
217357,-133.333333333333,4,1,1,5,0,1
217436,-133.333333333333,4,1,1,70,0,1
217514,-133.333333333333,4,1,1,5,0,1
217592,-133.333333333333,4,1,1,70,0,1
217670,-133.333333333333,4,1,1,5,0,1
217748,-133.333333333333,4,1,1,70,0,1
217826,-133.333333333333,4,1,1,5,0,1
217904,-133.333333333333,4,1,1,70,0,1
217982,-133.333333333333,4,1,1,5,0,1
218061,-133.333333333333,4,1,1,70,0,1
218139,-133.333333333333,4,1,1,5,0,1
218217,-133.333333333333,4,1,1,70,0,1
218295,-133.333333333333,4,1,1,5,0,1
218373,-133.333333333333,4,1,1,70,0,1
218451,-133.333333333333,4,1,1,5,0,1
218529,-133.333333333333,4,1,1,70,0,1
218607,-133.333333333333,4,1,1,5,0,1
218686,-133.333333333333,4,1,1,70,0,1
218764,-133.333333333333,4,1,1,5,0,1
218842,-133.333333333333,4,1,1,70,0,1
218920,-133.333333333333,4,1,1,5,0,1
218998,-133.333333333333,4,1,1,70,0,1
219076,-133.333333333333,4,1,1,5,0,1
219154,-133.333333333333,4,1,1,70,0,1
219232,-133.333333333333,4,1,1,5,0,1
219311,-133.333333333333,4,1,1,70,0,1
219389,-133.333333333333,4,1,1,5,0,1
219467,-133.333333333333,4,1,1,70,0,1
219545,-133.333333333333,4,1,1,5,0,1
219623,-133.333333333333,4,1,1,70,0,1
219701,-133.333333333333,4,1,1,5,0,1
219779,-133.333333333333,4,1,1,70,0,1
219857,-133.333333333333,4,1,1,5,0,1
219936,-80,4,1,1,70,0,0
223217,-80,4,1,1,65,0,0
223686,-66.6666666666667,4,1,1,70,0,1
238295,-66.6666666666667,4,1,1,5,0,0
238373,-66.6666666666667,4,1,1,70,0,0
238451,-66.6666666666667,4,1,1,5,0,0
238529,-66.6666666666667,4,1,1,70,0,0
238607,-66.6666666666667,4,1,1,5,0,0
238686,-66.6666666666667,4,1,1,70,0,1
252982,-66.6666666666667,4,1,1,5,0,1
253061,-66.6666666666667,4,1,1,70,0,1
253686,-100,4,1,1,35,0,0

[Colours]
Combo1 : 203,151,255
Combo2 : 128,255,255
Combo3 : 255,187,255
Combo4 : 255,193,193
Combo5 : 255,255,128

[HitObjects]
256,192,92,12,0,4154,0:0:0:0:
274,354,4311,6,0,L|351:341,2,64.0000024414063,4|0|0,0:3|1:0|1:0,0:0:0:0:
354,181,4779,2,0,L|327:254,2,64.0000024414063,4|0|0,0:1|1:0|1:0,0:0:0:0:
463,337,5248,2,0,L|413:277,2,64.0000024414063,4|0|0,0:1|1:0|1:0,0:0:0:0:
228,352,5717,5,4,0:1:0:0:
300,310,5873,1,2,1:2:0:0:
227,268,6029,1,0,1:0:0:0:
154,311,6186,6,0,L|149:386,2,64.0000024414063,0|0|0,0:1|1:0|1:0,0:0:0:0:
37,235,6654,2,0,L|42:310,2,64.0000024414063,0|0|0,0:1|1:0|1:0,0:0:0:0:
136,126,7123,2,0,L|131:201,2,64.0000024414063,0|0|0,0:1|1:0|1:0,0:0:0:0:
185,43,7592,5,4,0:1:0:0:
270,39,7748,1,2,1:2:0:0:
355,36,7904,1,0,1:0:0:0:
440,33,8061,6,0,L|519:30,2,64.0000024414063,4|0|0,0:1|1:0|1:0,0:0:0:0:
377,147,8529,2,0,L|298:143,2,64.0000024414063,4|0|0,0:1|1:0|1:0,0:0:0:0:
391,270,8998,2,0,L|454:267,2,64.0000024414063,4|0|0,0:1|1:0|1:0,0:0:0:0:
278,349,9467,2,0,L|138:340,1,128.000004882813,4|0,0:1|1:0,0:0:0:0:
131,340,9936,6,0,L|62:353,1,64.0000024414063,4|2,0:1|1:2,0:0:0:0:
28,222,10248,1,0,1:0:0:0:
42,238,10404,6,0,L|111:251,1,64.0000024414063,4|2,0:1|1:2,0:0:0:0:
145,120,10716,1,0,1:0:0:0:
139,139,10873,6,0,L|70:152,1,64.0000024414063,4|2,0:1|1:2,0:0:0:0:
36,21,11185,1,0,1:0:0:0:
47,38,11342,6,0,L|116:51,2,64.0000024414063,4|2|0,0:1|1:2|1:0,0:0:0:0:
124,53,11811,6,0,L|262:43,1,128.000004882813,4|0,0:3|1:0,0:0:0:0:
270,42,12279,5,4,0:1:0:0:
342,83,12435,1,0,1:0:0:0:
270,125,12592,1,0,1:0:0:0:
447,152,12748,5,4,0:1:0:0:
375,193,12904,1,0,1:0:0:0:
447,235,13061,1,0,1:0:0:0:
291,280,13217,5,4,0:1:0:0:
363,321,13373,1,2,1:2:0:0:
291,363,13530,1,0,1:0:0:0:
220,321,13686,6,0,L|92:313,1,128.000004882813,4|0,0:1|1:0,0:0:0:0:
63,157,14154,2,0,L|191:149,1,128.000004882813,4|0,0:1|1:0,0:0:0:0:
439,224,14623,2,0,L|311:216,1,128.000004882813,4|0,0:1|1:0,0:0:0:0:
282,60,15092,2,0,L|410:52,1,128.000004882813,4|0,0:1|1:0,0:0:0:0:
280,233,15561,5,4,1:0:0:0:
207,191,15717,1,4,1:0:0:0:
280,150,15873,1,4,1:0:0:0:
209,276,16029,5,4,1:0:0:0:
206,109,16186,1,4,1:0:0:0:
352,190,16342,1,4,1:0:0:0:
135,152,16498,5,4,1:0:0:0:
351,107,16654,1,4,1:0:0:0:
281,316,16811,1,4,1:0:0:0:
134,68,16967,5,4,1:0:0:0:
424,148,17123,1,4,1:0:0:0:
209,359,17279,1,4,1:0:0:0:
256,192,17436,5,4,1:3:0:0:
256,192,17514,12,8,18842,1:0:0:0:
470,326,19311,6,0,B|406:324|406:324|359:341|359:341|294:339,1,170.666666666667,4|2,0:3|0:2,0:0:0:0:
53,247,19779,1,10,0:0:0:0:
137,174,19936,1,2,0:2:0:0:
157,284,20092,1,2,0:2:0:0:
67,109,20248,6,0,P|104:85|163:84,1,85.3333333333333,6|0,0:0|0:0,0:0:0:0:
326,162,20561,1,2,0:2:0:0:
332,265,20717,6,0,P|290:259|254:236,1,85.3333333333333,10|0,0:0|0:0,0:0:0:0:
427,35,21029,1,2,0:2:0:0:
445,48,21186,6,0,L|436:243,1,170.666666666667,6|2,0:0|0:2,0:0:0:0:
113,326,21654,2,0,L|104:131,1,170.666666666667,10|2,0:0|0:2,0:0:0:0:
230,30,22123,6,0,P|304:28|324:134,1,170.666666666667,6|2,0:0|0:2,0:0:0:0:
270,219,22592,1,10,0:0:0:0:
416,35,22748,1,2,0:2:0:0:
469,265,22904,1,0,0:0:0:0:
400,25,23061,6,0,L|223:30,1,170.666666666667,6|0,0:0|0:0,0:0:0:0:
66,116,23529,1,10,0:0:0:0:
165,253,23686,1,2,0:2:0:0:
208,29,23842,1,2,0:2:0:0:
154,232,23998,6,0,L|65:237,1,85.3333333333333,6|0,0:0|0:0,0:0:0:0:
299,137,24311,1,2,0:2:0:0:
341,333,24467,2,0,L|511:342,1,170.666666666667,10|0,0:0|0:0,0:0:0:0:
398,103,24936,5,6,0:0:0:0:
448,252,25092,1,2,0:2:0:0:
493,45,25248,1,2,0:2:0:0:
333,218,25404,2,0,P|260:220|211:132,1,170.666666666667,10|0,0:0|0:0,0:0:0:0:
270,18,25873,5,6,0:0:0:0:
402,170,26029,1,2,0:2:0:0:
136,225,26186,1,2,0:2:0:0:
426,168,26342,5,10,0:0:0:0:
322,319,26498,1,2,0:2:0:0:
299,137,26654,1,0,0:0:0:0:
328,337,26811,6,0,B|268:360|268:360|147:347,1,170.666666666667,4|2,0:3|0:2,0:0:0:0:
34,182,27279,2,0,L|21:90,2,85.3333333333333,10|2|2,0:0|0:2|0:2,0:0:0:0:
220,46,27748,6,0,L|209:221,1,170.666666666667,6|2,0:0|0:2,0:0:0:0:
402,357,28217,1,10,0:0:0:0:
402,246,28373,1,2,0:2:0:0:
306,301,28529,1,2,0:2:0:0:
506,300,28686,6,0,L|517:124,1,170.666666666667,6|2,0:0|0:2,0:0:0:0:
280,58,29154,1,10,0:0:0:0:
291,168,29310,1,2,0:2:0:0:
303,278,29467,1,2,0:2:0:0:
133,361,29623,6,0,P|81:362|46:347,1,85.3333333333333,6|2,0:0|0:2,0:0:0:0:
10,157,29936,1,2,0:2:0:0:
21,139,30092,2,0,P|61:125|103:127,1,85.3333333333333,10|2,0:0|0:2,0:0:0:0:
295,227,30404,1,2,0:2:0:0:
287,253,30561,6,0,P|221:276|196:194,1,170.666666666667,6|0,0:0|0:0,0:0:0:0:
337,143,31029,1,10,0:0:0:0:
101,200,31186,1,2,0:2:0:0:
228,7,31342,1,2,0:2:0:0:
255,216,31498,6,0,L|266:391,1,170.666666666667,6|2,0:0|0:2,0:0:0:0:
299,123,31967,5,10,0:0:0:0:
155,316,32123,1,2,0:2:0:0:
395,270,32279,1,2,0:2:0:0:
89,242,32436,6,0,P|62:279|59:345,1,85.3333333333333,6|2,0:0|0:2,0:0:0:0:
376,360,32748,1,0,0:0:0:0:
423,172,32904,2,0,P|415:130|389:96,1,85.3333333333333,10|2,0:0|0:2,0:0:0:0:
161,18,33217,1,0,0:0:0:0:
12,98,33373,6,0,B|51:79|102:84|102:84|127:109|185:108,1,170.666666666667,6|0,0:0|0:0,0:0:0:0:
342,106,33842,2,0,P|367:72|373:30,1,85.3333333333333,10|0,0:0|0:0,0:0:0:0:
374,30,34076,1,0,0:0:0:0:
374,30,34154,1,0,0:0:0:0:
228,177,34311,6,0,B|213:221|231:260|231:260|262:302|252:357|252:357|298:309|372:367|381:222,1,384,4|0,0:3|2:0,0:0:0:0:
479,38,36186,6,0,B|421:55|376:40|376:40|315:23|262:40|262:40|308:84|323:130|317:194,1,384,4|0,0:3|2:0,0:0:0:0:
132,346,38061,6,0,B|106:313|119:267|119:267|110:236|110:236|123:207|123:207|103:167|113:135|113:135|126:97|113:55|113:55|68:67|51:107,1,384,4|0,0:3|2:0,0:0:0:0:
203,296,39936,6,0,P|286:277|287:174,1,192,4|0,0:3|2:0,0:0:0:0:
208,114,40873,2,0,P|125:133|124:236,1,192,4|0,0:3|2:0,0:0:0:0:
202,321,41811,6,0,B|250:318|297:354|297:354|345:316|399:316|399:316|447:341|447:341|496:299|471:230,1,384,4|0,0:3|2:0,0:0:0:0:
212,105,43686,6,0,B|192:144|210:193|210:193|231:175|233:151,1,128,4|0,0:3|2:0,0:0:0:0:
477,122,44623,2,0,B|497:83|479:34|479:34|458:52|456:76,1,128,4|0,0:3|2:0,0:0:0:0:
347,302,45561,6,0,P|429:354|445:229,1,256,4|2,0:3|2:0,0:0:0:0:
298,33,47436,6,0,L|292:135,1,85.3333333333333,4|0,0:3|2:0,0:0:0:0:
176,209,47904,6,0,L|165:78,1,128.000004882813,2|0,0:2|2:0,0:0:0:0:
410,179,48373,6,0,L|395:357,1,170.666666666667,2|0,0:2|2:0,0:0:0:0:
32,353,48842,6,0,B|15:305|34:249|34:249|96:254|135:322,1,213.333333333333,2|0,0:2|2:0,0:0:0:0:
234,368,49311,6,0,P|339:357|358:244,1,213.333333333333,4|2,0:3|0:2,0:0:0:0:
304,86,49779,6,0,B|237:59|237:59|70:92,1,213.333333333333,4|2,0:0|0:2,0:0:0:0:
77,98,50248,2,0,P|62:152|80:221,1,106.666666666667,4|0,0:0|0:0,0:0:0:0:
201,346,50561,5,2,0:2:0:0:
201,346,50639,1,0,0:0:0:0:
201,346,50717,2,0,L|448:322,1,213.333333333333,4|2,0:0|0:2,0:0:0:0:
320,71,51186,6,0,L|73:47,1,213.333333333333,4|2,0:0|0:2,0:0:0:0:
307,183,51654,6,0,P|400:150|428:47,1,213.333333333333,4|2,0:0|0:2,0:0:0:0:
132,177,52123,6,0,P|157:276|253:312,1,213.333333333333,4|2,0:0|0:2,0:0:0:0:
278,0,52592,6,0,B|234:61|234:61|242:210,1,213.333333333333,4|2,0:0|0:2,0:0:0:0:
437,314,53061,6,0,P|417:212|339:241,1,213.333333333333,4|2,0:3|0:2,0:0:0:0:
395,269,53529,6,0,L|403:44,1,213.333333333333,4|2,0:0|0:2,0:0:0:0:
401,30,53998,2,0,P|349:15|285:31,1,106.666666666667,4|0,0:0|0:0,0:0:0:0:
207,206,54311,5,2,0:2:0:0:
207,206,54389,1,0,0:0:0:0:
207,206,54467,2,0,P|257:220|309:211,1,106.666666666667,4|0,0:0|0:0,0:0:0:0:
263,19,54779,1,2,0:2:0:0:
59,76,54936,6,0,L|66:289,1,213.333333333333,4|2,0:0|0:2,0:0:0:0:
389,348,55404,1,4,0:0:0:0:
269,176,55561,1,0,0:2:0:0:
243,322,55717,1,2,0:2:0:0:
414,202,55873,6,0,B|428:153|397:107|397:107|403:168|359:228,1,213.333333333333,4|2,0:0|0:2,0:0:0:0:
243,322,56342,2,0,P|144:294|115:196,1,213.333333333333,4|2,0:0|0:2,0:0:0:0:
125,172,56732,1,0,0:0:0:0:
125,172,56811,5,6,0:3:0:0:
208,105,56967,1,2,0:3:0:0:
225,210,57123,1,2,0:3:0:0:
108,66,57279,5,10,0:3:0:0:
308,141,57435,1,2,0:3:0:0:
143,278,57592,1,2,0:3:0:0:
195,3,57748,5,10,0:3:0:0:
321,246,57904,1,2,0:3:0:0:
46,233,58061,1,2,0:3:0:0:
358,45,58217,5,10,0:3:0:0:
203,364,58373,1,2,0:3:0:0:
3,71,58529,1,2,0:3:0:0:
387,212,58686,5,6,0:3:0:0:
304,279,58842,1,2,0:3:0:0:
287,174,58998,1,2,0:3:0:0:
404,318,59154,5,10,0:3:0:0:
204,243,59310,1,2,0:3:0:0:
369,106,59467,1,2,0:3:0:0:
317,381,59623,5,10,0:3:0:0:
191,138,59779,1,2,0:3:0:0:
466,151,59936,1,2,0:3:0:0:
154,339,60092,5,10,0:3:0:0:
309,20,60248,1,2,0:3:0:0:
509,313,60404,1,2,0:3:0:0:
509,313,60482,1,0,0:0:0:0:
509,313,60561,6,0,L|346:304,1,160,6|0,0:3|0:0,0:0:0:0:
63,257,60873,5,2,0:2:0:0:
63,257,60951,1,2,0:2:0:0:
63,257,61029,2,0,L|226:248,1,160,4|0,0:0|0:0,0:0:0:0:
484,154,61342,5,2,0:2:0:0:
484,154,61420,1,0,0:0:0:0:
484,154,61499,2,0,L|321:145,1,160,4|0,0:0|0:0,0:0:0:0:
38,98,61811,5,2,0:2:0:0:
38,98,61889,1,2,0:2:0:0:
38,98,61967,2,0,L|201:89,1,160,4|0,0:0|0:0,0:0:0:0:
335,33,62279,5,2,0:2:0:0:
361,28,62357,1,0,0:0:0:0:
387,27,62436,2,0,P|426:91|410:198,1,160,4|0,0:0|0:0,0:0:0:0:
315,227,62748,5,2,0:2:0:0:
289,232,62826,1,0,0:0:0:0:
263,233,62905,2,0,P|224:169|240:62,1,160,4|0,0:0|0:0,0:0:0:0:
335,33,63216,5,2,0:2:0:0:
361,28,63294,1,0,0:0:0:0:
387,27,63373,2,0,P|367:170|154:90,1,426.666666666667,4|2,0:0|0:2,0:0:0:0:
159,79,64311,6,0,B|225:54|279:89|279:89|350:122|429:102,1,256.000009765625,4|0,0:2|0:0,0:0:0:0:
213,169,64779,1,8,0:0:0:0:
321,353,64936,1,2,0:3:0:0:
406,106,65092,1,2,0:3:0:0:
233,265,65248,6,0,P|174:262|124:210,1,128.000004882813,6|0,0:0|0:0,0:0:0:0:
96,40,65561,1,2,0:3:0:0:
212,362,65717,6,0,P|271:359|321:307,1,128.000004882813,8|0,0:0|0:0,0:0:0:0:
349,137,66030,1,2,0:3:0:0:
96,40,66186,6,0,P|114:105|254:47,1,256.000009765625,6|2,0:0|0:2,0:0:0:0:
407,293,66654,2,0,P|317:221|249:313,1,256.000009765625,8|2,0:0|0:2,0:0:0:0:
454,172,67123,5,6,0:0:0:0:
328,303,67279,1,2,0:3:0:0:
506,346,67436,1,2,0:2:0:0:
340,164,67592,5,8,0:0:0:0:
407,375,67748,1,2,0:3:0:0:
510,252,67904,1,2,0:2:0:0:
241,253,68061,6,0,B|170:247|185:289|116:283,1,128.000004882813,6|0,0:3|0:0,0:0:0:0:
8,224,68373,1,2,0:2:0:0:
8,224,68451,1,0,0:0:0:0:
8,224,68529,2,0,L|1:78,1,128.000004882813,8|0,0:0|0:0,0:0:0:0:
119,283,68842,1,2,0:2:0:0:
231,165,68998,6,0,B|302:159|287:201|356:195,1,128.000004882813,6|0,0:0|0:0,0:0:0:0:
464,136,69310,1,2,0:2:0:0:
464,136,69388,1,0,0:0:0:0:
464,136,69469,2,0,L|471:-10,1,128.000004882813,8|0,0:0|0:0,0:0:0:0:
352,195,69779,1,2,0:2:0:0:
196,41,69936,6,0,P|101:46|74:156,1,192.000007324219,6|2,0:0|0:3,0:0:0:0:
85,163,70248,1,2,0:2:0:0:
94,204,70326,1,2,0:2:0:0:
91,247,70404,6,0,B|85:283|61:302|61:302|32:290|17:250,1,128.000004882813,8|2,0:0|0:3,0:0:0:0:
153,115,70717,1,2,0:2:0:0:
305,153,70873,6,0,P|322:214|307:279,1,128.000004882813,6|0,0:0|0:0,0:0:0:0:
200,330,71186,1,2,0:2:0:0:
88,286,71342,2,0,P|71:225|86:160,1,128.000004882813,8|0,0:0|0:0,0:0:0:0:
248,63,71654,1,2,0:2:0:0:
248,63,71732,1,0,0:0:0:0:
248,63,71811,6,0,B|318:57|318:57|386:84|386:84|500:73,1,256.000009765625,6|2,0:3|0:2,0:0:0:0:
305,153,72279,5,8,0:0:0:0:
134,29,72436,1,2,0:2:0:0:
110,240,72592,1,2,0:3:0:0:
137,10,72748,6,0,P|31:12|66:128,1,256.000009765625,6|2,0:0|0:2,0:0:0:0:
248,63,73217,5,8,0:0:0:0:
58,125,73373,1,2,0:3:0:0:
225,233,73529,1,2,0:2:0:0:
453,169,73686,6,0,B|472:126|456:85|456:85|470:52|470:52|447:13|385:23|364:73,1,256.000009765625,6|2,0:0|0:2,0:0:0:0:
332,213,74154,2,0,B|313:256|329:297|329:297|315:330|315:330|338:369|400:359|421:309,1,256.000009765625,8|2,0:0|0:2,0:0:0:0:
361,95,74623,5,6,0:0:0:0:
162,149,74779,1,2,0:3:0:0:
332,213,74936,1,2,0:2:0:0:
241,8,75092,5,8,0:0:0:0:
234,255,75248,1,2,0:3:0:0:
376,72,75404,1,2,0:2:0:0:
64,107,75561,6,0,L|55:257,1,128.000004882813,6|0,0:3|0:0,0:0:0:0:
209,345,75873,1,2,0:2:0:0:
209,345,75951,1,0,0:0:0:0:
209,345,76029,2,0,P|276:339|323:278,1,128.000004882813,8|0,0:0|0:0,0:0:0:0:
295,96,76342,1,2,0:2:0:0:
463,243,76498,6,0,L|472:93,1,128.000004882813,6|0,0:0|0:0,0:0:0:0:
318,5,76810,1,2,0:2:0:0:
318,5,76888,1,0,0:0:0:0:
318,5,76966,2,0,P|251:11|204:72,1,128.000004882813,8|0,0:0|0:0,0:0:0:0:
232,254,77279,1,2,0:2:0:0:
481,149,77436,6,0,B|434:131|434:131|337:147,1,128.000004882813,6|2,0:0|0:2,0:0:0:0:
122,258,77748,1,2,0:3:0:0:
67,336,77904,6,0,B|114:354|114:354|211:338,1,128.000004882813,8|2,0:0|0:2,0:0:0:0:
351,271,78217,1,2,0:2:0:0:
351,271,78295,1,0,0:0:0:0:
351,271,78373,6,0,L|358:120,1,128.000004882813,6|0,0:0|0:0,0:0:0:0:
148,57,78686,1,2,0:2:0:0:
150,120,78764,1,0,0:0:0:0:
153,184,78842,2,0,L|153:247,1,64.0000024414063,8|0,0:0|2:0,0:0:0:0:
2,244,78998,2,0,L|57:211,1,64.0000024414063,2|0,0:2|2:0,0:0:0:0:
130,344,79155,2,0,L|74:312,1,64.0000024414063,2|0,0:2|2:0,0:0:0:0:
100,111,79311,6,0,P|198:105|207:255,1,256.000009765625,6|2,0:3|0:2,0:0:0:0:
205,242,79701,1,0,0:0:0:0:
204,243,79779,2,0,B|182:182|182:182|206:122,1,128.000004882813,8|2,0:0|0:3,0:0:0:0:
398,133,80092,1,2,0:2:0:0:
479,72,80248,6,0,B|501:133|501:133|477:193,1,128.000004882813,6|2,0:0|0:3,0:0:0:0:
269,329,80561,1,2,0:2:0:0:
338,267,80717,2,0,L|469:283,1,128.000004882813,8|0,0:0|0:2,0:0:0:0:
270,355,81029,1,0,0:0:0:0:
181,175,81186,6,0,P|53:179|51:292,1,256.000009765625,6|2,0:0|0:2,0:0:0:0:
62,301,81576,1,0,0:0:0:0:
62,301,81654,2,0,P|120:322|190:295,1,128.000004882813,8|2,0:0|0:3,0:0:0:0:
234,91,81967,1,2,0:2:0:0:
294,18,82123,6,0,P|236:-3|166:24,1,128.000004882813,6|2,0:0|0:3,0:0:0:0:
308,333,82436,1,2,0:2:0:0:
428,291,82592,2,0,B|468:224|427:150|427:150|376:183|307:150,1,256.000009765625,8|2,0:0|0:2,0:0:0:0:
300,145,83061,6,0,L|293:2,1,128.000004882813,6|0,0:3|0:0,0:0:0:0:
163,298,83373,1,2,0:3:0:0:
40,153,83529,2,0,B|95:129|154:157|154:157|212:195|296:164,1,256.000009765625,8|2,0:0|0:2,0:0:0:0:
94,235,83998,5,6,0:0:0:0:
210,374,84154,1,2,0:2:0:0:
228,82,84311,1,2,0:3:0:0:
325,278,84467,2,0,P|427:299|468:156,1,256.000009765625,8|2,0:0|0:2,0:0:0:0:
398,59,84936,6,0,B|236:93|236:93|142:46,1,256.000009765625,6|2,0:0|0:2,0:0:0:0:
227,251,85404,2,0,B|389:217|389:217|483:264,1,256.000009765625,8|2,0:0|0:2,0:0:0:0:
161,373,85873,5,6,0:0:0:0:
228,82,86029,1,2,0:3:0:0:
378,309,86186,1,2,0:2:0:0:
120,241,86342,6,0,B|107:208|107:208|119:177|119:177|105:140|105:140|121:102|121:102|105:67|105:67|118:36|109:-3,1,256.000009765625,8|2,0:0|0:2,0:0:0:0:
246,108,86811,6,0,B|341:139|417:87|417:87|373:78|339:42,1,256.000009765625,6|2,0:3|0:2,0:0:0:0:
297,234,87279,5,8,0:0:0:0:
512,148,87436,1,2,0:2:0:0:
348,27,87592,1,2,0:3:0:0:
458,240,87748,6,0,B|453:374|453:374|405:332|340:343,1,256.000009765625,6|0,0:0|0:0,0:0:0:0:
201,373,88217,2,0,B|141:385|96:361|96:361|63:355|33:367|33:367|7:334|8:283,1,256.000009765625,8|2,0:0|0:2,0:0:0:0:
71,66,88686,5,6,0:0:0:0:
101,272,88842,1,2,0:2:0:0:
0,143,88998,1,2,0:3:0:0:
162,8,89154,6,0,B|182:68|164:115|164:115|119:178|139:266,1,256.000009765625,8|2,0:0|0:2,0:0:0:0:
345,252,89623,6,0,P|341:161|226:206,1,256.000009765625,6|0,0:0|0:0,0:0:0:0:
240,368,90092,6,0,B|268:344|305:341|305:341|368:372|424:376|496:346,1,256.000009765625,8|2,0:0|0:2,0:0:0:0:
512,205,90561,6,0,P|512:140|481:84,1,128.000004882813,6|0,0:3|0:0,3:0:0:0:
282,51,90873,1,2,0:2:0:0:
259,74,90951,1,0,0:0:0:0:
243,101,91029,2,0,P|242:164|272:220,1,128.000004882813,8|0,0:0|0:0,0:0:0:0:
440,271,91342,1,2,0:2:0:0:
372,35,91498,6,0,L|219:33,1,128.000004882813,6|0,0:0|0:0,0:0:0:0:
67,135,91811,1,2,0:2:0:0:
71,166,91889,1,0,0:0:0:0:
75,198,91967,2,0,L|228:196,1,128.000004882813,8|0,0:0|0:0,0:0:0:0:
426,127,92279,1,2,0:2:0:0:
339,342,92436,6,0,B|235:355|174:288|174:288|158:325|90:340,1,256.000009765625,6|2,0:0|0:2,0:0:0:0:
116,332,92826,1,0,0:0:0:0:
116,332,92904,1,8,0:0:0:0:
274,242,93061,1,2,0:3:0:0:
19,184,93217,1,2,0:2:0:0:
121,36,93373,6,0,B|185:14|185:14|336:42,1,192.000007324219,6|0,0:0|2:0,0:0:0:0:
125,125,93686,2,0,P|58:104|34:55,1,128.000004882813,8|0,0:0|0:0,0:0:0:0:
388,103,93998,5,2,0:2:0:0:
343,224,94154,1,2,0:2:0:0:
262,125,94311,1,6,0:3:0:0:
256,192,94389,12,0,96967,2:0:0:0:
497,99,97123,6,2,B|432:82|394:124|394:124|372:170|296:182,1,213.333333333333,2|0,2:0|0:2,0:0:0:0:
75,107,97592,1,8,0:0:0:0:
203,293,98061,5,4,0:0:0:0:
217,208,98217,1,2,0:3:0:0:
282,263,98373,1,2,0:3:0:0:
138,239,98529,5,8,0:0:0:0:
296,178,98686,1,2,0:3:0:0:
269,348,98842,1,2,0:3:0:0:
231,124,98998,5,4,0:0:0:0:
348,317,99154,1,2,0:3:0:0:
124,323,99311,1,2,0:3:0:0:
296,178,99467,5,8,0:0:0:0:
269,348,99623,1,2,0:3:0:0:
138,239,99779,1,2,0:3:0:0:
361,232,99936,5,4,0:0:0:0:
189,378,100092,1,2,0:3:0:0:
151,153,100248,1,2,0:3:0:0:
361,232,100404,6,0,P|366:273|340:326,1,85.3333333333333,8|0,0:0|0:0,0:0:0:0:
189,378,100717,1,2,0:3:0:0:
151,153,100873,6,0,P|184:128|242:124,1,85.3333333333333,4|0,0:0|0:0,0:0:0:0:
361,232,101186,1,2,0:3:0:0:
189,378,101342,6,0,P|150:361|118:312,1,85.3333333333333,8|0,0:0|0:0,0:0:0:0:
151,153,101655,1,2,0:3:0:0:
324,241,101811,5,4,0:0:0:0:
260,344,101967,1,2,0:3:0:0:
235,225,102123,1,2,0:3:0:0:
351,332,102279,5,8,0:0:0:0:
293,155,102436,1,2,0:3:0:0:
178,301,102592,1,2,0:3:0:0:
361,232,102748,5,4,0:0:0:0:
254,375,102904,1,2,0:3:0:0:
203,204,103061,1,2,0:3:0:0:
372,352,103217,5,8,0:0:0:0:
296,135,103373,1,2,0:3:0:0:
151,313,103529,1,2,0:3:0:0:
437,281,103686,6,0,P|451:233|439:188,1,85.3333333333333,4|0,0:0|0:0,0:0:0:0:
296,135,103998,1,2,0:3:0:0:
151,313,104154,2,0,L|338:319,1,170.666666666667,8|2,0:0|0:3,0:0:0:0:
271,113,104623,6,0,L|84:119,1,170.666666666667,4|2,0:0|0:3,0:0:0:0:
82,122,105014,1,0,0:0:0:0:
82,122,105092,2,0,P|71:164|86:219,1,85.3333333333333,8|2,0:0|0:3,0:0:0:0:
151,313,105404,1,0,0:0:0:0:
445,248,105561,5,4,0:0:0:0:
295,216,105717,1,2,0:3:0:0:
378,195,105873,1,2,0:3:0:0:
290,31,106029,5,8,0:0:0:0:
469,72,106186,1,2,0:3:0:0:
369,97,106342,1,2,0:3:0:0:
445,248,106498,5,4,0:0:0:0:
347,341,106654,1,2,0:3:0:0:
295,216,106811,1,2,0:3:0:0:
469,72,106967,5,8,0:0:0:0:
290,31,107123,1,2,0:3:0:0:
189,185,107279,1,2,0:3:0:0:
252,359,107436,5,4,0:0:0:0:
190,157,107592,1,2,0:3:0:0:
164,289,107748,1,2,0:3:0:0:
414,227,107904,5,8,0:0:0:0:
295,216,108061,1,2,0:3:0:0:
347,318,108217,1,2,0:3:0:0:
383,86,108373,5,4,0:0:0:0:
256,119,108529,1,2,0:3:0:0:
141,56,108686,1,2,0:3:0:0:
44,277,108842,5,8,0:0:0:0:
228,225,108998,1,2,0:3:0:0:
371,351,109154,1,2,0:3:0:0:
416,120,109311,5,4,0:0:0:0:
238,366,109467,1,2,0:3:0:0:
113,89,109623,1,2,0:3:0:0:
398,294,109779,5,8,0:0:0:0:
273,17,109935,1,2,0:3:0:0:
96,264,110091,1,2,0:3:0:0:
416,120,110248,6,0,L|419:14,1,85.3333333333333,4|2,0:0|0:3,0:0:0:0:
95,243,110561,1,2,0:3:0:0:
97,253,110639,1,0,0:0:0:0:
96,264,110717,2,0,L|103:371,2,85.3333333333333,8|2|2,0:0|0:3|0:3,0:0:0:0:
158,78,111186,6,0,L|58:61,1,85.3333333333333,4|0,0:0|0:0,0:0:0:0:
56,60,111498,1,2,0:3:0:0:
228,303,111654,6,0,L|328:286,1,85.3333333333333,8|0,0:0|0:0,0:0:0:0:
330,285,111966,1,2,0:3:0:0:
461,75,112123,6,0,B|448:117|462:165|462:165|441:216|441:216|471:270|448:330,1,256,2|8,3:0|0:0,0:0:0:0:
472,52,112748,1,2,0:3:0:0:
353,278,112904,1,2,0:3:0:0:
99,234,113061,6,0,P|63:169|83:53,1,170.666666666667,6|2,0:3|0:2,0:0:0:0:
361,96,113529,1,10,0:0:0:0:
181,135,113686,1,2,0:2:0:0:
276,12,113842,1,2,0:3:0:0:
337,183,113998,6,0,P|406:175|450:89,1,170.666666666667,6|2,0:0|0:2,0:0:0:0:
402,3,114467,1,10,0:0:0:0:
337,183,114623,1,2,0:3:0:0:
493,294,114779,1,2,0:2:0:0:
354,362,114936,6,0,B|303:368|266:338|266:338|218:343|186:373,1,170.666666666667,6|2,0:0|0:2,0:0:0:0:
62,207,115404,2,0,B|113:201|150:231|150:231|198:226|230:196,1,170.666666666667,10|2,0:0|0:2,0:0:0:0:
247,79,115873,2,0,P|230:14|131:20,1,170.666666666667,6|2,0:0|0:2,0:0:0:0:
140,115,116342,5,10,0:0:0:0:
377,76,116498,1,2,0:2:0:0:
115,118,116654,1,2,0:3:0:0:
305,209,116811,6,0,B|321:266|321:266|292:377,1,170.666666666667,6|0,0:0|0:0,0:0:0:0:
213,203,117279,2,0,P|226:159|274:122,1,85.3333333333333,10|0,0:0|0:0,0:0:0:0:
305,209,117592,1,2,0:2:0:0:
131,372,117748,6,0,P|87:359|50:311,1,85.3333333333333,6|0,0:0|0:0,0:0:0:0:
139,279,118061,1,2,0:2:0:0:
305,209,118217,6,0,B|363:182|417:206|417:206|406:231|381:253,1,170.666666666667,10|0,0:0|0:0,0:0:0:0:
257,289,118686,5,6,0:0:0:0:
347,108,118842,1,2,0:2:0:0:
404,351,118998,1,2,0:3:0:0:
305,209,119154,2,0,P|236:196|166:266,1,170.666666666667,10|2,0:0|0:2,0:0:0:0:
173,360,119623,5,6,0:0:0:0:
382,262,119779,1,2,0:2:0:0:
91,165,119936,1,2,0:2:0:0:
257,289,120092,5,10,0:0:0:0:
215,84,120248,1,2,0:2:0:0:
157,236,120404,1,0,0:0:0:0:
306,144,120561,6,0,B|357:128|395:144|395:144|430:133|430:133|485:140,1,170.666666666667,6|2,0:3|0:2,0:0:0:0:
356,224,121029,1,10,0:0:0:0:
303,44,121186,1,2,0:2:0:0:
231,295,121342,1,2,0:2:0:0:
168,153,121498,6,0,L|70:147,1,85.3333333333333,6|2,0:0|0:2,0:0:0:0:
356,224,121811,1,2,0:3:0:0:
82,147,121967,2,0,P|54:231|82:317,1,170.666666666667,10|2,0:0|0:2,0:0:0:0:
448,308,122436,6,0,P|476:224|448:138,1,170.666666666667,6|2,0:0|0:2,0:0:0:0:
244,70,122904,1,10,0:0:0:0:
356,224,123061,1,2,0:2:0:0:
426,25,123217,1,2,0:3:0:0:
247,201,123373,6,0,P|244:251|266:297,1,85.3333333333333,6|2,0:0|0:3,0:0:0:0:
417,130,123686,1,2,0:2:0:0:
244,70,123842,2,0,B|203:58|162:72|162:72|134:98|72:103,1,170.666666666667,10|2,0:0|0:2,0:0:0:0:
58,102,124232,1,0,0:0:0:0:
58,102,124311,5,6,0:0:0:0:
225,36,124467,1,2,0:3:0:0:
178,225,124623,1,2,0:2:0:0:
209,1,124779,5,10,0:0:0:0:
65,203,124935,1,2,0:3:0:0:
76,2,125092,1,2,0:2:0:0:
286,172,125248,5,6,0:0:0:0:
58,102,125404,1,2,0:2:0:0:
321,40,125561,1,2,0:3:0:0:
142,110,125717,2,0,L|49:101,1,85.3333333333333,10|2,0:0|0:2,0:0:0:0:
144,321,126029,5,2,0:2:0:0:
144,321,126107,1,0,0:0:0:0:
144,321,126186,2,0,L|237:312,1,85.3333333333333,6|2,0:0|0:2,0:0:0:0:
406,69,126498,1,2,0:2:0:0:
179,124,126654,2,0,P|166:166|181:233,1,85.3333333333333,10|0,0:0|0:0,0:0:0:0:
312,353,126967,1,0,0:0:0:0:
486,305,127123,6,0,P|515:231|489:136,1,170.666666666667,6|2,0:0|0:2,0:0:0:0:
359,68,127592,2,0,L|255:63,1,85.3333333333333,10|2,0:0|0:2,0:0:0:0:
273,63,127826,1,0,0:0:0:0:
273,63,127904,1,0,0:0:0:0:
295,344,128061,6,0,B|247:360|201:330|201:330|162:357|162:357|123:339|123:339|67:360|29:317|43:269|43:269|53:236|46:203,1,384,4|0,0:3|2:0,0:0:0:0:
106,52,129936,6,0,B|144:73|176:65|176:65|204:44|204:44|251:69|297:71|334:47|349:15|349:15|389:9|429:23|459:60,1,384,4|0,0:3|2:0,0:0:0:0:
471,374,131811,6,0,B|435:365|416:330|416:330|399:268|399:268|370:319|312:331|312:331|283:295|227:280|173:316,1,384,4|0,0:3|2:0,0:0:0:0:
58,355,133686,6,0,P|14:290|41:176,1,192,4|0,0:3|2:0,0:0:0:0:
193,137,134623,2,0,P|237:202|210:316,1,192,4|0,0:3|2:0,0:0:0:0:
109,73,135561,6,0,B|154:25|226:24|271:69|271:69|277:106|311:129|311:129|370:102|441:124,1,384,4|0,0:3|2:0,0:0:0:0:
419,319,137436,6,0,B|416:355|392:375|392:375|363:356|359:320,1,128,4|0,0:3|2:0,0:0:0:0:
393,138,138373,2,0,B|396:104|425:85|425:85|449:105|452:141,1,128,4|0,0:3|2:0,0:0:0:0:
359,322,139311,6,0,P|257:331|196:200,1,256,4|2,0:3|2:0,0:0:0:0:
356,101,141186,6,0,P|403:92|447:96,1,85.3333333333333,4|0,0:3|2:0,0:0:0:0:
361,248,141654,6,0,P|299:245|239:206,1,128.000004882813,2|0,0:2|2:0,0:0:0:0:
223,7,142123,6,0,P|304:36|358:106,1,170.666666666667,2|0,0:2|2:0,0:0:0:0:
190,298,142592,6,0,B|156:223|197:160|197:160|214:179|247:214,1,213.333333333333,2|0,0:2|2:0,0:0:0:0:
310,318,143061,6,0,P|412:320|445:228,1,213.333333333333,4|2,0:3|0:2,0:0:0:0:
391,43,143529,1,4,0:0:0:0:
361,248,143686,1,2,0:2:0:0:
282,105,143842,5,0,0:0:0:0:
282,105,143920,1,0,0:0:0:0:
282,105,143998,2,0,L|167:112,1,106.666666666667,4|2,0:0|0:2,0:0:0:0:
54,63,144311,1,2,0:2:0:0:
31,298,144467,2,0,L|249:284,1,213.333333333333,4|0,0:0|0:0,0:0:0:0:
444,237,144936,6,0,P|488:293|386:283,1,213.333333333333,4|2,0:0|0:2,0:0:0:0:
383,288,145326,1,0,0:0:0:0:
383,288,145404,2,0,L|392:174,1,106.666666666667,4|2,0:0|0:2,0:0:0:0:
301,44,145717,1,2,0:2:0:0:
219,273,145873,6,0,P|163:267|121:233,1,106.666666666667,4|2,0:0|0:2,0:0:0:0:
78,118,146186,1,2,0:2:0:0:
301,44,146342,5,4,0:0:0:0:
205,164,146498,1,2,0:2:0:0:
159,17,146654,1,2,0:2:0:0:
361,131,146811,6,0,B|384:196|384:196|342:350,1,213.333333333333,4|2,0:3|0:2,0:0:0:0:
254,132,147279,6,0,P|263:81|300:43,1,106.666666666667,4|2,0:0|0:2,0:0:0:0:
477,22,147592,1,2,0:2:0:0:
253,243,147748,6,0,P|201:233|163:196,1,106.666666666667,4|2,0:0|0:2,0:0:0:0:
67,40,148061,1,2,0:2:0:0:
67,40,148139,1,0,0:0:0:0:
67,40,148217,6,0,L|55:279,1,213.333333333333,4|2,0:0|0:2,0:0:0:0:
52,340,148607,1,0,0:0:0:0:
60,358,148686,6,0,P|123:368|217:266,1,213.333333333333,4|2,0:0|0:2,0:0:0:0:
201,180,149076,1,0,0:0:0:0:
186,159,149154,6,0,L|72:149,1,106.666666666667,4|2,0:0|0:2,0:0:0:0:
276,53,149467,1,2,0:2:0:0:
377,237,149623,6,0,P|433:236|482:204,1,106.666666666667,4|2,0:0|0:2,0:0:0:0:
287,33,149936,1,2,0:2:0:0:
278,236,150092,6,0,L|273:361,1,106.666666666667,4|2,0:0|0:2,0:0:0:0:
70,312,150404,1,2,0:2:0:0:
67,258,150482,1,2,0:2:0:0:
65,205,150560,5,6,0:3:0:0:
101,104,150717,1,2,0:3:0:0:
170,186,150873,1,2,0:3:0:0:
316,30,151029,5,10,0:3:0:0:
449,66,151186,1,2,0:3:0:0:
351,164,151342,1,2,0:3:0:0:
35,84,151498,5,10,0:3:0:0:
191,16,151654,1,2,0:3:0:0:
170,186,151811,1,2,0:3:0:0:
70,349,151967,5,10,0:3:0:0:
268,306,152123,1,2,0:3:0:0:
464,357,152279,1,2,0:3:0:0:
464,357,152357,1,2,0:3:0:0:
464,357,152436,5,6,0:3:0:0:
442,199,152592,1,2,0:3:0:0:
362,337,152748,1,2,0:3:0:0:
512,277,152904,5,10,0:3:0:0:
329,215,153061,1,2,0:3:0:0:
501,130,153217,1,2,0:3:0:0:
348,360,153373,5,10,0:3:0:0:
262,142,153529,1,2,0:3:0:0:
160,354,153686,1,2,0:3:0:0:
130,72,153842,5,10,0:3:0:0:
329,215,153998,1,2,0:3:0:0:
484,26,154154,1,2,0:3:0:0:
484,26,154232,1,0,0:0:0:0:
484,26,154311,5,6,0:3:0:0:
467,76,154389,1,0,0:0:0:0:
431,114,154467,1,0,0:0:0:0:
381,132,154545,1,0,0:0:0:0:
329,127,154623,1,0,0:0:0:0:
284,99,154701,1,0,0:0:0:0:
256,54,154779,5,8,0:3:0:0:
212,24,154857,1,0,0:0:0:0:
160,16,154935,1,0,0:0:0:0:
110,32,155013,1,0,0:0:0:0:
72,70,155091,1,0,0:0:0:0:
54,119,155169,1,0,0:0:0:0:
60,171,155248,5,8,0:3:0:0:
104,201,155326,1,0,0:0:0:0:
153,222,155404,1,0,0:0:0:0:
205,234,155482,1,0,0:0:0:0:
258,237,155560,1,0,0:0:0:0:
311,230,155638,1,0,0:0:0:0:
361,217,155717,5,8,0:3:0:0:
323,179,155795,1,0,0:0:0:0:
273,162,155873,1,0,0:0:0:0:
221,168,155951,1,0,0:0:0:0:
177,198,156029,1,0,0:0:0:0:
151,244,156107,1,0,0:0:0:0:
147,296,156186,6,0,L|154:347,11,26.6666666666667,2|0|0|0|0|0|0|0|0|0|0|0,0:3|0:0|0:0|0:0|0:0|0:0|0:0|0:0|0:0|0:0|0:0|0:0,0:0:0:0:
243,366,156654,6,0,L|250:307,11,37.3333336893717,2|0|0|0|0|0|0|0|0|0|0|0,0:3|0:0|0:0|0:0|0:0|0:0|0:0|0:0|0:0|0:0|0:0|0:0,0:0:0:0:
306,261,157123,6,0,L|456:252,1,128,4|0,0:3|2:0,0:0:0:0:
457,251,157436,2,0,P|469:291|461:345,1,85.3333333333333,4|0,0:0|0:0,0:0:0:0:
457,348,157904,1,4,0:0:0:0:
283,244,158061,6,0,B|271:187|297:137|297:137|277:93|277:93|296:42|282:-4,1,256.000009765625,6|2,0:2|0:2,0:0:0:0:
179,176,158529,1,8,0:0:0:0:
412,95,158686,1,2,0:2:0:0:
175,37,158842,1,2,0:3:0:0:
233,330,158998,6,0,P|295:344|364:306,1,128.000004882813,6|2,0:0|0:2,0:0:0:0:
407,118,159311,1,2,0:3:0:0:
190,30,159467,6,0,P|128:16|59:54,1,128.000004882813,8|2,0:0|0:2,0:0:0:0:
30,246,159780,1,2,0:3:0:0:
238,336,159936,6,0,P|247:265|119:293,1,256.000009765625,6|2,0:0|0:2,0:0:0:0:
346,164,160404,2,0,P|436:226|464:120,1,256.000009765625,8|2,0:0|0:2,0:0:0:0:
266,44,160873,5,6,0:0:0:0:
321,281,161029,1,2,0:3:0:0:
386,83,161186,1,2,0:2:0:0:
130,209,161342,5,8,0:0:0:0:
346,164,161498,1,2,0:3:0:0:
113,67,161654,1,2,0:2:0:0:
43,339,161811,6,0,B|100:313|100:313|138:313|177:337,1,128.000004882813,6|0,0:3|0:0,0:0:0:0:
313,367,162123,1,2,0:2:0:0:
313,367,162201,1,0,0:0:0:0:
313,367,162279,2,0,P|373:354|406:287,1,128.000004882813,8|0,0:0|0:0,0:0:0:0:
315,11,162592,1,2,0:2:0:0:
383,95,162748,6,0,B|326:121|326:121|288:121|249:97,1,128.000004882813,6|0,0:0|0:0,0:0:0:0:
113,67,163060,1,2,0:2:0:0:
113,67,163138,1,0,0:0:0:0:
113,67,163216,2,0,P|53:80|20:147,1,128.000004882813,8|0,0:0|0:0,0:0:0:0:
40,351,163529,1,2,0:2:0:0:
326,316,163686,6,0,B|329:188|329:188|305:211|257:217,1,192.000007324219,6|0,0:0|0:0,0:0:0:0:
229,217,163998,1,2,0:2:0:0:
189,204,164076,1,0,0:0:0:0:
156,177,164154,2,0,P|126:169|94:249,1,128.000004882813,8|2,0:0|0:2,0:0:0:0:
207,355,164467,1,2,0:3:0:0:
254,129,164623,6,0,P|319:113|392:117,1,128.000004882813,6|2,0:0|0:2,0:0:0:0:
442,283,164936,1,2,0:2:0:0:
332,369,165092,2,0,P|268:370|206:354,1,128.000004882813,8|2,0:0|0:2,0:0:0:0:
80,206,165404,1,2,0:2:0:0:
80,206,165482,1,0,0:0:0:0:
80,206,165561,6,0,B|57:112|90:29|90:29|102:65|145:95,1,256.000009765625,6|2,0:3|0:2,0:0:0:0:
237,213,166029,2,0,P|304:199|337:138,1,128.000004882813,8|2,0:0|0:2,0:0:0:0:
192,3,166342,1,2,0:3:0:0:
118,131,166498,6,0,P|37:133|41:281,1,256.000009765625,6|2,0:0|0:2,0:0:0:0:
237,213,166967,5,8,0:0:0:0:
167,0,167123,1,2,0:3:0:0:
80,206,167279,1,2,0:2:0:0:
320,264,167436,6,0,B|340:225|338:189|320:160|320:160|332:124|331:85|331:85|371:88|398:125,1,256.000009765625,6|2,0:0|0:2,0:0:0:0:
153,160,167904,2,0,B|133:199|135:235|153:264|153:264|141:300|142:339|142:339|102:336|75:299,1,256.000009765625,8|2,0:0|0:2,0:0:0:0:
81,85,168373,5,6,0:0:0:0:
237,213,168529,1,2,0:2:0:0:
69,290,168686,1,2,0:3:0:0:
177,60,168842,5,8,0:0:0:0:
174,301,168998,1,2,0:2:0:0:
60,176,169154,1,2,0:3:0:0:
318,146,169311,6,0,P|340:205|319:275,1,128.000004882813,6|2,0:3|0:2,0:0:0:0:
202,358,169623,1,2,0:2:0:0:
187,329,169701,1,0,0:0:0:0:
174,301,169779,2,0,L|35:288,1,128.000004882813,8|0,0:0|0:0,0:0:0:0:
324,266,170092,1,0,0:0:0:0:
119,212,170248,6,0,P|97:153|118:83,1,128.000004882813,6|2,0:0|0:2,0:0:0:0:
235,0,170560,1,2,0:2:0:0:
249,28,170638,1,0,0:0:0:0:
263,57,170716,2,0,L|402:70,1,128.000004882813,8|0,0:0|0:0,0:0:0:0:
112,91,171029,1,0,0:0:0:0:
181,319,171186,5,6,0:0:0:0:
230,156,171342,1,2,0:2:0:0:
52,256,171498,1,2,0:3:0:0:
317,223,171654,5,8,0:0:0:0:
140,186,171811,1,2,0:2:0:0:
196,361,171967,1,2,0:3:0:0:
230,156,172123,6,0,L|221:23,1,128.000004882813,6|2,0:0|0:3,0:0:0:0:
481,57,172436,1,2,0:2:0:0:
476,120,172514,1,0,0:0:0:0:
472,184,172592,2,0,P|460:213|441:239,1,64.0000024414063,8|0,0:0|2:0,0:0:0:0:
306,168,172748,2,0,P|337:163|369:166,1,64.0000024414063,2|0,0:2|2:0,0:0:0:0:
375,320,172904,2,0,P|354:295|342:265,1,64.0000024414063,2|0,0:2|2:0,0:0:0:0:
389,70,173061,6,0,P|345:152|194:103,1,256.000009765625,6|2,0:3|0:2,0:0:0:0:
199,102,173451,1,0,0:0:0:0:
199,102,173529,2,0,P|135:85|77:117,1,128.000004882813,8|2,0:0|0:2,0:0:0:0:
156,264,173842,1,2,0:3:0:0:
104,349,173998,6,0,P|164:366|220:339,1,128.000004882813,6|2,0:0|0:2,0:0:0:0:
389,147,174311,1,2,0:3:0:0:
304,84,174467,2,0,B|282:143|282:143|302:207,1,128.000004882813,8|2,0:0|0:2,0:0:0:0:
473,355,174779,1,0,0:0:0:0:
332,322,174936,6,0,B|267:332|229:375|229:375|171:341|154:257,1,256.000009765625,6|2,0:0|0:2,0:0:0:0:
157,237,175326,1,0,0:0:0:0:
157,237,175404,2,0,L|171:106,1,128.000004882813,8|2,0:0|0:2,0:0:0:0:
403,190,175717,1,2,0:3:0:0:
389,62,175873,6,0,L|402:189,1,128.000004882813,6|2,0:0|0:2,0:0:0:0:
288,384,176186,1,0,0:0:0:0:
92,289,176342,2,0,B|212:272|212:272|267:292|267:292|360:278,1,256.000009765625,8|2,0:0|0:2,0:0:0:0:
280,201,176811,5,6,0:3:0:0:
198,359,176967,1,2,0:2:0:0:
365,276,177123,1,2,0:3:0:0:
120,193,177279,2,0,P|53:200|36:373,1,256.000009765625,8|2,0:0|0:2,0:0:0:0:
194,243,177748,6,0,P|208:181|181:124,1,128.000004882813,6|2,0:0|0:2,0:0:0:0:
33,89,178061,1,0,0:0:0:0:
92,289,178217,2,0,B|255:273|255:273|295:308|364:289,1,256.000009765625,8|2,0:0|0:2,0:0:0:0:
440,158,178686,6,0,P|458:86|303:46,1,256.000009765625,6|2,0:0|0:2,0:0:0:0:
200,246,179154,2,0,P|90:287|35:183,1,256.000009765625,8|2,0:0|0:2,0:0:0:0:
324,102,179623,5,6,0:0:0:0:
122,201,179779,1,2,0:2:0:0:
192,10,179936,1,2,0:3:0:0:
263,320,180092,6,0,B|320:333|320:333|361:314|361:314|404:340|404:340|452:310|516:323,1,256.000009765625,8|2,0:0|0:2,0:0:0:0:
483,102,180561,6,0,B|428:139|416:207|416:207|400:140|342:98,1,256.000009765625,6|2,0:3|0:2,0:0:0:0:
231,59,181029,2,0,B|158:63|189:107|91:94,1,128.000004882813,8|2,0:0|0:2,0:0:0:0:
0,18,181342,1,2,0:3:0:0:
33,229,181498,6,0,B|203:210|114:295|281:275,1,256.000009765625,6|2,0:0|0:2,0:0:0:0:
460,325,181967,2,0,B|290:306|379:391|212:371,1,256.000009765625,8|2,0:0|0:2,0:0:0:0:
79,323,182436,5,6,0:0:0:0:
276,275,182592,1,2,0:3:0:0:
144,188,182748,1,2,0:2:0:0:
361,111,182904,6,0,B|390:53|339:-7|339:-7|259:19|254:103,1,256.000009765625,8|2,0:0|0:2,0:0:0:0:
336,206,183373,6,0,B|407:218|443:167|443:167|503:211|502:293,1,256.000009765625,6|2,0:0|0:2,0:0:0:0:
263,369,183842,6,0,B|212:358|190:318|190:318|150:352|93:356|93:356|33:329,1,256.000009765625,8|2,0:0|0:2,0:0:0:0:
142,231,184311,6,0,P|207:216|264:247,1,128.000004882813,6|2,0:3|0:2,0:2:0:0:
384,365,184623,1,2,0:2:0:0:
384,365,184701,1,0,0:0:0:0:
384,365,184779,2,0,L|514:347,1,128.000004882813,8|2,0:0|0:2,0:0:0:0:
296,149,185092,1,2,0:3:0:0:
190,315,185248,6,2,P|125:330|68:299,1,128.000004882813,6|2,0:0|0:3,0:2:0:0:
73,127,185561,1,2,0:2:0:0:
85,97,185639,1,0,0:0:0:0:
103,71,185717,2,2,P|168:56|225:87,1,128.000004882813,8|2,0:0|0:3,0:2:0:0:
142,231,186029,1,2,0:2:0:0:
347,61,186186,6,0,L|365:319,1,256.000009765625,6|2,0:0|0:2,0:0:0:0:
359,36,186654,5,8,0:0:0:0:
126,198,186811,1,2,0:3:0:0:
161,0,186967,1,2,0:3:0:0:
325,234,187123,6,0,B|334:364|334:364|296:304,1,192.000007324219,6|0,0:0|2:0,0:0:0:0:
265,145,187436,2,0,L|399:126,1,128.000004882813,8|0,0:0|0:0,0:0:0:0:
67,10,187748,5,2,0:2:0:0:
112,131,187904,1,2,0:2:0:0:
193,32,188061,1,6,0:2:0:0:
256,192,191811,5,4,0:3:0:0:
256,192,199311,12,0,204779,2:0:0:0:
473,75,204936,6,0,L|494:23,1,42.6666666666667,2|0,0:0|0:0,0:0:0:0:
428,49,205092,2,0,L|421:2,1,42.6666666666667,2|0,0:0|0:0,0:0:0:0:
378,42,205248,2,0,L|342:6,1,42.6666666666667,2|0,0:0|0:0,0:0:0:0:
329,55,205404,2,0,L|286:37,1,42.6666666666667,2|0,0:0|0:0,0:0:0:0:
288,86,205561,2,0,L|246:95,1,42.6666666666667,2|0,0:0|0:0,0:0:0:0:
262,129,205717,2,0,L|261:183,1,42.6666666666667,2|0,0:0|0:0,0:0:0:0:
250,129,205873,6,0,L|250:183,1,42.6666666666667,2|0,0:0|0:0,0:0:0:0:
224,86,206029,2,0,L|265:95,1,42.6666666666667,2|0,0:0|0:0,0:0:0:0:
183,55,206186,2,0,L|225:37,1,42.6666666666667,2|0,0:0|0:0,0:0:0:0:
134,42,206342,2,0,L|169:6,1,42.6666666666667,2|0,0:0|0:0,0:0:0:0:
84,49,206498,2,0,L|90:2,1,42.6666666666667,2|0,0:0|0:0,0:0:0:0:
40,75,206654,2,0,L|19:23,1,42.6666666666667,2|0,0:0|0:0,0:0:0:0:
82,355,207748,6,0,B|171:373|222:298|222:298|250:343|314:360,1,266.666666666667,2|0,0:0|0:0,0:0:0:0:
414,206,208217,6,0,P|363:147|368:278,1,320.000012207032,8|0,0:1|0:0,0:0:0:0:
497,247,208686,6,0,L|504:190,1,32.0000012207032,6|0,0:2|2:0,0:0:0:0:
364,312,208842,2,0,L|370:363,1,32.0000012207032,2|0,0:3|2:0,0:0:0:0:
320,184,208998,2,0,L|327:127,1,32.0000012207032,2|0,0:3|2:0,0:0:0:0:
183,273,209154,6,0,L|176:330,1,32.0000012207032,10|0,0:3|2:0,0:0:0:0:
139,145,209311,2,0,L|133:94,1,32.0000012207032,2|0,0:3|2:0,0:0:0:0:
6,210,209467,2,0,L|-1:267,1,32.0000012207032,2|0,0:3|2:0,0:0:0:0:
140,332,209623,6,0,L|185:325,1,32.0000012207032,4|0,0:0|2:0,0:0:0:0:
299,291,209779,2,0,L|270:255,1,32.0000012207032,2|0,0:3|2:0,0:0:0:0:
184,174,209936,2,0,L|167:216,1,32.0000012207032,2|0,0:3|2:0,0:0:0:0:
320,184,210092,6,0,L|336:141,1,32.0000012207032,10|0,0:3|2:0,0:0:0:0:
363,25,210248,2,0,L|318:32,1,32.0000012207032,2|0,0:3|2:0,0:0:0:0:
205,66,210405,2,0,L|233:101,1,32.0000012207032,2|0,0:3|2:0,0:0:0:0:
456,96,210561,6,0,L|512:82,1,32.0000012207032,4|0,0:0|2:0,0:0:0:0:
353,52,210717,2,0,L|312:10,1,32.0000012207032,2|0,0:3|2:0,0:0:0:0:
366,163,210873,2,0,L|350:218,1,32.0000012207032,2|0,0:3|2:0,0:0:0:0:
361,334,211029,6,0,L|370:304,1,32.0000012207032,10|0,0:3|2:0,0:0:0:0:
491,229,211185,2,0,L|460:237,1,32.0000012207032,2|0,0:3|2:0,0:0:0:0:
334,169,211342,2,0,L|357:193,1,32.0000012207032,2|0,0:3|2:0,0:0:0:0:
184,218,211498,6,0,L|205:164,1,32.0000012207032,4|0,0:0|2:0,0:0:0:0:
259,335,211654,2,0,L|294:380,1,32.0000012207032,2|0,0:3|2:0,0:0:0:0:
119,341,211811,2,0,L|61:349,1,32.0000012207032,2|0,0:3|2:0,0:0:0:0:
160,93,211967,6,0,L|217:85,1,32.0000012207032,10|0,0:3|2:0,0:0:0:0:
96,216,212123,2,0,L|74:269,1,32.0000012207032,2|0,0:3|2:0,0:0:0:0:
20,98,212280,2,0,L|-15:52,1,32.0000012207032,2|0,0:3|2:0,0:0:0:0:
259,25,212436,6,0,L|309:15,1,32.0000012207032,4|0,0:0|2:0,0:0:0:0:
311,108,212592,2,0,L|294:156,1,32.0000012207032,2|0,0:3|2:0,0:0:0:0:
212,112,212748,2,0,L|178:73,1,32.0000012207032,2|0,0:3|2:0,0:0:0:0:
401,21,212904,6,0,L|447:10,1,32.0000012207032,10|0,0:3|2:0,0:0:0:0:
461,136,213061,2,0,L|446:181,1,32.0000012207032,2|0,0:3|2:0,0:0:0:0:
332,131,213217,2,0,L|299:96,1,32.0000012207032,2|0,0:3|2:0,0:0:0:0:
90,116,213373,6,0,L|44:105,1,32.0000012207032,4|0,0:0|2:0,0:0:0:0:
15,265,213529,2,0,L|28:310,1,32.0000012207032,2|0,0:3|2:0,0:0:0:0:
182,254,213686,2,0,L|214:219,1,32.0000012207032,2|0,0:3|2:0,0:0:0:0:
396,161,213842,6,0,L|442:150,1,32.0000012207032,10|0,0:3|2:0,0:0:0:0:
494,334,213998,2,0,L|480:379,1,32.0000012207032,2|0,0:3|2:0,0:0:0:0:
294,332,214155,2,0,L|261:297,1,32.0000012207032,2|0,0:3|2:0,0:0:0:0:
192,166,214311,6,0,B|162:89|199:4|199:4|227:50,1,213.333333333333,4|2,0:0|0:3,0:0:0:0:
399,105,214779,2,0,B|429:182|392:267|392:267|364:221,1,213.333333333333,10|2,0:3|0:3,0:0:0:0:
322,34,215248,6,0,P|369:6|434:6,1,106.666666666667,4|2,0:0|0:2,0:0:0:0:
419,2,215482,1,0,0:0:0:0:
419,2,215561,1,2,0:3:0:0:
494,334,215717,2,0,B|410:335|371:273|371:273|337:285|306:334,1,213.333333333333,10|2,0:3|0:3,0:0:0:0:
313,332,216107,1,0,0:0:0:0:
313,332,216186,6,0,L|309:381,1,32.0000012207032,6|0,0:2|2:0,0:0:0:0:
206,330,216342,2,0,L|208:298,1,32.0000012207032,2|0,0:3|2:0,0:0:0:0:
105,266,216498,2,0,L|102:315,1,32.0000012207032,2|0,0:3|2:0,0:0:0:0:
111,131,216654,6,0,L|108:99,1,32.0000012207032,10|0,0:3|2:0,0:0:0:0:
213,67,216810,2,0,L|216:116,1,32.0000012207032,2|0,0:3|2:0,0:0:0:0:
318,65,216966,2,0,L|316:33,1,32.0000012207032,2|0,0:3|2:0,0:0:0:0:
476,156,217123,6,0,L|529:163,1,32.0000012207032,4|0,0:0|3:0,0:0:0:0:
460,254,217279,2,0,L|440:279,1,32.0000012207032,2|0,0:3|3:0,0:0:0:0:
383,192,217436,2,0,L|370:162,1,32.0000012207032,2|0,0:3|3:0,0:0:0:0:
213,67,217592,6,0,L|196:101,1,32.0000012207032,10|0,0:3|2:0,0:0:0:0:
155,238,217748,2,0,L|134:206,1,32.0000012207032,2|0,0:3|2:0,0:0:0:0:
36,102,217905,2,0,L|73:99,1,32.0000012207032,2|0,0:3|2:0,0:0:0:0:
301,146,218061,6,0,L|347:138,1,32.0000012207032,4|0,0:0|2:0,0:0:0:0:
441,118,218217,2,0,L|487:110,1,32.0000012207032,2|0,0:3|2:0,0:0:0:0:
361,264,218373,2,0,L|315:256,1,32.0000012207032,2|0,0:3|2:0,0:0:0:0:
362,359,218529,6,0,L|316:351,1,32.0000012207032,10|0,0:3|2:0,0:0:0:0:
460,254,218686,2,0,L|506:246,1,32.0000012207032,2|0,0:3|2:0,0:0:0:0:
251,301,218842,2,0,L|205:293,1,32.0000012207032,2|0,0:3|2:0,0:0:0:0:
461,354,218998,6,0,L|507:346,1,32.0000012207032,4|0,0:0|2:0,0:0:0:0:
361,264,219154,2,0,L|315:256,1,32.0000012207032,2|0,0:3|2:0,0:0:0:0:
186,384,219311,2,0,L|232:376,1,32.0000012207032,2|0,0:3|2:0,0:0:0:0:
361,264,219467,6,0,L|407:256,1,32.0000012207032,10|0,0:3|2:0,0:0:0:0:
243,247,219623,2,0,L|226:290,1,32.0000012207032,2|0,0:3|2:0,0:0:0:0:
316,154,219779,2,0,L|286:118,1,32.0000012207032,2|0,0:3|2:0,0:0:0:0:
173,30,219936,6,0,B|132:22|102:33|102:33|77:64,1,106.666666666667,4|2,0:0|0:3,0:0:0:0:
69,190,220248,1,2,0:2:0:0:
69,190,220326,1,0,0:0:0:0:
69,190,220404,2,0,L|73:305,1,106.666666666667,10|0,0:3|0:0,0:0:0:0:
252,370,220717,1,0,0:0:0:0:
362,235,220873,6,0,B|403:227|433:238|433:238|458:269,1,106.666666666667,4|2,0:0|0:3,0:0:0:0:
252,370,221186,1,2,0:2:0:0:
252,370,221264,1,0,0:0:0:0:
252,370,221342,2,0,L|256:255,1,106.666666666667,10|0,0:3|0:0,0:0:0:0:
298,43,221654,1,0,0:0:0:0:
255,286,221811,5,4,0:0:0:0:
0,177,221967,1,2,0:3:0:0:
190,114,222123,1,2,0:3:0:0:
101,348,222279,5,10,0:3:0:0:
95,102,222436,1,2,0:3:0:0:
91,326,222592,1,2,0:3:0:0:
78,85,222748,5,4,0:0:0:0:
14,277,222904,1,2,0:3:0:0:
266,181,223061,1,2,0:3:0:0:
462,319,223217,6,0,P|375:352|400:269,1,213.333333333333,10|2,0:3|0:2,0:0:0:0:
512,175,223686,6,0,B|537:125|540:77|508:32|508:32|501:87|441:133,1,256.000009765625,6|2,0:2|0:2,0:0:0:0:
202,86,224154,1,8,0:0:0:0:
389,19,224311,1,2,0:3:0:0:
351,253,224467,1,0,0:2:0:0:
186,60,224623,6,0,P|149:114|149:199,1,128.000004882813,6|2,0:0|0:2,0:0:0:0:
212,364,224936,1,0,0:0:0:0:
79,267,225092,6,0,P|42:213|42:128,1,128.000004882813,8|2,0:0|0:2,0:0:0:0:
280,18,225404,1,0,0:0:0:0:
445,157,225561,6,0,P|429:230|287:186,1,256.000009765625,6|2,0:0|0:2,0:0:0:0:
7,317,226029,2,0,P|106:257|164:357,1,256.000009765625,8|2,0:0|0:2,0:0:0:0:
27,145,226498,5,6,0:0:0:0:
85,337,226654,1,2,0:3:0:0:
198,198,226811,1,0,0:2:0:0:
0,230,226967,5,8,0:0:0:0:
192,299,227123,1,2,0:3:0:0:
118,101,227279,1,2,0:2:0:0:
85,337,227436,6,0,L|217:361,1,128.000004882813,6|0,0:3|0:0,0:0:0:0:
410,324,227748,1,2,0:2:0:0:
410,324,227826,1,0,0:0:0:0:
410,324,227904,2,0,B|435:276|435:276|422:195,1,128.000004882813,8|0,0:0|0:0,0:0:0:0:
347,68,228217,1,2,0:2:0:0:
278,250,228373,6,0,L|146:274,1,128.000004882813,6|0,0:0|0:0,0:0:0:0:
14,195,228685,1,2,0:2:0:0:
14,195,228763,1,0,0:0:0:0:
14,195,228841,2,0,B|-11:147|-11:147|2:66,1,128.000004882813,8|0,0:0|0:0,0:0:0:0:
248,12,229154,1,2,0:2:0:0:
469,189,229311,6,0,B|406:205|358:173|358:173|318:177|278:214,1,192.000007324219,6|0,0:0|0:0,0:0:0:0:
265,239,229623,1,2,0:2:0:0:
255,280,229701,1,2,0:2:0:0:
258,322,229779,2,0,P|314:354|385:349,1,128.000004882813,8|2,0:0|0:2,0:0:0:0:
469,189,230092,1,0,0:0:0:0:
311,38,230248,6,0,L|170:49,1,128.000004882813,6|0,0:0|0:0,0:0:0:0:
75,147,230561,1,2,0:2:0:0:
265,239,230717,2,0,L|406:250,1,128.000004882813,8|0,0:0|0:0,0:0:0:0:
444,27,231029,1,2,0:2:0:0:
444,27,231107,1,0,0:0:0:0:
444,27,231186,6,0,P|391:-27|344:100,1,256.000009765625,6|2,0:3|0:2,0:0:0:0:
512,218,231654,1,8,0:0:0:0:
444,27,231811,1,2,0:2:0:0:
365,265,231967,1,2,0:3:0:0:
238,105,232123,6,0,B|178:89|120:128|120:128|122:52|204:20,1,256.000009765625,6|2,0:0|0:2,0:0:0:0:
373,126,232592,5,8,0:0:0:0:
275,334,232748,1,2,0:3:0:0:
196,198,232904,1,2,0:2:0:0:
380,286,233061,6,0,B|414:296|414:296|458:287|458:287|504:302|504:302|529:259|496:210|433:213,1,256.000009765625,6|2,0:0|0:2,0:0:0:0:
189,300,233529,2,0,B|155:290|155:290|111:299|111:299|65:284|65:284|40:327|73:376|136:373,1,256.000009765625,8|2,0:0|0:2,0:0:0:0:
380,286,233998,5,6,0:0:0:0:
196,198,234154,1,2,0:3:0:0:
271,354,234311,1,2,0:2:0:0:
305,114,234467,5,8,0:0:0:0:
207,289,234623,1,2,0:3:0:0:
412,260,234779,1,2,0:2:0:0:
216,380,234936,6,0,P|150:362|120:290,1,128.000004882813,6|0,0:3|0:0,0:0:0:0:
164,100,235248,1,2,0:2:0:0:
164,100,235326,1,0,0:0:0:0:
164,100,235404,2,0,P|130:47|69:33,1,128.000004882813,8|0,0:0|0:0,0:0:0:0:
328,17,235717,1,2,0:2:0:0:
417,220,235873,6,0,P|483:202|513:130,1,128.000004882813,6|0,0:0|0:0,0:0:0:0:
241,41,236186,1,2,0:2:0:0:
241,41,236264,1,0,0:0:0:0:
241,41,236342,2,0,P|274:93|335:107,1,128.000004882813,8|0,0:0|0:0,0:0:0:0:
509,24,236654,1,2,0:2:0:0:
172,134,236811,5,6,0:0:0:0:
280,277,236967,1,2,0:3:0:0:
335,107,237123,1,2,0:2:0:0:
280,308,237279,5,8,0:0:0:0:
409,201,237436,1,2,0:3:0:0:
438,363,237592,1,2,0:2:0:0:
90,341,237748,6,0,L|82:201,1,128.000004882813,6|2,0:0|0:3,0:0:0:0:
335,107,238061,1,2,0:2:0:0:
331,170,238139,1,0,0:0:0:0:
327,234,238217,2,0,L|322:312,1,64.0000024414063,8|0,0:0|2:0,0:0:0:0:
211,344,238373,2,0,L|206:280,1,64.0000024414063,2|0,0:2|2:0,0:0:0:0:
361,223,238529,2,0,L|356:301,1,64.0000024414063,2|0,0:2|2:0,0:0:0:0:
115,250,238686,6,0,B|102:111|102:111|145:64|217:88,1,256.000009765625,6|2,0:2|0:2,0:0:0:0:
231,110,239076,1,0,0:0:0:0:
231,110,239154,2,0,P|190:157|127:151,1,128.000004882813,8|2,0:0|0:2,0:0:0:0:
37,14,239467,1,2,0:3:0:0:
6,229,239623,6,0,P|67:224|107:271,1,128.000004882813,6|2,0:0|0:2,0:0:0:0:
40,384,239936,1,2,0:3:0:0:
320,257,240092,2,0,P|258:261|218:214,1,128.000004882813,8|2,0:0|0:2,0:0:0:0:
248,25,240404,1,2,0:3:0:0:
452,81,240561,6,0,L|468:347,1,256.000009765625,6|2,0:0|0:2,0:0:0:0:
467,362,240951,1,0,0:0:0:0:
467,362,241029,2,0,P|406:382|329:366,1,128.000004882813,8|2,0:0|0:2,0:0:0:0:
206,214,241342,1,2,0:3:0:0:
153,97,241498,6,0,P|215:87|276:107,1,128.000004882813,6|2,0:0|0:2,0:0:0:0:
398,257,241811,1,2,0:3:0:0:
227,366,241967,2,0,B|173:367|131:317|131:317|82:325|52:358|52:358|-2:342,1,256.000009765625,8|2,0:0|0:2,0:0:0:0:
25,161,242436,5,6,0:3:0:0:
130,317,242592,1,2,0:2:0:0:
192,98,242748,1,2,0:3:0:0:
62,252,242904,2,0,P|158:227|215:355,1,256.000009765625,8|2,0:0|0:2,0:0:0:0:
42,236,243373,6,0,P|32:171|49:104,1,128.000004882813,6|2,0:0|0:2,0:0:0:0:
181,18,243686,1,2,0:3:0:0:
286,212,243842,2,0,P|359:243|442:92,1,256.000009765625,8|2,0:0|0:2,0:0:0:0:
488,371,244311,6,0,B|437:318|361:325|361:325|329:363|244:363,1,256.000009765625,6|2,0:0|0:2,0:0:0:0:
47,255,244779,2,0,B|98:308|174:301|174:301|206:263|291:263,1,256.000009765625,8|2,0:0|0:2,0:0:0:0:
488,371,245248,5,6,0:0:0:0:
302,250,245404,1,2,0:3:0:0:
454,35,245561,1,2,0:2:0:0:
297,350,245717,6,0,B|236:348|212:296|212:296|190:332|147:341|147:341|118:323|53:339,1,256.000009765625,8|2,0:0|0:2,0:0:0:0:
64,347,246186,6,0,P|132:366|198:225,1,256.000009765625,6|0,0:3|0:0,0:0:0:0:
7,115,246654,1,8,0:0:0:0:
118,273,246811,1,2,0:3:0:0:
300,212,246967,1,2,0:2:0:0:
230,53,247123,6,0,P|138:126|198:227,1,256.000009765625,6|0,0:0|0:2,0:0:0:0:
339,52,247592,1,8,0:0:0:0:
48,104,247748,1,2,0:3:0:0:
289,191,247904,1,2,0:2:0:0:
153,1,248061,6,0,B|123:66|163:116|163:116|135:180|153:253,1,256.000009765625,6|2,0:0|0:2,0:0:0:0:
263,339,248529,6,0,B|317:341|352:310|361:272|361:272|408:332|507:312,1,256.000009765625,8|2,0:0|0:2,0:0:0:0:
512,106,248998,6,0,B|484:75|471:31|471:31|439:109|453:201,1,256.000009765625,6|2,0:0|0:2,0:0:0:0:
353,332,249467,6,0,P|291:255|175:326,1,256.000009765625,8|2,0:0|0:2,0:0:0:0:
55,370,249936,6,0,P|-8:359|-48:308,1,128.000004882813,6|0,0:3|0:0,0:0:0:0:
60,98,250248,1,2,0:2:0:0:
60,98,250326,1,0,0:0:0:0:
60,98,250404,2,0,L|65:254,1,128.000004882813,8|0,0:0|0:0,0:0:0:0:
69,363,250717,1,2,0:2:0:0:
282,313,250873,6,0,L|286:185,1,128.000004882813,6|0,0:0|0:0,0:0:0:0:
410,46,251186,1,2,0:2:0:0:
410,46,251264,1,0,0:0:0:0:
410,46,251342,2,0,P|473:57|513:108,1,128.000004882813,8|0,0:0|0:0,0:0:0:0:
461,342,251654,1,2,0:2:0:0:
318,218,251811,6,0,B|254:204|254:204|190:268|70:250,1,256.000009765625,6|0,0:0|0:0,0:0:0:0:
51,241,252201,1,0,0:0:0:0:
51,241,252279,1,8,0:0:0:0:
128,76,252436,1,2,0:3:0:0:
195,344,252592,1,2,0:2:0:0:
338,198,252748,6,0,B|469:187|469:187|424:238,1,192.000007324219,6|0,0:0|2:0,0:0:0:0:
262,328,253061,2,0,B|173:312|173:312|199:350,1,128.000004882813,8|0,0:0|0:0,0:0:0:0:
461,342,253373,5,2,0:2:0:0:
405,94,253529,1,2,0:2:0:0:
342,380,253686,5,4,2:3:0:0:
