osu file format v11

[General]
AudioFilename: Elements - Lindsey Stirling.mp3
AudioLeadIn: 0
PreviewTime: 96140
Countdown: 0
SampleSet: Soft
StackLeniency: 0.7
Mode: 0
LetterboxInBreaks: 0
EpilepsyWarning: 1

[Editor]
DistanceSpacing: 1
BeatDivisor: 4
GridSize: 4

[Metadata]
Title:Elements
TitleUnicode:Elements
Artist:Lindsey Stirling
ArtistUnicode:Lindsey Stirling
Creator:Katty Pie
Version:Water
Source:
Tags:violin dubstep Lizellota KersiTyan
BeatmapID:182255
BeatmapSetID:59965

[Difficulty]
HPDrainRate:6
CircleSize:4
OverallDifficulty:6
ApproachRate:7
SliderMultiplier:1.6
SliderTickRate:1

[Events]
//Background and Video events
0,0,"hhh.jpg"
//Break Periods
2,115250,122721
2,154678,162150
//Storyboard Layer 0 (Background)
//Storyboard Layer 1 (Fail)
//Storyboard Layer 2 (Pass)
//Storyboard Layer 3 (Foreground)
//Storyboard Sound Samples
//Background Colour Transformations
3,100,163,162,255

[TimingPoints]
193,428.571428571429,4,2,1,40,1,0
4478,-133.333333333333,4,2,0,30,0,0
6621,-200,4,2,0,30,0,0
7050,-200,4,2,1,35,0,0
7478,-200,4,2,1,30,0,0
7907,-200,4,2,1,25,0,0
8335,-200,4,2,1,20,0,0
8764,-200,4,2,2,15,0,0
13907,-100,4,2,1,40,0,0
27621,-100,4,2,2,40,0,0
27728,-100,4,2,1,40,0,0
34478,-100,4,2,2,40,0,0
34585,-100,4,2,1,40,0,0
37907,-100,4,2,2,40,0,0
38121,-100,4,2,1,40,0,0
41335,-100,4,2,2,50,0,0
41443,-100,4,2,1,40,0,0
48193,-100,4,2,2,50,0,0
48300,-100,4,2,1,40,0,0
54621,-133.333333333333,4,2,1,40,0,0
55050,-133.333333333333,4,2,1,15,0,0
58050,-100,4,2,1,5,0,0
58478,-100,4,2,2,30,0,0
58585,-100,4,2,0,30,0,0
60193,-100,4,2,2,30,0,0
60300,-100,4,2,0,30,0,0
61907,-100,4,2,1,40,0,0
69193,-100,4,2,1,35,0,0
69621,-100,4,2,1,30,0,0
70050,-100,4,2,1,25,0,0
70478,-100,4,2,1,40,0,1
74764,-100,4,2,0,30,0,1
75621,-100,4,2,1,40,0,1
81621,-100,4,2,0,30,0,1
82478,-100,4,2,1,40,0,1
88478,-100,4,2,0,30,0,1
89335,-100,4,2,1,40,0,1
95335,-100,4,2,0,30,0,1
96193,-100,4,2,1,40,0,0
97907,-100,4,2,2,40,0,1
98014,-100,4,2,1,40,0,1
104764,-100,4,2,2,40,0,1
104871,-100,4,2,1,40,0,1
108193,-100,4,2,2,40,0,1
108300,-100,4,2,1,40,0,1
111621,-100,4,2,1,40,0,0
115050,-100,4,2,2,30,0,0
115157,-100,4,2,1,40,0,0
124907,-100,4,2,1,30,0,0
125335,-100,4,2,2,40,0,0
125443,-100,4,2,1,40,0,0
132193,-100,4,2,2,40,0,0
132300,-100,4,2,1,40,0,0
137764,-100,4,2,1,35,0,0
138193,-100,4,2,1,30,0,0
138621,-100,4,2,1,25,0,0
139050,-100,4,2,2,40,0,0
139157,-100,4,2,1,40,0,0
151478,-100,4,2,1,35,0,0
151907,-100,4,2,1,30,0,0
152335,-100,4,2,1,25,0,0
163050,-100,4,2,1,40,0,0
167764,-100,4,2,1,10,0,0
168193,-100,4,2,2,40,0,0
176764,-100,4,2,1,40,0,0
187478,-100,4,2,1,35,0,0
187907,-100,4,2,1,30,0,0
188335,-100,4,2,1,25,0,0
188764,-100,4,2,1,40,0,1
193050,-100,4,2,0,30,0,1
193907,-100,4,2,1,40,0,1
199907,-100,4,2,0,30,0,1
200764,-100,4,2,1,40,0,1
206764,-100,4,2,0,30,0,1
207621,-100,4,2,1,40,0,1
213621,-100,4,2,0,30,0,1
214478,-100,4,2,1,40,0,0
216193,-100,4,2,2,40,0,1
216300,-100,4,2,1,40,0,1
223050,-100,4,2,2,40,0,1
223157,-100,4,2,1,40,0,1
226478,-100,4,2,2,40,0,1
226585,-100,4,2,1,40,0,1
229907,-100,4,2,1,5,0,0

[Colours]
Combo1 : 33,221,254
Combo2 : 255,150,0
Combo3 : 134,192,24
Combo4 : 167,108,1
SliderBorder : 255,255,255

[HitObjects]
400,256,4478,2,0,B|400:328|328:340,2,120.000004577637,0|2|0,0:0|0:0|0:0,0:0:0
400,136,5764,2,0,B|400:64|328:52,1,120.000004577637,2|2,0:0|0:0,0:0:0
288,96,6407,1,0,0:0:0
248,56,6621,6,0,B|124:56|72:180|132:308|252:308,1,400,2|2,0:0|0:0,0:0:0
256,192,10478,12,0,13478,0:0:0
256,336,13907,5,2,0:0:0
184,192,14335,1,0,0:0:0
256,48,14764,1,8,0:0:0
480,192,15621,1,2,0:0:0
320,188,16050,1,0,0:0:0
256,140,16264,1,2,0:0:0
196,192,16478,1,8,0:0:0
332,280,16907,2,0,B|292:316|220:316|184:280,1,160,0|2,0:0|0:0,0:0:0
92,152,17764,5,0,0:0:0
104,72,17978,1,0,0:0:0
184,68,18193,1,8,0:0:0
256,212,18621,1,0,0:0:0
420,152,19050,1,2,0:0:0
408,72,19264,1,0,0:0:0
328,68,19478,1,0,0:0:0
336,228,19907,1,8,0:0:0
256,212,20121,1,0,0:0:0
176,228,20335,1,0,0:0:0
112,80,20764,5,2,0:0:0
272,72,21193,1,0,0:0:0
344,108,21407,1,0,0:0:0
288,168,21621,1,8,0:0:0
288,328,22050,1,0,0:0:0
160,236,22478,1,2,0:0:0
156,76,22907,1,0,0:0:0
76,84,23121,1,2,0:0:0
40,156,23335,1,8,0:0:0
80,224,23550,1,0,0:0:0
160,236,23764,2,0,B|244:236,1,80
308,192,24193,6,0,B|276:112|306:35,1,160,2|0,0:0|0:0,0:0:0
388,40,24835,1,0,0:0:0
432,108,25050,1,8,0:0:0
432,268,25478,1,0,0:0:0
308,192,25907,1,2,0:0:0
148,192,26335,1,0,0:0:0
172,116,26550,1,2,0:0:0
112,64,26764,1,8,0:0:0
48,112,26978,1,0,0:0:0
68,192,27193,1,0,0:0:0
204,344,27621,6,0,B|208:292|244:272|244:272|272:288|312:288|312:272,1,160,2|0,0:0|0:0,0:0:0
312,192,28264,1,0,0:0:0
312,112,28478,2,0,B|312:96|352:96|380:112|380:112|416:92|420:40,1,160,8|0,0:0|0:0,0:0:0
340,28,29121,1,0,0:0:0
264,48,29335,1,2,0:0:0
188,28,29550,1,0,0:0:0
108,44,29764,1,0,0:0:0
108,124,29978,1,2,0:0:0
184,152,30193,2,0,B|256:212|329:150,1,160,8|0,0:0|0:0,0:0:0
420,248,31050,6,0,B|444:284|422:324,1,80,2|0,0:0|0:0,0:0:0
352,288,31478,2,0,B|328:252|349:211,1,80,0|0,0:0|0:0,0:0:0
272,192,31907,2,0,B|228:192|200:168|200:168|168:192|121:191,2,160,8|0|2,0:0|0:0|0:0,0:0:0
352,192,32978,1,0,0:0:0
312,264,33193,1,0,0:0:0
392,264,33407,2,0,B|392:308,2,40,2|0|8,0:0|0:0|0:0,0:0:0
352,192,33835,1,0,0:0:0
408,132,34050,2,0,B|414:111|383:78|351:82|322:79|290:111|298:135,2,160,0|2|0,0:0|0:0|0:0,0:0:0
352,192,35121,5,0,0:0:0
408,252,35335,2,0,B|414:272|383:305|351:301|322:304|290:272|298:248,1,160,8|0,0:0|0:0,0:0:0
220,260,35978,1,0,0:0:0
152,220,36193,2,0,B|112:216|99:168|99:168|112:116|152:112,1,160,2|0,0:0|0:0,0:0:0
220,72,36835,2,0,B|220:32,2,40,2|0|8,0:0|0:0|0:0,0:0:0
380,96,37478,1,0,0:0:0
428,248,37907,6,0,P|376:308|288:288,1,160,2|0,0:0|0:0,0:0:0
256,232,38550,1,0,0:0:0
209,299,38764,2,0,P|136:308|84:248,1,160,8|0,0:0|0:0,0:0:0
136,180,39407,1,0,0:0:0
188,120,39621,2,2,B|144:76,2,40,2|0|2,0:0|0:0|0:0,0:0:0
256,80,40050,1,0,0:0:0
324,120,40264,2,2,B|368:76,2,40,2|0|8,0:0|0:0|0:0,0:0:0
376,180,40693,1,0,0:0:0
344,252,40907,2,0,B|340:296|299:314,1,80,0|0,0:0|0:0,0:0:0
256,248,41335,6,0,B|204:264|181:234|152:196|106:214,1,160,2|0,0:0|0:0,0:0:0
80,140,41978,1,0,0:0:0
108,64,42193,2,0,B|160:80|182:50|212:12|257:30,1,160,8|0,0:0|0:0,0:0:0
256,112,42835,1,0,0:0:0
220,184,43050,2,0,B|256:208|296:184,1,80,2|0,0:0|0:0,0:0:0
364,148,43478,1,0,0:0:0
400,220,43693,1,2,0:0:0
336,268,43907,2,0,P|256:292|164:252,1,160,8|0,0:0|0:0,0:0:0
48,192,44764,5,2,0:0:0
60,112,44978,1,0,0:0:0
136,84,45192,1,0,0:0:0
192,140,45407,2,0,B|192:180,2,40,0|0|8,0:0|0:0|0:0,0:0:0
244,80,45835,1,0,0:0:0
308,128,46050,2,0,B|340:80|412:68|468:108,2,160,0|2|0,0:0|0:0|0:0,0:0:0
232,152,47121,1,2,0:0:0
160,184,47335,1,8,0:0:0
164,264,47550,1,0,0:0:0
220,320,47764,6,0,B|256:368|348:353|368:300,2,160,0|2|0,0:0|0:0|0:0,0:0:0
232,280,48728,1,0,0:0:0
244,240,48835,1,2,0:0:0
256,200,48942,1,0,0:0:0
268,160,49050,2,0,B|232:112|140:127|120:180,2,160,8|0|2,0:0|0:0|0:0,0:0:0
332,116,50121,2,0,B|380:128|403:93,1,80
332,268,50550,2,0,B|380:256|403:291,1,80,2|8,0:0|0:0,0:0:0
496,192,50978,1,0,0:0:0
496,192,51192,2,0,B|336:192,1,160,0|2,0:0|0:0,0:0:0
204,284,52050,5,0,0:0:0
72,192,52478,1,8,0:0:0
188,80,52907,1,0,0:0:0
256,40,53121,1,0,0:0:0
320,84,53335,2,0,B|356:52,2,40,2|0|2,0:0|0:0|0:0,0:0:0
296,160,53764,1,2,0:0:0
216,160,53978,1,2,0:0:0
256,228,54192,1,8,0:0:0
256,308,54407,1,0,0:0:0
256,308,54621,6,0,B|296:308|336:328|376:328,1,120.000004577637
256,192,55157,12,0,58050,0:0:0
128,104,58478,6,0,B|76:112|64:152|64:195|64:195|64:248,2,160,2|2|0,0:0|0:0|0:0,0:0:0
180,164,59550,1,0,0:0:0
256,140,59764,1,2,0:0:0
332,164,59978,1,0,0:0:0
384,104,60192,2,0,B|436:112|448:152|448:195|448:195|448:248,1,160,2|2,0:0|0:0,0:0:0
380,272,60835,2,0,B|344:296|304:272,1,80,0|2,0:0|0:0,0:0:0
256,208,61264,1,0,0:0:0
208,272,61478,2,0,B|168:296|132:272,1,80,2|0,0:0|0:0,0:0:0
116,192,61907,5,2,0:0:0
436,192,62764,1,2,0:0:0
140,72,63621,1,2,0:0:0
460,72,64478,1,2,0:0:0
256,320,65335,5,2,0:0:0
356,192,65764,1,2,0:0:0
256,68,66192,1,2,0:0:0
156,192,66621,1,2,0:0:0
256,320,67050,5,2,0:0:0
336,320,67264,1,2,0:0:0
412,296,67478,1,2,0:0:0
472,240,67692,1,2,0:0:0
408,192,67907,1,2,0:0:0
472,144,68121,1,2,0:0:0
408,96,68335,1,2,0:0:0
332,68,68550,6,2,B|288:68,9,40
256,88,69621,2,2,B|256:132,7,40
256,172,70478,6,0,B|280:228|212:292|160:268,1,160,4|0,0:0|0:0,0:0:0
176,192,71121,1,0,0:0:0
96,208,71335,2,0,B|72:152|140:88|192:112,1,160,8|0,0:0|0:0,0:0:0
256,84,71978,1,0,0:0:0
332,116,72192,2,0,B|388:92|452:160|428:212,1,160,4|0,0:0|0:0,0:0:0
352,192,72835,1,2,0:0:0
316,264,73050,2,0,B|308:308|342:335,1,80,8|0,0:0|0:0,0:0:0
196,264,73478,2,0,B|204:308|169:335,1,80,0|0,0:0|0:0,0:0:0
116,276,73907,6,0,B|88:204|88:204|120:124,1,160,4|0,0:0|0:0,0:0:0
192,92,74550,1,0,0:0:0
312,92,74764,2,2,B|368:92,1,40,2|0,0:0|0:0,0:0:0
312,92,74978,2,2,B|340:52,1,40,2|0,0:0|0:0,0:0:0
312,92,75192,2,2,B|284:48,1,40,2|0,0:0|0:0,0:0:0
312,92,75407,2,2,B|264:100,1,40,2|0,0:0|0:0,0:0:0
312,92,75621,2,2,B|312:100|312:100|308:108|312:116|312:116|308:124|312:132|312:132|308:140|312:148|312:148|308:156|312:164|312:164|308:171|312:180|312:180|308:188|312:196|312:196|308:204|312:212|312:212|308:220,2,120,2|2|2,0:0|0:0|0:0,0:0:0
384,124,76478,2,0,B|472:124,2,80,8|0|0,0:0|0:0|0:0,0:0:0
336,276,77335,6,0,B|300:300|256:276|256:276|216:300|182:276,1,160,4|0,0:0|0:0,0:0:0
124,224,77978,1,0,0:0:0
96,148,78192,2,0,B|104:111|152:96|152:96|166:43|204:39,1,160,8|0,0:0|0:0,0:0:0
256,100,78835,1,0,0:0:0
307,39,79050,2,0,B|345:43|356:96|356:96|407:111|416:148,1,160,4|0,0:0|0:0,0:0:0
340,168,79693,1,2,0:0:0
344,248,79907,2,0,B|396:308,1,80,8|0,0:0|0:0,0:0:0
168,248,80335,2,0,B|116:308,1,80,0|0,0:0|0:0,0:0:0
180,356,80764,6,0,P|252:380|332:352,1,160,4|0,0:0|0:0,0:0:0
256,300,81407,1,0,0:0:0
256,180,81621,2,2,B|200:180,1,40,2|0,0:0|0:0,0:0:0
256,180,81835,2,2,B|224:228,1,40,2|0,0:0|0:0,0:0:0
256,180,82050,2,2,B|280:228,1,40,2|0,0:0|0:0,0:0:0
256,180,82264,2,2,B|312:180,1,40,2|0,0:0|0:0,0:0:0
256,180,82478,2,2,B|256:44,2,120,2|2|2,0:0|0:0|0:0,0:0:0
180,156,83335,1,8,0:0:0
332,156,83550,1,0,0:0:0
256,180,83764,2,0,B|256:268,1,80
180,284,84192,6,0,B|174:338|124:372|61:357,1,160,4|0,0:0|0:0,0:0:0
60,276,84835,1,0,0:0:0
60,196,85050,2,0,B|65:141|116:108|178:122,1,160,8|0,0:0|0:0,0:0:0
256,168,85692,1,0,0:0:0
332,122,85907,2,0,B|396:108|446:141|452:196,1,160,4|0,0:0|0:0,0:0:0
424,272,86550,1,2,0:0:0
348,300,86764,2,0,B|272:272,1,80,8|0,0:0|0:0,0:0:0
198,299,87192,2,0,B|274:271,1,80
320,208,87621,6,0,B|368:208|380:156|368:100|316:100,1,160,4|0,0:0|0:0,0:0:0
260,152,88264,1,0,0:0:0
144,116,88478,2,2,B|176:88,1,40,2|0,0:0|0:0,0:0:0
144,116,88693,2,2,B|140:72,1,40,2|0,0:0|0:0,0:0:0
144,116,88907,2,2,B|88:88,1,40,2|0,0:0|0:0,0:0:0
144,116,89121,2,2,B|100:140,1,40,2|0,0:0|0:0,0:0:0
144,116,89335,2,2,B|188:160|164:232,2,120,2|2|2,0:0|0:0|0:0,0:0:0
96,180,90192,1,8,0:0:0
96,260,90407,1,0,0:0:0
144,324,90621,1,0,0:0:0
303,312,91050,6,0,B|331:284|331:284|360:296|392:284|416:256|400:216,1,160,4|0,0:0|0:0,0:0:0
376,144,91692,1,0,0:0:0
300,112,91907,2,0,B|300:152|256:176|256:176|216:152|216:111,1,160,8|0,0:0|0:0,0:0:0
136,144,92550,1,0,0:0:0
110,220,92764,2,0,B|96:256|120:284|152:296|181:284|181:284|209:312,1,160,4|0,0:0|0:0,0:0:0
288,312,93407,1,2,0:0:0
252,240,93621,2,0,B|236:196|266:163,2,80,8|0|0,0:0|0:0|0:0,0:0:0
332,220,94264,1,0,0:0:0
384,280,94478,6,0,B|446:217|420:131,1,160,4|0,0:0|0:0,0:0:0
376,64,95121,1,0,0:0:0
256,76,95335,2,2,B|316:88,1,40,2|0,0:0|0:0,0:0:0
256,76,95550,2,2,B|284:36,1,40,2|0,0:0|0:0,0:0:0
256,76,95764,2,2,B|224:32,1,40,2|0,0:0|0:0,0:0:0
256,76,95978,2,2,B|192:88,1,40,2|0,0:0|0:0,0:0:0
256,76,96192,2,0,B|256:172|256:172|256:244|292:268|348:268|388:248|388:208|388:188,1,320,2|2,0:0|0:0,0:0:0
460,220,97264,1,2,0:0:0
428,292,97478,1,2,0:0:0
360,332,97692,1,2,0:0:0
280,332,97907,6,0,P|184:336|68:156,2,320,2|8|2,0:0|0:0|0:0,0:0:0
256,176,100050,1,0,0:0:0
256,176,100264,1,2,0:0:0
324,132,100478,1,8,0:0:0
292,60,100692,1,0,0:0:0
212,60,100907,2,0,B|204:104|155:108,1,80
120,36,101335,6,0,B|71:40|63:84,1,80,2|0,0:0|0:0,0:0:0
60,164,101764,1,0,0:0:0
96,236,101978,1,0,0:0:0
168,276,102192,2,0,B|213:254|213:254|221:295|255:324|290:314,2,160,8|0|2,0:0|0:0|0:0,0:0:0
176,156,103371,5,2,0:0:0
336,156,103692,1,2,0:0:0
176,220,103907,2,0,B|164:264|164:264|120:280,1,80,8|0,0:0|0:0,0:0:0
336,220,104335,2,0,B|348:264|348:264|388:280,1,80
376,124,104764,6,0,B|376:91|333:30|256:8|173:30|131:96|131:137,2,320,2|8|2,0:0|0:0|0:0,0:0:0
256,132,106692,1,0,0:0:0
256,132,106907,2,0,B|256:224,1,80,0|2,0:0|0:0,0:0:0
188,252,107335,2,0,P|256:288|332:240,1,160,8|0,0:0|0:0,0:0:0
324,92,108193,6,0,P|256:56|180:104,1,160,2|0,0:0|0:0,0:0:0
108,80,108835,1,0,0:0:0
64,148,109050,2,0,P|28:216|76:292,1,160,8|0,0:0|0:0,0:0:0
144,276,109692,1,0,0:0:0
208,324,109907,2,2,P|268:316|300:264,2,120
224,244,110764,1,8,0:0:0
208,164,110978,1,0,0:0:0
272,116,111192,1,0,0:0:0
336,168,111407,1,0,0:0:0
312,244,111621,1,0,0:0:0
256,192,111728,12,2,115050,0:0:0
256,192,123621,12,0,124907,0:0:0
212,300,125335,6,0,B|208:340|152:356|100:344|92:300,1,160,2|0,0:0|0:0,0:0:0
152,248,125978,1,0,0:0:0
92,192,126192,2,0,B|96:152|152:136|204:148|212:192,1,160,8|0,0:0|0:0,0:0:0
288,164,126835,1,0,0:0:0
308,88,127050,2,0,B|352:96|360:140,1,80,2|0,0:0|0:0,0:0:0
424,192,127478,1,0,0:0:0
424,192,127693,1,2,0:0:0
360,240,127907,2,0,B|304:207|244:255|257:311,1,160,8|0,0:0|0:0,0:0:0
256,152,128764,5,2,0:0:0
256,152,128978,1,0,0:0:0
154,241,129193,2,0,B|210:208|270:256|257:312,1,160,0|8,0:0|0:0,0:0:0
324,108,130050,2,0,B|360:72|396:96|396:96|432:72|472:108,2,160,0|2|0,0:0|0:0|0:0,0:0:0
340,184,131121,1,2,0:0:0
340,200,131228,1,0,0:0:0
340,216,131335,1,8,0:0:0
304,288,131550,1,0,0:0:0
224,292,131764,6,0,B|188:340|96:325|76:272,2,160,0|2|0,0:0|0:0|0:0,0:0:0
216,252,132728,1,0,0:0:0
204,212,132835,1,2,0:0:0
196,172,132942,1,0,0:0:0
188,132,133050,2,0,B|224:84|316:99|336:152,2,160,8|0|2,0:0|0:0|0:0,0:0:0
100,152,134121,2,0,B|60:128|20:156,1,80
24,230,134550,2,0,B|60:256|100:232,1,80,2|8,0:0|0:0,0:0:0
168,192,134978,1,0,0:0:0
248,192,135193,2,0,B|304:208|352:160|352:160|400:184,1,160,0|2,0:0|0:0,0:0:0
436,112,135835,5,2,0:0:0
372,64,136050,1,2,0:0:0
304,108,136264,1,2,0:0:0
240,64,136478,1,2,0:0:0
176,108,136692,1,2,0:0:0
112,60,136907,1,2,0:0:0
48,108,137121,6,2,B|80:132,9,40
112,156,138193,2,2,B|112:208,7,40
112,236,139050,6,0,B|112:304|172:320|172:320|224:320,2,160,2|0|8,0:0|0:0|0:0,0:0:0
192,240,140121,1,0,0:0:0
272,244,140335,2,0,B|272:176|212:160|212:160|160:160,1,160,0|2,0:0|0:0,0:0:0
184,40,140978,1,0,0:0:0
300,80,141193,2,0,B|260:80,8,40,0|0|2|0|8|0|0|0|0,0:0|0:0|0:0|0:0|0:0|0:0|0:0|0:0|0:0,0:0:0
300,160,142264,2,0,B|344:160|344:160|380:134,1,80,0|2,0:0|0:0,0:0:0
412,140,142585,6,0,B|452:140,10,40,0|0|0|0|0|2|0|8|0|0|0,0:0|0:0|0:0|0:0|0:0|0:0|0:0|0:0|0:0|0:0|0:0,0:0:0
372,140,143764,2,0,B|344:224|243:211,1,160,0|2,0:0|0:0,0:0:0
204,212,144300,2,0,B|156:212,10,40,0|0|0|0|0|2|0|8|0|0|0,0:0|0:0|0:0|0:0|0:0|0:0|0:0|0:0|0:0|0:0|0:0,0:0:0
244,212,145478,2,0,B|284:160|284:160|260:100,1,120
232,84,145907,6,0,B|176:120|116:84,1,120,2|0,0:0|0:0,0:0:0
88,108,146335,2,0,B|67:158|67:158|107:210,1,120
120,248,146764,2,0,B|176:212|236:248,1,120,8|0,0:0|0:0,0:0:0
240,288,147193,2,0,B|274:332|371:291|344:234,1,160,0|2,0:0|0:0,0:0:0
412,192,147835,1,0,0:0:0
384,116,148050,2,0,B|412:64,7,40,0|0|2|0|8|0|0|0,0:0|0:0|0:0|0:0|0:0|0:0|0:0|0:0,0:0:0
384,116,148907,2,0,B|349:71|252:112|279:169,1,160,0|2,0:0|0:0,0:0:0
200,172,149550,5,2,0:0:0
124,192,149764,1,2,0:0:0
124,272,149978,1,2,0:0:0
200,300,150193,1,2,0:0:0
256,244,150407,1,2,0:0:0
312,300,150621,1,2,0:0:0
388,272,150835,1,2,0:0:0
400,192,151050,6,2,B|400:140,7,40
376,120,151907,2,2,B|376:68,7,40
256,192,152764,12,0,154478,0:0:0
332,120,163050,6,0,B|379:125|394:79,2,80,4|0|2,0:0|0:0|0:0,0:0:0
180,120,163693,2,0,B|133:125|117:79,2,80,0|2|2,0:0|0:0|0:0,0:0:0
256,92,164335,1,2,0:0:0
256,172,164550,1,0,0:0:0
200,228,164764,2,0,B|153:223|137:268,2,80,4|0|2,0:0|0:0|0:0,0:0:0
312,228,165407,2,0,B|359:223|375:268,2,80,0|0|2,0:0|0:0|0:0,0:0:0
256,172,166050,1,2,0:0:0
256,92,166264,1,2,0:0:0
256,192,166478,12,0,167764,0:0:0
116,56,168193,6,0,B|200:56|256:120|256:120|312:56|400:56,1,320,2|8,0:0|0:0,0:0:0
408,136,169264,1,0,0:0:0
352,192,169478,1,0,0:0:0
412,248,169693,1,0,0:0:0
396,328,169907,2,0,B|312:328|256:264|256:264|200:328|112:328,1,320,2|8,0:0|0:0,0:0:0
256,192,170978,12,0,172907,0:0:0
436,120,173335,6,0,B|492:120|533:215|493:319|357:319|340:262,1,320,2|8,0:0|0:0,0:0:0
136,152,174621,2,0,B|136:192,3,40
140,232,175050,2,0,B|136:300|224:331|263:283,1,160,2|0,0:0|0:0,0:0:0
220,220,175693,1,0,0:0:0
300,208,175907,2,0,B|304:136|216:109|177:157,1,160,8|0,0:0|0:0,0:0:0
364,85,176764,6,0,B|312:104|292:51,2,80,4|0|0,0:0|0:0|0:0,0:0:0
148,85,177407,2,0,B|200:104|220:51,2,80,0|2|0,0:0|0:0|0:0,0:0:0
144,192,178050,1,2,0:0:0
200,284,178265,1,2,0:0:0
308,284,178479,1,4,0:0:0
364,192,178693,1,2,0:0:0
353,41,178907,2,2,B|400:52|412:92,1,80
256,96,179335,2,2,B|256:176,1,80
100,92,179764,2,2,B|112:52|158:41,1,80
256,192,180193,12,0,183621,0:0:0
256,104,184050,5,2,0:0:0
256,280,184478,1,2,0:0:0
120,192,184907,1,2,0:0:0
388,192,185335,5,2,0:0:0
416,116,185550,1,2,0:0:0
352,68,185764,1,2,0:0:0
288,116,185978,1,2,0:0:0
308,192,186193,1,2,0:0:0
344,264,186407,1,2,0:0:0
264,264,186621,1,2,0:0:0
300,336,186835,6,2,B|228:336,9,40
220,336,187907,2,2,B|148:336,7,40
144,312,188764,6,0,B|112:263|112:263|128:208|190:211,1,160,4|0,0:0|0:0,0:0:0
256,156,189407,1,0,0:0:0
316,208,189621,2,0,B|378:211|393:155|393:155|362:107,1,160,8|0,0:0|0:0,0:0:0
296,64,190264,1,0,0:0:0
210,60,190478,2,0,B|120:60|89:149,1,160,4|0,0:0|0:0,0:0:0
140,212,191121,1,2,0:0:0
220,212,191335,2,0,B|269:274,1,80,8|0,0:0|0:0,0:0:0
219,212,191764,2,0,B|269:150,1,80,0|0,0:0|0:0,0:0:0
320,88,192193,6,0,B|388:121|388:121|388:205,1,160,4|0,0:0|0:0,0:0:0
336,268,192835,1,0,0:0:0
216,284,193050,2,2,B|156:292,1,40,2|0,0:0|0:0,0:0:0
216,284,193264,2,2,B|196:340,1,40,2|0,0:0|0:0,0:0:0
216,284,193478,2,2,B|260:328,1,40,2|0,0:0|0:0,0:0:0
216,284,193693,2,2,B|264:268,1,40,2|0,0:0|0:0,0:0:0
216,284,193907,2,2,B|196:226|196:226|212:170,2,120,2|2|2,0:0|0:0|0:0,0:0:0
276,232,194764,1,8,0:0:0
356,232,194978,1,0,0:0:0
372,152,195193,1,0,0:0:0
236,68,195621,6,0,B|187:36|153:77|153:77|109:85|100:50,1,160,4|0,0:0|0:0,0:0:0
36,100,196264,1,0,0:0:0
60,176,196478,2,0,B|91:224|50:258|50:258|42:302|77:311,1,160,8|0,0:0|0:0,0:0:0
144,268,197121,1,0,0:0:0
212,312,197335,2,0,B|249:304|239:258|239:258|198:224|229:176,1,160,4|0,0:0|0:0,0:0:0
264,104,197978,1,2,0:0:0
344,116,198193,2,0,B|432:116,1,80,8|0,0:0|0:0,0:0:0
456,192,198621,2,0,B|376:192,1,80
336,192,198943,1,0,0:0:0
296,192,199050,6,0,B|209:243|155:167,1,160,4|0,0:0|0:0,0:0:0
76,160,199693,1,0,0:0:0
120,272,199907,2,2,B|120:224,1,40,2|0,0:0|0:0,0:0:0
120,272,200121,2,2,B|72:252,1,40,2|0,0:0|0:0,0:0:0
120,272,200335,2,2,B|84:312,1,40,2|0,0:0|0:0,0:0:0
120,272,200550,2,2,B|144:324,1,40,2|0,0:0|0:0,0:0:0
120,272,200764,2,2,B|172:224|248:250,2,120,2|2|2,0:0|0:0|0:0,0:0:0
168,336,201621,1,8,0:0:0
248,332,201835,1,0,0:0:0
308,280,202050,2,0,B|304:236|348:212,1,80
324,136,202478,6,0,B|308:92|264:84|264:84|236:48|192:48,1,160,4|0,0:0|0:0,0:0:0
200,128,203121,1,0,0:0:0
128,92,203335,2,0,B|108:134|133:171|133:171|128:216|159:247,1,160,8|0,0:0|0:0,0:0:0
180,320,203978,1,0,0:0:0
260,328,204193,2,0,B|304:312|312:268|312:268|348:240|348:196,1,160,4|0,0:0|0:0,0:0:0
388,136,204835,1,2,0:0:0
328,80,205050,2,0,B|300:44|257:50,1,80,8|0,0:0|0:0,0:0:0
188,80,205478,2,0,B|216:44|258:50,1,80,0|0,0:0|0:0,0:0:0
256,132,205907,6,0,B|176:160|176:160|136:240,1,160,4|0,0:0|0:0,0:0:0
260,260,206550,1,0,0:0:0
372,300,206764,2,2,B|420:284,1,40,2|0,0:0|0:0,0:0:0
372,300,206978,2,2,B|400:336,1,40,2|0,0:0|0:0,0:0:0
372,300,207193,2,2,B|348:332,1,40,2|0,0:0|0:0,0:0:0
372,300,207407,2,2,B|312:288,1,40,2|0,0:0|0:0,0:0:0
372,300,207621,2,2,B|392:240|392:240|376:184,2,120,2|2|2,0:0|0:0|0:0,0:0:0
316,240,208478,2,0,B|220:240,2,80,8|0|0,0:0|0:0|0:0,0:0:0
184,120,209335,6,0,B|167:54|267:22|295:94,1,160,4|0,0:0|0:0,0:0:0
368,64,209978,1,0,0:0:0
420,128,210193,2,0,B|437:194|337:226|309:154,1,160,8|0,0:0|0:0,0:0:0
256,220,210835,1,0,0:0:0
196,164,211050,2,0,B|176:220|72:200|96:116,1,160,4|0,0:0|0:0,0:0:0
164,96,211693,1,2,0:0:0
257,74,211907,2,0,B|280:112|332:103,1,80,8|0,0:0|0:0,0:0:0
388,56,212335,2,0,B|364:16|312:27,1,80,0|0,0:0|0:0,0:0:0
326,104,212764,6,0,B|326:160|274:176|274:176|278:224|330:232,1,160,4|0,0:0|0:0,0:0:0
256,284,213407,1,0,0:0:0
136,272,213621,2,2,B|96:296,1,40,2|0,0:0|0:0,0:0:0
136,272,213835,2,2,B|144:336,1,40,2|0,0:0|0:0,0:0:0
136,272,214050,2,2,B|196:292,1,40,2|0,0:0|0:0,0:0:0
136,272,214264,2,2,B|172:232,1,40,2|0,0:0|0:0,0:0:0
136,272,214478,2,0,B|90:243|68:192|80:136|124:84|196:64|243:85|275:133,1,320,2|2,0:0|0:0,0:0:0
256,188,215550,1,2,0:0:0
256,268,215764,1,2,0:0:0
256,348,215978,1,2,0:0:0
256,268,216193,6,0,P|316:292|344:228|412:264|412:264|464:200|440:148|400:120,2,320,2|8|2,0:0|0:0|0:0,0:0:0
328,128,218335,1,0,0:0:0
328,128,218550,1,2,0:0:0
256,96,218764,1,8,0:0:0
184,128,218978,1,0,0:0:0
216,200,219193,2,0,B|256:216|300:200,2,80,0|0|2,0:0|0:0|0:0,0:0:0
140,224,219835,6,0,B|156:264|140:308,1,80
216,336,220264,1,0,0:0:0
296,336,220478,2,0,B|338:344|380:320|408:272|380:224,2,160,8|0|2,0:0|0:0|0:0,0:0:0
332,164,221657,1,2,0:0:0
180,164,221978,1,2,0:0:0
188,272,222193,2,0,P|176:356,1,80,8|0,0:0|0:0,0:0:0
335,351,222621,2,0,P|324:272,1,80,0|0,0:0|0:0,0:0:0
256,116,223050,6,0,P|196:92|168:156|100:120|100:120|48:184|72:236|112:264,2,320,2|8|2,0:0|0:0|0:0,0:0:0
256,196,224978,1,0,0:0:0
256,196,225193,2,0,B|256:288,1,80,0|2,0:0|0:0,0:0:0
332,304,225621,2,0,B|368:268|368:192|329:157,1,160,8|0,0:0|0:0,0:0:0
180,80,226478,6,0,B|144:116|144:192|182:226,1,160,2|0,0:0|0:0,0:0:0
244,176,227121,1,0,0:0:0
304,124,227335,2,0,B|340:124|376:152|376:152|412:124|451:124,1,160,8|0,0:0|0:0,0:0:0
376,64,227978,1,0,0:0:0
376,228,228193,2,2,B|376:352,2,120
256,192,229050,12,0,229907,0:0:0
