osu file format v11

[General]
AudioFilename: Elements - Lindsey Stirling.mp3
AudioLeadIn: 0
PreviewTime: 96140
Countdown: 0
SampleSet: Soft
StackLeniency: 0.7
Mode: 0
LetterboxInBreaks: 0
EpilepsyWarning: 1

[Editor]
DistanceSpacing: 1.2
BeatDivisor: 4
GridSize: 4

[Metadata]
Title:Elements
TitleUnicode:Elements
Artist:Lindsey Stirling
ArtistUnicode:Lindsey Stirling
Creator:Katty Pie
Version:Fire
Source:
Tags:violin dubstep Lizellota KersiTyan
BeatmapID:182254
BeatmapSetID:59965

[Difficulty]
HPDrainRate:7
CircleSize:4
OverallDifficulty:7
ApproachRate:8
SliderMultiplier:1.8
SliderTickRate:1

[Events]
//Background and Video events
0,0,"hhh.jpg"
//Break Periods
2,115250,122871
2,154678,162300
//Storyboard Layer 0 (Background)
//Storyboard Layer 1 (Fail)
//Storyboard Layer 2 (Pass)
//Storyboard Layer 3 (Foreground)
//Storyboard Sound Samples
//Background Colour Transformations
3,100,163,162,255

[TimingPoints]
193,428.571428571429,4,2,1,40,1,0
4478,-133.333333333333,4,2,0,30,0,0
6621,-200,4,2,0,30,0,0
7050,-200,4,2,1,35,0,0
7478,-200,4,2,1,30,0,0
7907,-200,4,2,1,25,0,0
8335,-200,4,2,1,20,0,0
8764,-200,4,2,2,15,0,0
13907,-100,4,2,1,40,0,0
27621,-100,4,2,2,40,0,0
27728,-100,4,2,1,40,0,0
34478,-100,4,2,2,40,0,0
34585,-100,4,2,1,40,0,0
37907,-100,4,2,2,40,0,0
38121,-100,4,2,1,40,0,0
41335,-100,4,2,2,50,0,0
41443,-100,4,2,1,40,0,0
48193,-100,4,2,2,50,0,0
48300,-100,4,2,1,40,0,0
54621,-133.333333333333,4,2,1,40,0,0
55050,-133.333333333333,4,2,1,15,0,0
58050,-100,4,2,1,5,0,0
58478,-100,4,2,2,30,0,0
58585,-100,4,2,0,30,0,0
60193,-100,4,2,2,30,0,0
60300,-100,4,2,0,30,0,0
61907,-100,4,2,1,40,0,0
69193,-100,4,2,1,35,0,0
69621,-100,4,2,1,30,0,0
70050,-100,4,2,1,25,0,0
70478,-100,4,2,1,40,0,1
74764,-100,4,2,0,30,0,1
75621,-100,4,2,1,40,0,1
81621,-100,4,2,0,30,0,1
82478,-100,4,2,1,40,0,1
88478,-100,4,2,0,30,0,1
89335,-100,4,2,1,40,0,1
95335,-100,4,2,0,30,0,1
96193,-100,4,2,1,40,0,0
97907,-100,4,2,2,40,0,1
98014,-100,4,2,1,40,0,1
104764,-100,4,2,2,40,0,1
104871,-100,4,2,1,40,0,1
108193,-100,4,2,2,40,0,1
108300,-100,4,2,1,40,0,1
111621,-100,4,2,1,40,0,0
115050,-100,4,2,2,30,0,0
115157,-100,4,2,1,40,0,0
124907,-100,4,2,1,30,0,0
125335,-100,4,2,2,40,0,0
125443,-100,4,2,1,40,0,0
132193,-100,4,2,2,40,0,0
132300,-100,4,2,1,40,0,0
137764,-100,4,2,1,35,0,0
138193,-100,4,2,1,30,0,0
138621,-100,4,2,1,25,0,0
139050,-100,4,2,2,40,0,0
139157,-100,4,2,1,40,0,0
151478,-100,4,2,1,35,0,0
151907,-100,4,2,1,30,0,0
152335,-100,4,2,1,25,0,0
163050,-100,4,2,1,40,0,0
167764,-100,4,2,1,10,0,0
168193,-100,4,2,2,40,0,0
170978,-100,4,2,0,40,0,0
173335,-100,4,2,2,40,0,0
176764,-100,4,2,1,40,0,0
187478,-100,4,2,1,35,0,0
187907,-100,4,2,1,30,0,0
188335,-100,4,2,1,25,0,0
188764,-100,4,2,1,40,0,1
193050,-100,4,2,0,30,0,1
193907,-100,4,2,1,40,0,1
199907,-100,4,2,0,30,0,1
200764,-100,4,2,1,40,0,1
206764,-100,4,2,0,30,0,1
207621,-100,4,2,1,40,0,1
213621,-100,4,2,0,30,0,1
214478,-100,4,2,1,40,0,0
216193,-100,4,2,2,40,0,1
216300,-100,4,2,1,40,0,1
223050,-100,4,2,2,40,0,1
223157,-100,4,2,1,40,0,1
226478,-100,4,2,2,40,0,1
226585,-100,4,2,1,40,0,1
229907,-100,4,2,1,5,0,0

[Colours]
Combo1 : 33,221,254
Combo2 : 255,150,0
Combo3 : 134,192,24
Combo4 : 167,108,1
SliderBorder : 255,255,255

[HitObjects]
324,64,4478,2,0,B|388:104|392:176,2,135.000005149842,2|2|2,0:0|0:0|0:0,0:0:0
188,64,5764,2,0,B|124:104|120:176,1,135.000005149842,2|2,0:0|0:0,0:0:0
136,272,6407,1,0,0:0:0
232,268,6621,6,0,B|312:304|392:268|418:190|392:108|300:68|212:104|200:196,1,450,2|2,0:0|0:0,0:0:0
256,192,10478,12,0,13478,0:0:0
68,152,13907,5,2,0:0:0
256,48,14335,1,0,0:0:0
444,152,14764,1,8,0:0:0
52,336,15621,1,2,0:0:0
256,268,16050,1,0,0:0:0
328,188,16264,1,2,0:0:0
256,108,16478,1,8,0:0:0
332,312,16907,2,0,P|256:356|176:292,1,180,0|2,0:0|0:0,0:0:0
96,112,17764,5,0,0:0:0
180,44,17978,1,0,0:0:0
160,152,18193,1,8,0:0:0
256,344,18621,1,0,0:0:0
416,112,19050,1,2,0:0:0
332,44,19264,1,0,0:0:0
352,152,19478,1,0,0:0:0
380,256,19693,1,0,0:0:0
416,360,19907,1,8,0:0:0
256,276,20121,1,0,0:0:0
96,360,20335,1,0,0:0:0
132,256,20550,1,0,0:0:0
148,148,20764,5,0,0:0:0
364,152,21193,1,0,0:0:0
364,44,21407,1,0,0:0:0
256,44,21621,1,8,0:0:0
256,260,22050,1,0,0:0:0
256,44,22478,1,2,0:0:0
60,140,22907,1,0,0:0:0
28,244,23121,1,2,0:0:0
100,324,23335,1,8,0:0:0
208,324,23550,1,0,0:0:0
280,240,23764,1,0,0:0:0
236,140,23978,1,0,0:0:0
156,72,24193,6,0,P|232:40|324:80,1,180,2|0,0:0|0:0,0:0:0
318,74,24835,1,0,0:0:0
156,72,25050,1,8,0:0:0
60,260,25478,1,0,0:0:0
256,356,25907,5,2,0:0:0
416,340,26228,1,2,0:0:0
456,184,26550,1,2,0:0:0
444,76,26764,1,8,0:0:0
336,60,26978,1,0,0:0:0
272,152,27193,1,0,0:0:0
168,344,27621,6,0,B|164:292|120:272|120:272|92:296|60:288|50:251,1,180,2|0,0:0|0:0,0:0:0
50,132,28264,1,0,0:0:0
50,132,28478,2,0,B|60:96|92:88|120:112|120:112|164:92|168:40,1,180,8|0,0:0|0:0,0:0:0
276,44,29121,1,0,0:0:0
340,132,29335,1,2,0:0:0
396,40,29550,1,0,0:0:0
452,132,29764,1,0,0:0:0
396,224,29978,1,2,0:0:0
396,224,30085,1,0,0:0:0
396,224,30193,2,0,P|332:288|256:260,1,180,8|0,0:0|0:0,0:0:0
48,340,31050,6,0,B|24:292|50:253,1,90,2|0,0:0|0:0,0:0:0
124,180,31478,1,0,0:0:0
196,100,31693,1,0,0:0:0
196,100,31907,2,0,B|252:100|280:124|280:124|312:100|372:100,2,180,8|0|2,0:0|0:0|0:0,0:0:0
208,208,32978,1,0,0:0:0
348,208,33193,1,0,0:0:0
280,292,33407,2,0,B|280:348,2,45,2|0|8,0:0|0:0|0:0,0:0:0
348,208,33835,1,0,0:0:0
400,112,34050,2,0,B|411:77|375:45|347:45|319:45|287:77|297:113,2,180,0|2|0,0:0|0:0|0:0,0:0:0
348,208,35121,5,0,0:0:0
348,208,35335,2,0,B|358:244|324:280|293:269|265:277|234:244|245:209,1,180,8|0,0:0|0:0,0:0:0
152,260,35978,1,0,0:0:0
80,180,36193,2,0,B|44:180|12:124|12:124|44:72|85:72,1,180,2|0,0:0|0:0,0:0:0
172,128,36835,2,0,B|236:128,2,45,2|0|8,0:0|0:0|0:0,0:0:0
388,128,37478,1,0,0:0:0
320,332,37907,6,0,P|328:256|256:192,1,180,2|0,0:0|0:0,0:0:0
192,52,38550,1,0,0:0:0
192,52,38764,2,0,P|184:128|256:192,1,180,8|0,0:0|0:0,0:0:0
164,248,39407,1,0,0:0:0
256,300,39621,1,2,0:0:0
256,284,39728,1,0,0:0:0
256,268,39835,1,0,0:0:0
332,192,40050,1,2,0:0:0
256,84,40264,1,0,0:0:0
256,100,40371,1,0,0:0:0
256,116,40478,1,8,0:0:0
180,192,40693,1,0,0:0:0
72,192,40907,2,0,B|52:272|112:311,1,135,0|0,0:0|0:0,0:0:0
111,311,41335,6,0,B|132:256|200:240|276:276|256:336,1,180,2|0,0:0|0:0,0:0:0
400,311,41978,2,0,B|464:296,1,45
400,311,42193,2,0,B|380:256|312:240|236:276|256:336,1,180,8|0,0:0|0:0,0:0:0
256,196,42835,1,0,0:0:0
216,96,43050,2,0,B|256:68|300:96,1,90,2|0,0:0|0:0,0:0:0
388,156,43478,1,0,0:0:0
352,260,43693,1,2,0:0:0
352,260,43800,1,0,0:0:0
352,260,43907,2,0,B|288:340|189:305,1,180,8|0,0:0|0:0,0:0:0
176,92,44764,5,2,0:0:0
72,72,44978,1,0,0:0:0
80,180,45192,1,0,0:0:0
184,216,45407,2,0,B|184:260,2,45,0|0|8,0:0|0:0|0:0,0:0:0
260,140,45835,1,0,0:0:0
176,92,46050,2,0,B|208:44|280:32|340:76,2,180,0|2|0,0:0|0:0|0:0,0:0:0
96,164,47121,1,2,0:0:0
96,164,47228,1,0,0:0:0
96,164,47335,1,8,0:0:0
128,268,47550,1,0,0:0:0
208,344,47764,2,0,B|256:393|336:377|365:329,2,180,0|2|0,0:0|0:0|0:0,0:0:0
224,292,48728,5,0,0:0:0
240,240,48835,1,2,0:0:0
256,188,48942,1,0,0:0:0
272,136,49050,2,0,B|341:135|386:203|373:257,2,180,8|0|2,0:0|0:0|0:0,0:0:0
184,92,50121,2,0,B|132:104|104:62,1,90
184,292,50550,2,0,B|132:280|104:321,1,90,2|8,0:0|0:0,0:0:0
204,192,50978,1,0,0:0:0
204,192,51192,2,0,B|244:172|244:172|284:192|328:172|328:172|376:192,1,180
184,292,52050,5,0,0:0:0
184,76,52478,1,8,0:0:0
400,76,52907,1,0,0:0:0
384,184,53121,1,0,0:0:0
316,268,53335,2,0,B|352:312,2,45,0|0|0,0:0|0:0|0:0,0:0:0
216,308,53764,1,2,0:0:0
112,288,53978,1,2,0:0:0
48,204,54192,1,8,0:0:0
68,100,54407,2,0,B|36:44,1,45
68,100,54621,6,0,B|112:92|156:132|204:116,1,135.000005149842,0|2,0:0|0:0,0:0:0
256,192,55157,12,0,58050,0:0:0
128,104,58478,6,0,B|76:112|64:152|64:195|64:195|64:252,2,180,2|2|0,0:0|0:0|0:0,0:0:0
164,208,59550,1,0,0:0:0
256,152,59764,1,2,0:0:0
348,208,59978,1,0,0:0:0
384,104,60192,2,0,B|436:112|448:152|448:195|448:195|448:252,1,180,2|2,0:0|0:0,0:0:0
348,288,60835,2,0,B|304:320|263:289,1,90
156,296,61264,1,0,0:0:0
88,212,61478,2,0,B|37:205|29:151,1,90,2|0,0:0|0:0,0:0:0
52,48,61907,5,2,0:0:0
460,336,62764,1,2,0:0:0
360,88,63621,1,2,0:0:0
152,296,64478,1,2,0:0:0
464,192,65335,5,2,0:0:0
308,344,65764,1,2,0:0:0
148,200,66192,1,2,0:0:0
308,56,66621,1,2,0:0:0
76,60,67050,5,2,0:0:0
32,160,67264,1,2,0:0:0
64,264,67478,1,2,0:0:0
156,320,67692,1,2,0:0:0
264,320,67907,1,2,0:0:0
360,268,68121,1,2,0:0:0
384,164,68335,1,2,0:0:0
280,128,68550,5,2,0:0:0
244,124,68657,1,2,0:0:0
212,144,68764,1,2,0:0:0
196,176,68871,1,2,0:0:0
204,212,68978,1,2,0:0:0
228,240,69085,1,2,0:0:0
260,252,69192,1,2,0:0:0
296,240,69300,1,2,0:0:0
316,212,69407,1,2,0:0:0
316,176,69514,1,2,0:0:0
308,140,69621,1,2,0:0:0
324,108,69728,1,2,0:0:0
356,92,69835,1,2,0:0:0
392,92,69942,1,2,0:0:0
424,108,70050,1,2,0:0:0
436,140,70157,1,2,0:0:0
432,176,70264,1,2,0:0:0
412,208,70371,1,2,0:0:0
392,240,70478,6,0,B|408:304|348:360|284:348,1,180,4|0,0:0|0:0,0:0:0
240,348,71014,1,0,0:0:0
200,328,71121,1,0,0:0:0
176,288,71228,1,0,0:0:0
176,244,71335,2,0,B|124:216|124:124|174:91,1,180,8|0,0:0|0:0,0:0:0
204,56,71871,1,0,0:0:0
244,36,71978,1,0,0:0:0
284,56,72085,1,0,0:0:0
316,88,72193,2,0,B|368:116|368:208|317:240,1,180,4|0,0:0|0:0,0:0:0
300,284,72728,1,0,0:0:0
328,316,72835,1,2,0:0:0
372,320,72943,1,0,0:0:0
404,292,73050,2,0,B|396:240|438:214,1,90,8|0,0:0|0:0,0:0:0
108,292,73478,2,0,B|116:240|73:214,1,90
180,68,73907,6,0,B|256:116|256:116|332:68,1,180,4|0,0:0|0:0,0:0:0
300,200,74550,1,0,0:0:0
424,148,74764,2,2,B|480:153,1,45,2|0,0:0|0:0,0:0:0
424,148,74978,2,2,B|448:104,1,45,2|0,0:0|0:0,0:0:0
424,148,75192,2,2,B|392:104,1,45,2|0,0:0|0:0,0:0:0
424,148,75407,2,2,B|372:156,1,45,2|0,0:0|0:0,0:0:0
424,148,75621,2,0,B|424:156|424:156|420:164|424:172|424:172|420:180|424:188|424:188|420:196|424:204|424:204|420:212|424:220|424:220|420:227|424:236|424:236|420:244|424:252|424:252|420:260|424:268|424:268|420:276|424:284|424:284|420:292|424:300|424:300,2,135,2|2|2,0:0|0:0|0:0,0:0:0
316,148,76478,1,8,0:0:0
252,236,76692,1,0,0:0:0
144,240,76907,2,0,B|66:217|75:138,1,135
75,139,77335,6,0,B|116:108|160:132|160:132|208:104|248:136,1,180,4|0,0:0|0:0,0:0:0
276,100,77871,1,0,0:0:0
316,76,77978,1,0,0:0:0
360,84,78085,1,0,0:0:0
392,116,78193,2,0,B|423:156|399:200|399:200|427:248|395:288,1,180,8|0,0:0|0:0,0:0:0
364,312,78728,1,0,0:0:0
316,324,78835,1,0,0:0:0
272,320,78943,1,0,0:0:0
234,295,79050,2,0,B|176:268|176:268|212:220|180:159,1,180,4|0,0:0|0:0,0:0:0
204,120,79585,1,0,0:0:0
188,76,79693,1,2,0:0:0
144,64,79800,1,0,0:0:0
104,84,79907,2,0,B|32:152,1,90,8|0,0:0|0:0,0:0:0
408,84,80335,2,0,B|480:152,1,90
332,296,80764,6,0,B|308:332|256:352|208:336|176:297,1,180,4|0,0:0|0:0,0:0:0
144,192,81407,1,0,0:0:0
256,112,81621,2,2,B|196:112,1,45,2|0,0:0|0:0,0:0:0
256,112,81835,2,2,B|224:60,1,45,2|0,0:0|0:0,0:0:0
256,112,82050,2,2,B|284:64,1,45,2|0,0:0|0:0,0:0:0
256,112,82264,2,2,B|316:112,1,45,2|0,0:0|0:0,0:0:0
256,112,82478,2,0,B|256:252,2,135,2|2|2,0:0|0:0|0:0,0:0:0
164,56,83335,1,8,0:0:0
348,56,83550,1,0,0:0:0
400,152,83764,2,0,B|336:192|363:269,1,135
362,269,84193,6,0,B|304:232|232:256|216:316,1,180,4|0,0:0|0:0,0:0:0
172,332,84728,1,0,0:0:0
128,324,84835,1,0,0:0:0
108,284,84943,1,0,0:0:0
116,240,85050,2,0,B|176:232|216:168|186:103,1,180,8|0,0:0|0:0,0:0:0
212,64,85585,1,0,0:0:0
256,48,85693,1,0,0:0:0
296,64,85800,1,0,0:0:0
320,100,85907,2,0,B|290:165|330:229|390:237,1,180,4|0,0:0|0:0,0:0:0
428,260,86442,1,0,0:0:0
416,304,86550,1,2,0:0:0
376,324,86657,1,0,0:0:0
332,316,86764,2,0,B|256:268,1,90,8|0,0:0|0:0,0:0:0
180,316,87193,2,0,B|256:268,1,90
336,160,87621,6,0,B|396:160|416:104|396:52|332:52,1,180,4|0,0:0|0:0,0:0:0
264,108,88264,1,0,0:0:0
128,108,88478,2,2,B|164:80,1,45,2|0,0:0|0:0,0:0:0
128,108,88693,2,2,B|128:64,1,45,2|0,0:0|0:0,0:0:0
128,108,88907,2,2,B|72:76,1,45,2|0,0:0|0:0,0:0:0
128,108,89121,2,2,B|80:136,1,45,2|0,0:0|0:0,0:0:0
128,108,89335,2,0,B|172:156|147:234,2,135,2|2|2,0:0|0:0|0:0,0:0:0
52,184,90193,1,8,0:0:0
100,340,90407,1,0,0:0:0
260,340,90621,2,0,B|324:308|392:340,1,135
391,339,91050,6,0,B|392:291|392:291|436:275|436:195|384:195,1,180,4|0,0:0|0:0,0:0:0
384,152,91585,1,0,0:0:0
368,108,91693,1,0,0:0:0
336,76,91800,1,0,0:0:0
300,48,91907,2,0,B|288:92|256:128|256:128|228:92|214:50,1,180,8|0,0:0|0:0,0:0:0
176,72,92443,1,0,0:0:0
144,108,92550,1,0,0:0:0
128,152,92657,1,0,0:0:0
128,195,92764,2,0,B|75:195|75:275|119:291|119:291|121:339,1,180,4|0,0:0|0:0,0:0:0
160,364,93300,1,0,0:0:0
208,356,93407,1,2,0:0:0
232,316,93514,1,0,0:0:0
228,272,93621,2,0,B|216:212|256:176,2,90,8|0|0,0:0|0:0|0:0,0:0:0
316,248,94264,1,0,0:0:0
316,356,94478,6,0,B|416:352|457:260,1,180,4|0,0:0|0:0,0:0:0
457,261,95121,1,0,0:0:0
375,146,95335,2,2,B|436:134,1,45,2|0,0:0|0:0,0:0:0
375,146,95550,2,2,B|403:187,1,45,2|0,0:0|0:0,0:0:0
375,146,95764,2,2,B|343:196,1,45,2|0,0:0|0:0,0:0:0
375,146,95978,2,2,B|304:131,1,45,2|0,0:0|0:0,0:0:0
375,146,96193,2,0,B|375:91|335:27|255:3|175:27|135:91|136:144,1,360
48,80,97264,1,0,0:0:0
136,144,97478,1,2,0:0:0
48,192,97693,1,2,0:0:0
136,240,97907,6,0,B|135:293|175:357|255:381|335:357|375:293|375:238,2,360,2|8|2,0:0|0:0|0:0,0:0:0
256,60,100050,1,0,0:0:0
348,112,100264,1,2,0:0:0
348,112,100478,1,8,0:0:0
308,212,100692,1,0,0:0:0
200,208,100907,2,0,B|185:150|131:159,2,90,0|0|2,0:0|0:0|0:0,0:0:0
104,260,101550,6,0,B|118:317|172:308,1,90
276,308,101978,1,0,0:0:0
328,296,102085,1,0,0:0:0
372,264,102193,2,0,B|393:204|393:204|428:228|472:224|494:186,2,180,8|0|2,0:0|0:0|0:0,0:0:0
256,152,103371,5,2,0:0:0
92,152,103693,1,2,0:0:0
176,220,103907,2,0,B|164:264|164:264|120:280,1,90,8|0,0:0|0:0,0:0:0
336,220,104335,2,0,B|348:264|348:264|392:280,1,90
376,144,104764,6,0,B|377:91|337:27|257:3|177:27|137:91|137:146,2,360,2|8|2,0:0|0:0|0:0,0:0:0
256,132,106693,1,0,0:0:0
256,132,106907,2,0,B|256:236,1,90,0|2,0:0|0:0,0:0:0
180,296,107335,2,0,B|204:332|256:348|308:332|336:293,1,180,8|0,0:0|0:0,0:0:0
332,88,108193,6,0,B|308:52|256:36|204:52|176:91,1,180,2|0,0:0|0:0,0:0:0
88,152,108835,2,0,B|48:120,1,45
88,152,109050,2,0,B|52:176|36:228|52:280|91:308,1,180,8|0,0:0|0:0,0:0:0
180,248,109692,1,0,0:0:0
228,344,109907,2,2,B|300:368|349:309,2,135
268,244,110764,1,8,0:0:0
268,136,110978,1,0,0:0:0
376,136,111192,1,0,0:0:0
376,244,111407,1,0,0:0:0
376,244,111621,1,0,0:0:0
256,192,111728,12,2,115050,0:0:0
256,192,123621,12,0,124907,0:0:0
216,296,125335,6,0,B|208:340|144:360|84:340|77:294,1,180,2|0,0:0|0:0,0:0:0
148,212,125978,2,0,B|88:176,1,45
148,212,126193,2,0,B|156:168|212:152|280:168|286:213,1,180,8|0,0:0|0:0,0:0:0
364,136,126835,1,0,0:0:0
404,36,127050,2,0,B|452:44|463:95,1,90,2|0,0:0|0:0,0:0:0
464,204,127478,1,0,0:0:0
364,240,127693,2,0,B|364:288,1,45
364,240,127907,2,0,B|304:204|232:256|262:325,1,180,8|0,0:0|0:0,0:0:0
188,120,128764,5,2,0:0:0
80,128,128978,1,0,0:0:0
104,232,129192,1,0,0:0:0
188,300,129407,2,0,B|188:344,2,45,0|0|8,0:0|0:0|0:0,0:0:0
272,232,129835,1,0,0:0:0
296,128,130050,2,0,B|334:84|372:108|372:108|412:84|456:128,2,180,0|2|0,0:0|0:0|0:0,0:0:0
372,208,131121,1,2,0:0:0
372,224,131228,1,0,0:0:0
372,240,131335,1,8,0:0:0
300,320,131550,1,0,0:0:0
192,320,131764,6,0,B|144:369|64:353|35:305,2,180,0|2|0,0:0|0:0|0:0,0:0:0
176,268,132728,1,0,0:0:0
160,216,132835,1,2,0:0:0
144,164,132942,1,0,0:0:0
128,112,133050,2,0,B|59:111|14:179|27:233,2,180,8|0|2,0:0|0:0|0:0,0:0:0
228,68,134121,2,0,B|272:44|315:67,1,90
284,316,134550,2,0,B|240:340|196:316,1,90,0|8,0:0|0:0,0:0:0
204,192,134978,1,0,0:0:0
312,192,135192,2,0,B|376:216|416:160|416:160|470:189,1,180,0|2,0:0|0:0,0:0:0
464,80,135835,5,2,0:0:0
360,56,136050,1,2,0:0:0
256,88,136264,1,2,0:0:0
152,56,136478,1,2,0:0:0
48,80,136693,1,2,0:0:0
60,188,136907,1,2,0:0:0
32,292,137121,1,2,0:0:0
128,344,137335,5,2,0:0:0
156,348,137443,1,2,0:0:0
184,348,137550,1,2,0:0:0
208,340,137657,1,2,0:0:0
228,320,137764,1,2,0:0:0
236,296,137871,1,2,0:0:0
236,268,137978,1,2,0:0:0
228,240,138085,1,2,0:0:0
220,212,138193,1,2,0:0:0
220,184,138300,1,2,0:0:0
224,156,138407,1,2,0:0:0
244,136,138514,1,2,0:0:0
272,132,138621,1,2,0:0:0
296,144,138728,1,2,0:0:0
312,168,138835,1,2,0:0:0
312,196,138943,1,2,0:0:0
312,224,139050,6,0,B|288:316|380:316|380:316|412:292,2,180,2|0|8,0:0|0:0|0:0,0:0:0
416,192,140121,1,0,0:0:0
412,91,140335,2,0,B|380:68|380:68|288:68|312:160,1,180,0|2,0:0|0:0,0:0:0
220,216,140978,1,0,0:0:0
192,320,141193,2,0,B|136:312,3,45,0|0|2|0,0:0|0:0|0:0|0:0,0:0:0
104,284,141621,1,8,0:0:0
84,232,141728,1,0,0:0:0
80,180,141835,1,0,0:0:0
88,128,141943,1,0,0:0:0
124,88,142050,2,0,P|160:60|160:60|216:60,1,90
304,104,142478,5,0,0:0:0
252,116,142585,1,0,0:0:0
208,144,142693,1,0,0:0:0
196,196,142800,1,0,0:0:0
200,248,142907,1,0,0:0:0
240,288,143014,1,0,0:0:0
292,296,143121,1,2,0:0:0
340,276,143228,1,0,0:0:0
376,236,143335,1,8,0:0:0
380,180,143443,1,0,0:0:0
352,132,143550,1,0,0:0:0
304,104,143657,1,0,0:0:0
252,116,143764,2,0,B|212:18|106:46,1,180,0|2,0:0|0:0,0:0:0
56,52,144300,5,0,0:0:0
28,96,144407,1,0,0:0:0
24,148,144514,1,0,0:0:0
28,200,144621,1,0,0:0:0
48,252,144728,1,0,0:0:0
88,288,144835,1,2,0:0:0
140,308,144943,1,0,0:0:0
192,316,145050,1,8,0:0:0
244,312,145157,1,0,0:0:0
292,292,145264,1,0,0:0:0
320,244,145371,1,0,0:0:0
336,192,145478,2,0,B|388:136|388:136|352:80,1,135
320,48,145907,6,0,B|256:80|188:48,1,135
152,88,146335,2,0,B|120:137|120:137|172:193,1,135
191,242,146764,2,0,B|255:210|323:246,1,135,8|0,0:0|0:0,0:0:0
321,299,147193,2,0,B|368:344|457:307|452:241,1,180,0|2,0:0|0:0,0:0:0
420,140,147835,1,0,0:0:0
312,156,148050,1,0,0:0:0
312,156,148157,1,0,0:0:0
312,156,148264,1,2,0:0:0
312,156,148371,1,0,0:0:0
312,156,148478,2,0,P|312:88,1,45,8|0,0:0|0:0,0:0:0
264,88,148693,2,0,B|264:28,1,45
264,88,148907,2,0,B|217:43|127:79|132:145,1,180
56,220,149550,5,2,0:0:0
124,304,149764,1,2,0:0:0
192,220,149978,1,2,0:0:0
256,132,150193,1,2,0:0:0
320,220,150407,1,2,0:0:0
392,300,150621,1,2,0:0:0
464,220,150835,1,2,0:0:0
388,144,151050,5,2,0:0:0
400,108,151157,1,2,0:0:0
396,72,151264,1,2,0:0:0
372,44,151371,1,2,0:0:0
340,28,151478,1,2,0:0:0
304,28,151585,1,2,0:0:0
272,44,151693,1,2,0:0:0
256,76,151800,1,2,0:0:0
240,44,151907,1,2,0:0:0
208,28,152014,1,2,0:0:0
172,28,152121,1,2,0:0:0
140,44,152228,1,2,0:0:0
116,72,152335,1,2,0:0:0
112,108,152443,1,2,0:0:0
124,144,152550,1,2,0:0:0
256,192,152764,12,0,154478,0:0:0
357,115,163050,6,0,B|412:120|423:66,2,90,4|0|2,0:0|0:0|0:0,0:0:0
154,115,163693,2,0,B|100:120|88:66,2,90,4|2|0,0:0|0:0|0:0,0:0:0
256,76,164335,1,2,0:0:0
256,308,164550,1,0,0:0:0
156,268,164764,2,0,B|101:263|90:316,1,90,4|0,0:0|0:0,0:0:0
256,308,165193,1,2,0:0:0
356,268,165407,2,2,B|410:263|421:316,1,90,0|2,0:0|0:0,0:0:0
412,152,165835,1,2,0:0:0
256,108,166050,1,2,0:0:0
100,152,166264,1,2,0:0:0
256,192,166478,12,0,167764,0:0:0
112,56,168193,6,0,B|200:56|256:152|256:152|312:56|400:56,1,360,2|8,0:0|0:0,0:0:0
452,148,169264,1,0,0:0:0
352,192,169478,1,0,0:0:0
452,236,169693,1,0,0:0:0
400,328,169907,2,0,B|312:328|256:232|256:232|200:328|112:328,1,360,2|8,0:0|0:0,0:0:0
56,236,170978,5,2,0:0:0
60,208,171085,1,0,0:0:0
72,184,171193,1,2,0:0:0
88,164,171300,1,0,0:0:0
104,144,171407,1,2,0:0:0
128,128,171514,1,0,0:0:0
156,120,171621,2,0,B|156:57,1,45,2|0,0:0|0:0,0:0:0
188,120,171835,2,0,B|188:176,1,45
220,120,172050,2,0,B|220:64,1,45,2|0,0:0|0:0,0:0:0
252,120,172264,2,0,B|252:176,1,45
284,120,172478,2,0,B|284:64,1,45,10|0,0:0|0:0,0:0:0
316,120,172693,2,0,B|316:172,1,45,2|0,0:0|0:0,0:0:0
348,120,172907,2,0,B|348:64,1,45,2|0,0:0|0:0,0:0:0
380,120,173121,2,0,B|380:164,1,45,2|0,0:0|0:0,0:0:0
412,120,173335,6,0,B|489:119|533:215|493:319|357:319|321:235,1,360,2|8,0:0|0:0,0:0:0
136,152,174621,2,0,B|136:204,3,45
135,228,175050,2,0,B|124:308|219:327|258:279,1,180,2|0,0:0|0:0,0:0:0
244,236,175585,1,0,0:0:0
244,192,175693,1,0,0:0:0
276,160,175800,1,0,0:0:0
320,156,175907,2,0,B|357:109|444:124|442:209,1,180,8|0,0:0|0:0,0:0:0
147,85,176764,6,0,B|200:104|219:51,2,90,4|0|2,0:0|0:0|0:0,0:0:0
364,85,177407,2,0,B|312:104|292:51,2,90,4|2|0,0:0|0:0|0:0,0:0:0
364,192,178050,1,2,0:0:0
308,284,178264,1,0,0:0:0
200,284,178478,1,6,0:0:0
144,192,178693,1,2,0:0:0
100,92,178907,2,2,B|120:52|169:39,1,90
256,176,179335,2,2,B|256:48,1,90
412,92,179764,2,2,B|392:52|342:39,1,90
256,192,180193,12,2,183621,0:0:0
256,60,184050,5,2,0:0:0
256,324,184478,1,2,0:0:0
124,192,184907,1,2,0:0:0
388,192,185335,5,2,0:0:0
448,100,185550,1,2,0:0:0
348,56,185764,1,2,0:0:0
296,152,185978,1,2,0:0:0
196,108,186193,1,2,0:0:0
144,204,186407,1,2,0:0:0
240,256,186621,1,2,0:0:0
144,320,186835,5,2,0:0:0
116,316,186943,1,2,0:0:0
92,308,187050,1,2,0:0:0
72,288,187157,1,2,0:0:0
56,268,187264,1,2,0:0:0
48,244,187371,1,2,0:0:0
44,216,187478,1,2,0:0:0
44,188,187585,1,2,0:0:0
48,160,187693,1,2,0:0:0
56,136,187800,1,2,0:0:0
68,112,187907,1,2,0:0:0
84,88,188014,1,2,0:0:0
104,72,188121,1,2,0:0:0
128,60,188228,1,2,0:0:0
152,52,188335,1,2,0:0:0
180,48,188443,1,2,0:0:0
208,52,188550,1,2,0:0:0
232,64,188657,1,2,0:0:0
248,88,188764,6,0,B|264:156|264:156|324:172|365:129,1,180,4|0,0:0|0:0,0:0:0
400,160,189300,1,0,0:0:0
416,204,189407,1,0,0:0:0
400,248,189514,1,0,0:0:0
364,276,189621,2,0,B|322:233|262:249|262:249|246:317,1,180,8|0,0:0|0:0,0:0:0
208,344,190157,1,0,0:0:0
164,344,190264,1,0,0:0:0
128,320,190371,1,0,0:0:0
108,280,190478,2,0,B|64:176|143:118,1,180,4|0,0:0|0:0,0:0:0
184,140,191014,1,0,0:0:0
228,148,191121,1,2,0:0:0
272,140,191228,1,0,0:0:0
312,120,191335,2,0,B|368:192,1,90,8|0,0:0|0:0,0:0:0
312,262,191764,2,0,B|368:190,1,90
476,192,192193,6,0,B|476:96|476:96|396:69,1,180,4|0,0:0|0:0,0:0:0
256,48,192835,1,0,0:0:0
116,68,193050,2,2,B|52:62,1,45,2|0,0:0|0:0,0:0:0
116,68,193264,2,2,B|92:14,1,45,2|0,0:0|0:0,0:0:0
116,68,193478,2,2,B|160:22,1,45,2|0,0:0|0:0,0:0:0
116,68,193693,2,2,B|176:90,1,45,2|0,0:0|0:0,0:0:0
116,66,193907,2,0,B|100:130|100:130|112:202,2,135,2|2|2,0:0|0:0|0:0,0:0:0
200,136,194764,1,8,0:0:0
204,244,194978,1,0,0:0:0
300,296,195193,2,0,B|334:367|412:335,1,135
412,334,195621,6,0,B|445:282|401:242|401:242|401:194|453:190,1,180,4|0,0:0|0:0,0:0:0
472,152,196157,1,0,0:0:0
452,112,196264,1,0,0:0:0
416,84,196371,1,0,0:0:0
372,84,196478,2,0,B|320:50|280:94|280:94|232:94|228:42,1,180,8|0,0:0|0:0,0:0:0
184,44,197014,1,0,0:0:0
140,48,197121,1,0,0:0:0
104,76,197228,1,0,0:0:0
96,120,197335,2,0,B|108:180|168:177|168:177|202:211|168:250,1,180,4|0,0:0|0:0,0:0:0
132,268,197871,1,0,0:0:0
128,312,197978,1,2,0:0:0
172,336,198085,1,0,0:0:0
212,312,198193,2,0,B|304:312,1,90,8|0,0:0|0:0,0:0:0
392,212,198621,2,0,B|300:212,1,90
260,192,198943,1,0,0:0:0
228,160,199050,6,0,B|200:56|89:77,1,180,4|0,0:0|0:0,0:0:0
132,160,199693,1,0,0:0:0
132,296,199907,2,2,B|132:244,1,45,2|0,0:0|0:0,0:0:0
132,296,200121,2,2,B|80:276,1,45,2|0,0:0|0:0,0:0:0
132,296,200336,2,2,B|88:340,1,45,2|0,0:0|0:0,0:0:0
132,296,200550,2,2,B|156:348,1,45,2|0,0:0|0:0,0:0:0
132,296,200764,2,0,B|192:244|260:274,2,135,2|2|2,0:0|0:0|0:0,0:0:0
212,368,201621,1,8,0:0:0
316,344,201835,1,0,0:0:0
328,236,202050,2,0,B|328:160|407:141,1,135
407,141,202478,6,0,B|384:92|336:88|336:88|312:48|264:48,1,180,4|0,0:0|0:0,0:0:0
220,44,203014,1,0,0:0:0
176,44,203121,1,0,0:0:0
136,68,203228,1,0,0:0:0
120,112,203335,2,0,B|101:163|132:200|132:200|121:245|154:279,1,180,8|0,0:0|0:0,0:0:0
168,324,203871,1,0,0:0:0
208,344,203978,1,0,0:0:0
252,344,204085,1,0,0:0:0
292,320,204193,2,0,B|340:319|364:279|364:279|412:275|435:226,1,180,4|0,0:0|0:0,0:0:0
436,180,204728,1,0,0:0:0
416,140,204835,1,2,0:0:0
380,112,204943,1,0,0:0:0
340,96,205050,2,0,B|300:72|256:64,1,90,8|0,0:0|0:0,0:0:0
172,96,205478,2,0,B|212:72|256:64,1,90
256,172,205907,6,0,B|168:208|168:208|128:283,1,180,4|0,0:0|0:0,0:0:0
236,284,206550,1,0,0:0:0
396,292,206764,2,2,B|444:276,1,45,2|0,0:0|0:0,0:0:0
396,292,206978,2,2,B|432:340,1,45,2|0,0:0|0:0,0:0:0
396,292,207193,2,2,B|368:328,1,45,2|0,0:0|0:0,0:0:0
396,292,207407,2,2,B|332:276,1,45,2|0,0:0|0:0,0:0:0
396,292,207621,2,0,B|416:220|416:220|392:152,2,135,2|2|2,0:0|0:0|0:0,0:0:0
308,232,208478,2,0,B|204:232,1,90,8|0,0:0|0:0,0:0:0
128,292,208907,2,0,B|92:228|126:162,1,135
125,162,209335,6,0,B|108:88|208:56|236:136,1,180,4|0,0:0|0:0,0:0:0
280,120,209871,1,0,0:0:0
324,132,209978,1,0,0:0:0
364,116,210085,1,0,0:0:0
404,136,210193,2,0,B|468:176|421:269|344:233,1,180,8|0,0:0|0:0,0:0:0
316,264,210728,1,0,0:0:0
272,280,210835,1,0,0:0:0
228,264,210943,1,0,0:0:0
192,236,211050,2,0,B|118:271|72:177|136:137,1,180,4|0,0:0|0:0,0:0:0
136,92,211585,1,0,0:0:0
168,60,211693,1,2,0:0:0
216,56,211800,1,0,0:0:0
257,74,211907,2,0,B|280:120|332:103,1,90,8|0,0:0|0:0,0:0:0
408,132,212335,2,0,B|385:86|332:103,1,90,0|0,0:0|0:0,0:0:0
344,212,212764,6,0,B|336:276|400:296|400:296|392:332|340:340,1,180,4|0,0:0|0:0,0:0:0
224,328,213407,1,0,0:0:0
116,264,213621,2,2,B|72:288,1,45,2|0,0:0|0:0,0:0:0
116,264,213836,2,2,B|128:332,1,45,2|0,0:0|0:0,0:0:0
116,264,214050,2,2,B|180:284,1,45,2|0,0:0|0:0,0:0:0
116,264,214264,2,2,B|156:220,1,45,2|0,0:0|0:0,0:0:0
116,264,214478,2,2,P|76:144|268:156,1,360
256,232,215550,1,2,0:0:0
252,340,215764,1,2,0:0:0
252,340,215978,1,2,0:0:0
256,232,216193,6,0,B|276:280|340:284|396:248|380:212|380:188|380:164|364:120|416:80|484:96|494:143,2,360,2|8|2,0:0|0:0|0:0,0:0:0
360,44,218335,1,0,0:0:0
256,72,218550,1,2,0:0:0
256,72,218764,1,8,0:0:0
152,44,218978,1,0,0:0:0
212,136,219193,2,0,B|256:156|300:136,2,90,0|0|2,0:0|0:0|0:0,0:0:0
132,208,219835,6,0,B|152:252|132:296,1,90
232,336,220264,1,0,0:0:0
284,356,220371,1,0,0:0:0
332,328,220478,2,0,B|374:336|422:311|447:262|440:215,2,180,8|0|2,0:0|0:0|0:0,0:0:0
332,164,221657,5,2,0:0:0
180,164,221978,1,2,0:0:0
188,272,222193,2,0,B|136:288|107:245,1,90,8|0,0:0|0:0,0:0:0
324,272,222621,2,0,B|376:288|404:245,1,90
256,124,223050,6,0,B|236:76|172:72|116:108|132:144|132:168|132:192|148:236|96:276|28:260|17:212,2,360,2|8|2,0:0|0:0|0:0,0:0:0
256,240,224978,1,0,0:0:0
256,240,225193,2,0,B|256:336,1,90,0|2,0:0|0:0,0:0:0
360,360,225621,2,0,B|404:316|404:240|358:197,1,180,8|0,0:0|0:0,0:0:0
152,24,226478,6,0,B|108:68|108:136|153:186,1,180,2|0,0:0|0:0,0:0:0
224,104,227121,2,0,B|224:48,1,45
224,104,227335,2,0,B|272:104|308:136|308:136|348:104|392:104,1,180,8|0,0:0|0:0,0:0:0
308,28,227978,1,0,0:0:0
308,216,228193,2,2,B|308:352,2,135
256,192,229050,12,0,229907,0:0:0
