osu file format v11

[General]
AudioFilename: Elements - Lindsey Stirling.mp3
AudioLeadIn: 0
PreviewTime: 96140
Countdown: 0
SampleSet: Soft
StackLeniency: 0.7
Mode: 0
LetterboxInBreaks: 0
EpilepsyWarning: 1

[Editor]
Bookmarks: 163050
DistanceSpacing: 0.9
BeatDivisor: 4
GridSize: 4

[Metadata]
Title:Elements
TitleUnicode:Elements
Artist:Lindsey Stirling
ArtistUnicode:Lindsey Stirling
Creator:Katty Pie
Version:Earth
Source:
Tags:violin dubstep Lizellota KersiTyan
BeatmapID:182258
BeatmapSetID:59965

[Difficulty]
HPDrainRate:4
CircleSize:3
OverallDifficulty:4
ApproachRate:5
SliderMultiplier:1.2
SliderTickRate:1

[Events]
//Background and Video events
0,0,"hhh.jpg"
//Break Periods
2,115250,120707
2,152964,161850
//Storyboard Layer 0 (Background)
//Storyboard Layer 1 (Fail)
//Storyboard Layer 2 (Pass)
//Storyboard Layer 3 (Foreground)
//Storyboard Sound Samples
//Background Colour Transformations
3,100,163,162,255

[TimingPoints]
193,428.571428571429,4,2,1,40,1,0
4478,-100,4,2,0,30,0,0
6621,-133.333333333333,4,2,0,30,0,0
7050,-133.333333333333,4,2,1,35,0,0
7478,-133.333333333333,4,2,1,30,0,0
7907,-133.333333333333,4,2,1,25,0,0
8335,-133.333333333333,4,2,1,20,0,0
8764,-133.333333333333,4,2,2,15,0,0
13907,-100,4,2,1,40,0,0
27621,-100,4,2,2,40,0,0
27728,-100,4,2,1,40,0,0
34478,-100,4,2,2,40,0,0
34585,-100,4,2,1,40,0,0
37907,-100,4,2,2,40,0,0
38121,-100,4,2,1,40,0,0
41335,-100,4,2,2,50,0,0
41443,-100,4,2,1,40,0,0
48193,-100,4,2,2,50,0,0
48300,-100,4,2,1,40,0,0
54621,-133.333333333333,4,2,1,40,0,0
55050,-133.333333333333,4,2,1,15,0,0
58478,-100,4,2,2,30,0,0
58585,-100,4,2,0,30,0,0
60193,-100,4,2,2,30,0,0
60300,-100,4,2,0,30,0,0
61907,-100,4,2,1,40,0,0
70050,-100,4,2,1,25,0,0
70478,-100,4,2,1,40,0,1
74764,-100,4,2,0,30,0,1
75621,-100,4,2,1,40,0,1
81621,-100,4,2,0,30,0,1
82478,-100,4,2,1,40,0,1
95335,-100,4,2,0,30,0,1
96193,-100,4,2,1,40,0,0
97907,-100,4,2,2,40,0,1
98014,-100,4,2,1,40,0,1
104764,-100,4,2,2,40,0,1
104871,-100,4,2,1,40,0,1
108193,-100,4,2,2,40,0,1
108300,-100,4,2,1,40,0,1
111621,-100,4,2,1,40,0,0
115050,-100,4,2,2,30,0,0
115157,-100,4,2,1,40,0,0
124907,-100,4,2,1,30,0,0
125335,-100,4,2,2,40,0,0
125443,-100,4,2,1,40,0,0
132193,-100,4,2,2,40,0,0
132300,-100,4,2,1,40,0,0
139050,-100,4,2,2,40,0,0
139157,-100,4,2,1,40,0,0
149335,-100,4,2,1,25,0,0
150193,-100,4,2,1,30,0,0
151050,-100,4,2,1,35,0,0
151907,-100,4,2,1,40,0,0
152764,-100,4,2,2,40,0,0
163050,-100,4,2,1,40,0,0
167335,-100,4,2,0,40,0,0
167764,-100,4,2,1,10,0,0
168193,-100,4,2,2,40,0,0
176764,-100,4,2,1,40,0,0
188764,-100,4,2,1,40,0,1
193050,-100,4,2,0,30,0,1
193907,-100,4,2,1,40,0,1
199907,-100,4,2,0,30,0,1
200764,-100,4,2,1,40,0,1
206764,-100,4,2,0,30,0,1
207621,-100,4,2,1,40,0,1
213621,-100,4,2,0,30,0,1
214478,-100,4,2,1,40,0,0
216193,-100,4,2,2,40,0,1
216300,-100,4,2,1,40,0,1
223050,-100,4,2,2,40,0,1
223157,-100,4,2,1,40,0,1
226478,-100,4,2,2,40,0,1
226585,-100,4,2,1,40,0,1
229907,-100,4,2,1,5,0,0

[Colours]
Combo1 : 33,221,254
Combo2 : 255,150,0
Combo3 : 134,192,24
Combo4 : 167,108,1
SliderBorder : 255,255,255

[HitObjects]
306,43,4478,2,0,B|376:24|416:104|376:200|300:173,1,240,2|0,0:0|0:0,0:0:0
220,104,5764,1,2,0:0:0
112,88,6193,1,2,0:0:0
96,140,6407,1,0,0:0:0
96,190,6621,6,0,P|260:318|428:178,1,450.000017166138,2|2,0:0|0:0,0:0:0
256,192,10478,12,2,13907,0:0:0
352,144,14764,5,8,0:0:0
256,192,15193,1,0,0:0:0
160,144,15621,1,2,0:0:0
64,192,16050,6,0,B|48:224|68:260,1,60,0|2,0:0|0:0,0:0:0
76,300,16478,2,0,B|107:316|144:296,1,60,8|0,0:0|0:0,0:0:0
184,280,16907,2,0,B|215:260|248:284,2,60,0|0|2,0:0|0:0|0:0,0:0:0
176,172,17764,5,0,0:0:0
256,100,18193,1,8,0:0:0
360,136,18621,1,0,0:0:0
460,96,19050,1,2,0:0:0
360,136,19478,6,0,B|360:196,1,60,0|2,0:0|0:0,0:0:0
360,252,19907,2,0,B|360:316,2,60,8|0|0,0:0|0:0|0:0,0:0:0
256,276,20764,6,0,B|228:308|176:308|147:278,1,120,2|0,0:0|0:0,0:0:0
200,184,21621,1,8,0:0:0
144,92,22050,2,0,B|172:60|224:60|252:89,1,120,0|2,0:0|0:0,0:0:0
360,88,22907,5,0,0:0:0
404,116,23121,1,2,0:0:0
416,168,23335,1,8,0:0:0
416,224,23550,2,0,B|416:296,1,60
316,320,24193,6,0,B|280:320|280:320|256:332|256:332|236:320|236:320|204:320,1,120,2|0,0:0|0:0,0:0:0
100,284,25050,1,8,0:0:0
44,192,25478,2,0,B|44:155|44:155|32:131|32:131|44:111|44:111|44:79,1,120,0|2,0:0|0:0,0:0:0
152,80,26335,2,0,B|156:116|188:124,1,60
240,140,26764,1,8,0:0:0
292,124,26978,2,0,B|322:115|326:79,1,60
422,136,27621,6,0,B|460:148|472:208|444:236,2,120,2|0|8,0:0|0:0|0:0,0:0:0
340,208,28907,1,0,0:0:0
372,312,29335,2,0,B|343:340|283:328|271:290,1,120,2|0,0:0|0:0,0:0:0
232,256,29978,1,2,0:0:0
192,292,30193,2,0,B|180:330|120:342|91:313,2,120,8|0|2,0:0|0:0|0:0,0:0:0
128,208,31478,5,0,0:0:0
116,100,31907,1,8,0:0:0
216,56,32335,1,0,0:0:0
308,112,32764,2,0,B|365:81|423:116,1,120,2|0,0:0|0:0,0:0:0
448,216,33621,1,8,0:0:0
424,264,33835,1,0,0:0:0
372,284,34050,2,0,B|336:288|308:280|308:280|296:304|270:320,1,120,0|2,0:0|0:0,0:0:0
168,288,34907,6,0,P|96:288,2,60,0|0|8,0:0|0:0|0:0,0:0:0
168,180,35764,2,0,P|168:96,2,60,0|0|2,0:0|0:0|0:0,0:0:0
276,184,36621,2,0,P|348:184,2,60,0|2|8,0:0|0:0|0:0,0:0:0
276,292,37478,1,0,0:0:0
384,272,37907,6,0,P|444:148|364:96,2,240,2|8|2,0:0|0:0|0:0,0:0:0
280,240,40050,1,2,0:0:0
252,288,40264,1,2,0:0:0
220,328,40478,2,0,B|197:362|137:362|113:330,2,120,8|0|2,0:0|0:0|0:0,0:0:0
164,236,41764,5,0,0:0:0
88,156,42193,1,8,0:0:0
164,80,42621,1,0,0:0:0
240,160,43050,1,2,0:0:0
348,160,43478,1,0,0:0:0
404,160,43693,2,0,B|464:160,1,60,2|8,0:0|0:0,0:0:0
480,268,44335,1,0,0:0:0
384,316,44764,6,0,B|352:368|352:368|294:343,1,120,2|0,0:0|0:0,0:0:0
256,244,45621,1,8,0:0:0
214,344,46050,2,0,B|160:368|160:368|128:316,2,120,0|2|0,0:0|0:0|0:0,0:0:0
240,296,47121,1,2,0:0:0
256,244,47335,2,0,B|288:184|358:201,1,120,8|0,0:0|0:0,0:0:0
459,159,48193,6,0,B|427:219|356:201,1,120,2|0,0:0|0:0,0:0:0
348,148,48835,1,0,0:0:0
316,104,49050,2,0,B|224:48|136:120|160:204,1,240,8|2,0:0|0:0,0:0:0
268,200,50335,1,0,0:0:0
308,236,50550,1,2,0:0:0
360,252,50764,1,8,0:0:0
452,192,51193,1,0,0:0:0
420,88,51621,6,0,P|358:109|308:92,1,120,2|0,0:0|0:0,0:0:0
200,92,52478,2,0,P|150:75|84:100,1,120,8|0,0:0|0:0,0:0:0
148,184,53335,2,0,B|136:216|150:242,2,60,2|0|2,0:0|0:0|0:0,0:0:0
204,184,53978,1,2,0:0:0
260,184,54193,2,0,B|272:216|257:242,2,60,8|0|0,0:0|0:0|0:0,0:0:0
256,192,55050,12,2,58478,0:0:0
102,188,59335,6,2,B|76:132|76:132|100:80,1,120
152,72,59978,1,0,0:0:0
204,60,60193,2,0,B|256:84|256:84|312:57,1,120,2|2,0:0|0:0,0:0:0
360,72,60835,1,0,0:0:0
412,80,61050,2,0,B|436:132|436:132|409:188,2,120,0|0|2,0:0|0:0|0:0,0:0:0
256,228,62764,5,2,0:0:0
148,40,63621,1,2,0:0:0
364,40,64478,1,2,0:0:0
256,228,65335,5,2,0:0:0
200,320,65764,1,2,0:0:0
308,320,66193,1,2,0:0:0
256,228,66621,1,2,0:0:0
256,192,67050,12,4,70478,0:0:0
392,224,71335,5,8,0:0:0
312,296,71764,1,0,0:0:0
204,296,72193,6,0,B|132:308|116:235,1,120,4|0,0:0|0:0,0:0:0
116,184,72835,2,0,B|116:116,1,60,2|8,0:0|0:0,0:0:0
148,80,73264,1,0,0:0:0
200,84,73478,6,0,B|256:124|311:80,2,120,0|4|0,0:0|0:0|0:0,0:0:0
192,192,74764,2,2,B|196:248|196:248|268:244|288:312,1,180
344,312,75621,2,2,B|388:328|431:306,2,90
344,256,76478,1,8,0:0:0
432,192,76907,1,0,0:0:0
344,124,77335,6,0,B|292:92|292:92|242:124,1,120,4|0,0:0|0:0,0:0:0
244,180,77978,1,0,0:0:0
208,220,78193,1,8,0:0:0
100,232,78621,1,0,0:0:0
60,132,79050,6,0,B|68:67|143:57,1,120,4|0,0:0|0:0,0:0:0
196,52,79693,1,2,0:0:0
244,72,79907,1,8,0:0:0
352,68,80335,2,0,B|428:64|440:144,1,120,0|2,0:0|0:0,0:0:0
436,188,80978,5,0,0:0:0
412,236,81193,1,0,0:0:0
324,172,81621,2,2,B|252:224|328:280|248:328,1,180
196,328,82478,2,2,B|152:360|112:328,2,90
200,272,83335,1,8,0:0:0
128,192,83764,1,0,0:0:0
180,96,84193,6,0,B|232:72|232:72|288:96,1,120,4|0,0:0|0:0,0:0:0
344,96,84835,1,0,0:0:0
400,96,85050,1,8,0:0:0
444,192,85478,1,0,0:0:0
404,292,85907,2,0,B|348:316|348:316|296:292,1,120,4|0,0:0|0:0,0:0:0
244,268,86550,2,0,B|184:228,1,60,2|8,0:0|0:0,0:0:0
88,248,87193,6,0,B|56:184|92:124,2,120,0|4|0,0:0|0:0|0:0,0:0:0
176,181,88478,2,0,B|208:84|318:98,1,180
372,100,89335,2,2,B|372:200,2,90
372,44,90193,1,8,0:0:0
264,80,90621,1,0,0:0:0
160,116,91050,6,0,B|132:136|132:136|88:128|88:128|52:152,1,120,4|0,0:0|0:0,0:0:0
52,204,91693,2,0,B|52:280,1,60,0|8,0:0|0:0,0:0:0
148,312,92335,1,0,0:0:0
256,320,92764,2,0,B|284:300|284:300|328:308|328:308|364:284,1,120,4|0,0:0|0:0,0:0:0
364,232,93407,2,0,B|364:156,1,60,2|8,0:0|0:0,0:0:0
292,92,94050,1,0,0:0:0
192,52,94478,5,4,0:0:0
124,136,94907,1,0,0:0:0
120,244,95335,2,2,B|120:316|196:344|251:303,1,180
252,256,96193,2,2,B|240:200|280:144|360:156|360:156|360:88,1,240
316,60,97264,1,2,0:0:0
272,88,97478,1,2,0:0:0
224,64,97693,1,2,0:0:0
172,80,97907,6,0,B|96:104|64:208|144:276,2,240,2|8|2,0:0|0:0|0:0,0:0:0
208,184,100050,2,0,B|276:204,2,60,0|2|8,0:0|0:0|0:0,0:0:0
212,76,100907,1,0,0:0:0
264,76,101121,1,0,0:0:0
320,76,101335,5,2,0:0:0
416,128,101764,1,0,0:0:0
420,236,102193,1,8,0:0:0
332,296,102621,1,0,0:0:0
222,305,103050,2,2,B|180:336|139:306,2,90
224,252,103907,1,8,0:0:0
136,188,104335,1,0,0:0:0
208,108,104764,6,0,B|278:71|374:122|364:228,2,240,2|8|2,0:0|0:0|0:0,0:0:0
256,204,106907,1,0,0:0:0
212,232,107121,1,2,0:0:0
212,286,107335,2,0,B|228:356|303:345,1,120,8|0,0:0|0:0,0:0:0
408,320,108193,6,0,B|392:250|317:261,2,120,2|0|8,0:0|0:0|0:0,0:0:0
492,252,109478,1,0,0:0:0
492,144,109907,2,2,B|492:36,2,90
444,168,110764,1,8,0:0:0
396,148,110978,1,0,0:0:0
348,172,111193,1,0,0:0:0
256,192,111621,12,2,115050,0:0:0
256,192,121907,12,2,125335,0:0:0
200,216,126193,6,0,B|253:264|308:215,1,120,8|0,0:0|0:0,0:0:0
256,120,127050,1,2,0:0:0
356,80,127478,2,0,B|432:80,2,60,0|2|8,0:0|0:0|0:0,0:0:0
256,116,128335,1,0,0:0:0
156,80,128764,5,2,0:0:0
156,80,129193,1,0,0:0:0
142,190,129621,2,0,B|116:224|136:280|179:284,1,120,8|0,0:0|0:0,0:0:0
284,308,130478,2,0,B|310:274|290:218|246:214,1,120
224,164,131121,1,2,0:0:0
248,116,131335,2,0,B|253:73|300:52|340:76,1,120,8|0,0:0|0:0,0:0:0
420,148,132193,5,2,0:0:0
448,252,132621,1,0,0:0:0
408,288,132835,1,0,0:0:0
352,288,133050,2,0,B|292:256|238:290,2,120,8|0|2,0:0|0:0|0:0,0:0:0
352,180,134335,2,0,B|352:108,2,60,0|2|8,0:0|0:0|0:0,0:0:0
244,180,135193,1,0,0:0:0
256,192,135621,12,2,139050,0:0:0
276,276,139907,6,0,B|324:232|312:168,1,120,8|0,0:0|0:0,0:0:0
336,120,140550,1,0,0:0:0
388,116,140764,1,2,0:0:0
444,208,141193,6,0,B|444:272,1,60,0|2,0:0|0:0,0:0:0
408,308,141621,2,0,B|360:352,1,60,8|0,0:0|0:0,0:0:0
308,352,142050,2,0,B|248:316|196:356,1,120,0|2,0:0|0:0,0:0:0
144,360,142693,1,0,0:0:0
88,336,142907,2,0,B|36:296,1,60
32,248,143335,2,0,B|0:180|36:128,2,120,8|0|2,0:0|0:0|0:0,0:0:0
84,236,144407,6,0,B|148:204,1,60
192,220,144835,2,0,B|256:188,1,60,2|8,0:0|0:0,0:0:0
296,172,145264,1,0,0:0:0
344,148,145478,2,0,B|396:120|396:120|449:149,1,120,0|2,0:0|0:0,0:0:0
420,252,146335,1,0,0:0:0
348,336,146764,1,8,0:0:0
240,340,147193,2,0,B|184:360|121:342,1,120,0|2,0:0|0:0,0:0:0
88,300,147835,5,0,0:0:0
56,256,148050,2,0,B|36:200|53:137,1,120,0|8,0:0|0:0,0:0:0
84,92,148693,2,0,B|156:92,1,60
256,192,149335,12,2,152764,0:0:0
308,120,163050,6,0,B|336:104|338:70,2,60,4|0|2,0:0|0:0|0:0,0:0:0
256,132,163693,1,0,0:0:0
204,120,163907,2,0,B|176:104|173:70,2,60,2|0|2,0:0|0:0|0:0,0:0:0
204,228,164764,2,0,B|176:244|173:277,2,60,4|0|0,0:0|0:0|0:0,0:0:0
256,216,165407,1,0,0:0:0
308,228,165621,2,0,B|336:244|338:277,2,60,2|0|2,0:0|0:0|0:0,0:0:0
256,132,166478,6,0,B|278:42|404:40|432:136,2,240,2|8|2,0:0|0:0|0:0,0:0:0
256,240,168621,2,0,B|256:300,2,60,0|0|8,0:0|0:0|0:0,0:0:0
160,192,169478,1,0,0:0:0
256,140,169907,6,0,B|268:71|336:64,1,120,0|0,0:0|0:0,0:0:0
432,115,170764,2,0,B|420:184|352:191,2,120,8|0|0,0:0|0:0|0:0,0:0:0
492,207,172050,1,0,0:0:0
400,263,172478,1,8,0:0:0
308,207,172907,1,0,0:0:0
216,259,173335,6,0,B|193:348|61:348|42:254,2,240,2|8|0,0:0|0:0|0:0,0:0:0
132,187,175478,1,0,0:0:0
136,135,175693,1,0,0:0:0
176,99,175907,1,8,0:0:0
256,175,176335,1,0,0:0:0
348,119,176764,6,0,B|404:87,2,60,4|0|2,0:0|0:0|0:0,0:0:0
356,171,177407,1,0,0:0:0
348,223,177621,2,0,B|404:255,2,60,2|0|2,0:0|0:0|0:0,0:0:0
256,279,178478,2,0,B|256:351,2,60,4|0|2,0:0|0:0|0:0,0:0:0
204,263,179121,1,2,0:0:0
172,219,179335,2,2,B|100:219,2,60
208,179,179978,1,2,0:0:0
261,158,180193,6,0,B|364:131|364:263|473:236,2,240,2|0|0,0:0|0:0|0:0,0:0:0
260,375,182764,2,0,B|157:402|157:270|47:297,1,240,0|2,0:0|0:0,0:0:0
8,196,184050,5,2,0:0:0
100,136,184478,1,2,0:0:0
192,196,184907,1,2,0:0:0
256,192,185335,12,4,188764,0:0:0
116,160,189620,5,8,0:0:0
120,52,190049,1,0,0:0:0
220,96,190478,6,0,B|292:84|308:157,1,120,4|0,0:0|0:0,0:0:0
356,180,191120,2,0,B|356:248,1,60,2|8,0:0|0:0,0:0:0
352,292,191549,1,0,0:0:0
308,324,191763,6,0,B|252:284|197:328,2,120,0|4|0,0:0|0:0|0:0,0:0:0
256,228,193049,2,2,B|256:176|256:176|180:176|160:108,1,180
156,52,193906,2,2,B|112:36|69:58,2,90
212,52,194763,1,8,0:0:0
316,88,195192,1,0,0:0:0
408,140,195620,6,0,B|440:192|440:192|408:242,1,120,4|0,0:0|0:0,0:0:0
380,288,196263,1,0,0:0:0
324,288,196478,1,8,0:0:0
256,204,196906,1,0,0:0:0
156,244,197335,6,0,B|124:192|124:192|156:142,1,120,4|0,0:0|0:0,0:0:0
156,88,197978,1,2,0:0:0
200,56,198192,1,8,0:0:0
308,56,198620,2,0,B|384:52|396:132,1,120,0|4,0:0|0:0,0:0:0
344,204,199478,5,0,0:0:0
236,184,199906,2,2,B|264:220|264:264|264:264|236:296|178:295,1,180
124,296,200763,2,2,B|80:264|40:296,2,90
124,352,201620,1,8,0:0:0
232,352,202049,1,0,0:0:0
268,252,202478,6,0,B|320:228|320:228|376:252,1,120,4|0,0:0|0:0,0:0:0
432,252,203121,2,0,B|480:208,1,60,0|8,0:0|0:0,0:0:0
396,140,203763,1,0,0:0:0
312,72,204192,2,0,B|256:96|256:96|204:72,1,120,4|0,0:0|0:0,0:0:0
148,72,204835,2,0,B|100:116,1,60,0|8,0:0|0:0,0:0:0
52,208,205478,6,0,B|20:272|56:332,2,120,0|4|0,0:0|0:0|0:0,0:0:0
136,276,206763,2,2,B|168:373|278:359,1,180
280,304,207620,2,2,B|280:204,2,90
328,332,208478,1,8,0:0:0
432,304,208906,1,0,0:0:0
432,196,209335,6,0,B|430:162|430:162|470:134|470:134|470:98,1,120,4|0,0:0|0:0,0:0:0
428,60,209978,2,0,B|368:28,1,60,0|8,0:0|0:0,0:0:0
300,112,210620,1,0,0:0:0
192,116,211050,2,0,B|192:148|192:148|156:176|156:176|156:224,1,120,4|0,0:0|0:0,0:0:0
156,272,211693,2,0,B|156:348,1,60,2|8,0:0|0:0,0:0:0
256,292,212335,1,0,0:0:0
356,328,212763,5,4,0:0:0
424,244,213192,1,0,0:0:0
408,140,213620,2,2,B|408:68|332:40|277:81,1,180
224,80,214478,2,2,B|236:136|196:192|116:180|116:180|116:248,1,240
140,292,215549,1,2,0:0:0
180,328,215763,1,2,0:0:0
232,336,215978,1,2,0:0:0
284,324,216192,6,0,B|360:300|392:196|312:128,2,240,2|8|2,0:0|0:0|0:0,0:0:0
252,220,218335,1,0,0:0:0
228,172,218550,1,2,0:0:0
180,144,218764,1,8,0:0:0
136,244,219193,2,0,P|64:244,2,60,0|0|2,0:0|0:0|0:0,0:0:0
112,348,220050,5,0,0:0:0
212,312,220478,1,8,0:0:0
312,352,220906,1,0,0:0:0
412,312,221335,2,2,B|454:281|495:311,2,90
368,280,222192,1,8,0:0:0
368,172,222620,1,0,0:0:0
272,224,223049,6,0,B|202:261|106:210|116:104,2,240,2|8|2,0:0|0:0|0:0,0:0:0
224,128,225192,1,0,0:0:0
256,84,225406,1,2,0:0:0
308,72,225621,2,0,B|360:44|360:44|414:71,1,120,8|0,0:0|0:0,0:0:0
416,180,226478,6,0,B|364:208|364:208|309:180,2,120,2|0|8,0:0|0:0|0:0,0:0:0
444,284,227763,1,0,0:0:0
336,288,228193,2,2,B|316:332|336:376,2,90
332,236,229049,1,8,0:0:0
284,216,229263,1,0,0:0:0
284,160,229478,2,0,B|308:100|286:43,1,120,0|2,0:0|0:0,0:0:0
