osu file format v12

[General]
AudioFilename: Lindsay Stirling Electric Daisy Violin.mp3
AudioLeadIn: 0
PreviewTime: 157402
Countdown: 0
SampleSet: Soft
StackLeniency: 0.7
Mode: 0
LetterboxInBreaks: 0

[Editor]
DistanceSpacing: 0.8
BeatDivisor: 4
GridSize: 4

[Metadata]
Title:Electric Daisy Violin
TitleUnicode:Electric Daisy Violin
Artist:Lindsey Stirling
ArtistUnicode:Lindsey Stirling
Creator:XinCrin
Version:Normal
Source:
Tags:classical crossover
BeatmapID:268851
BeatmapSetID:99566

[Difficulty]
HPDrainRate:5
CircleSize:4
OverallDifficulty:4
ApproachRate:5
SliderMultiplier:1.2
SliderTickRate:2

[Events]
//Background and Video events
0,0,"Wall.png",0,0
Video,0,"video.avi"
//Break Periods
2,131459,145060
//Storyboard Layer 0 (Background)
//Storyboard Layer 1 (Fail)
//Storyboard Layer 2 (Pass)
//Storyboard Layer 3 (Foreground)
//Storyboard Sound Samples
//Background Colour Transformations
3,100,163,162,255

[TimingPoints]
10,468.75,4,2,1,70,1,0
33760,-100,4,2,1,70,0,1
48642,-100,4,2,1,70,0,0
48760,-100,4,2,1,70,0,1
48877,-100,4,2,1,70,0,0
93760,-100,4,2,1,70,0,1
108642,-100,4,2,1,70,0,0
108760,-100,4,2,1,70,0,1
108877,-100,4,2,1,70,0,0
123760,-100,4,2,1,29,0,0
146260,-100,4,2,1,30,0,0
155166,-100,4,2,1,45,0,0
157510,-100,4,2,1,70,0,1
172275,-100,4,2,1,70,0,0
172510,-100,4,2,1,70,0,1
187510,-100,4,2,1,5,0,0

[Colours]
Combo1 : 150,234,74
Combo2 : 234,223,96
Combo3 : 91,173,217
Combo4 : 232,121,240

[HitObjects]
40,312,3760,2,0,P|64:220|192:216,1,240,4|4,0:0|0:0,0:0:0:0:
264,276,5166,1,8,0:0:0:0:
328,348,5635,2,0,P|360:292|340:228,1,120,4|8,0:0|0:0,0:0:0:0:
268,188,6572,1,4,0:0:0:0:
184,236,7041,1,8,0:0:0:0:
176,332,7510,6,0,P|100:280|136:152,1,240,4|4,0:0|0:0,0:0:0:0:
184,72,8916,1,8,0:0:0:0:
280,68,9385,2,0,B|340:76|340:76|404:68,1,120,4|8,0:0|0:0,0:0:0:0:
476,128,10322,2,0,L|444:248,1,120,4|8,0:0|0:0,0:0:0:0:
408,332,11260,5,4,0:0:0:0:
320,292,11728,1,8,0:0:0:0:
288,256,11963,1,0,0:0:0:0:
240,252,12197,2,0,L|120:256,1,120,4|8,0:0|0:0,0:0:0:0:
44,316,13135,2,0,P|28:256|44:196,1,120,4|8,0:0|0:0,0:0:0:0:
84,116,14072,1,4,0:0:0:0:
172,72,14541,1,8,0:0:0:0:
252,124,15010,6,0,P|336:160|444:72,2,240,4|4|4,0:0|0:0|0:0,0:0:0:0:
164,84,17353,1,8,0:0:0:0:
68,100,17822,1,4,0:0:0:0:
52,196,18291,1,8,0:0:0:0:
84,288,18760,6,0,P|132:252|144:196,1,120,4|8,0:0|0:0,0:0:0:0:
240,196,19697,2,0,B|236:260|204:308|204:308|328:348,1,240,4|4,0:0|0:0,0:0:0:0:
416,332,21103,1,8,0:0:0:0:
464,248,21572,2,0,B|480:188|480:188|468:128,1,120,4|8,0:0|0:0,0:0:0:0:
384,88,22510,6,0,P|276:136|180:76,1,240,4|4,0:0|0:0,0:0:0:0:
84,64,23916,1,8,0:0:0:0:
96,160,24385,2,0,P|108:204|92:276,1,120,4|8,0:0|0:0,0:0:0:0:
28,344,25322,2,0,B|96:276|96:276|136:308|204:300|228:260,1,240,4|4,0:0|0:0,0:0:0:0:
276,180,26728,5,8,0:0:0:0:
352,124,27197,2,0,B|412:112|412:112|472:120,2,120,4|8|4,0:0|0:0|0:0,0:0:0:0:
416,196,28603,1,8,0:0:0:0:
344,260,29072,2,0,B|284:260|252:308|252:308|204:300|156:264|180:204,1,240,4|2,0:0|0:0,0:0:0:0:
184,124,30478,5,8,0:0:0:0:
100,80,30947,2,0,P|144:40|208:36,2,120,2|8|2,0:0|0:0|0:0,0:0:0:0:
92,128,32119,2,0,L|76:256,2,120,2|0|2,0:0|0:0|0:0,0:0:0:0:
136,112,33291,2,0,P|192:120|252:96,1,120,8|4,1:0|1:0,0:0:0:0:
340,68,34228,5,8,0:0:0:0:
388,64,34463,1,0,0:0:0:0:
432,80,34697,1,6,0:0:0:0:
440,176,35166,2,0,P|424:236|440:292,1,120,8|6,0:0|0:0,0:0:0:0:
344,300,36103,2,0,B|332:244|344:184|344:184|312:196|260:168|252:124,1,240,8|8,0:0|0:0,0:0:0:0:
256,28,37510,6,0,P|316:56|328:104,2,120,4|8|4,0:0|0:0|0:0,0:0:0:0:
168,64,38916,1,8,0:0:0:0:
72,76,39385,1,6,0:0:0:0:
128,152,39853,1,8,0:0:0:0:
96,244,40322,2,0,P|160:248|208:216,1,120,6|8,0:0|0:0,0:0:0:0:
272,148,41260,6,0,B|308:132|332:92|332:92|368:72|404:72|452:84|460:132,1,240,4|4,1:0|0:0,0:0:0:0:
380,188,42666,1,8,0:0:0:0:
448,256,43135,2,0,P|400:280|332:272,1,120,6|8,0:0|0:0,0:0:0:0:
288,268,43838,1,0,0:0:0:0:
244,248,44072,2,0,P|196:224|131:230,1,120,6|8,0:0|0:0,0:0:0:0:
68,300,45010,6,0,P|128:212|56:116,1,240,6|6,0:0|0:0,0:0:0:0:
108,36,46416,1,8,0:0:0:0:
204,52,46885,2,0,B|264:64|264:64|328:52,1,120,6|8,0:0|0:0,0:0:0:0:
376,132,47822,2,0,L|352:256,1,120,6|8,0:0|0:0,0:0:0:0:
284,316,48760,5,4,1:0:0:0:
256,224,49228,2,0,B|220:240|196:280|196:280|160:300|124:300|76:288|68:240,1,240,8|8,0:0|0:0,0:0:0:0:
128,164,50635,2,0,L|212:72,1,120,4|8,0:0|0:0,0:0:0:0:
304,76,51572,2,0,L|384:164,1,120,6|8,0:0|0:0,0:0:0:0:
336,248,52510,6,0,P|404:264|448:240,2,120,4|8|6,0:0|0:0|0:0,0:0:0:0:
256,196,53916,1,8,0:0:0:0:
176,248,54385,2,0,P|108:264|64:240,1,120,6|8,0:0|0:0,0:0:0:0:
12,164,55322,2,0,P|80:148|124:172,1,120,4|8,0:0|0:0,0:0:0:0:
176,248,56260,6,0,B|220:296|284:288|284:288|332:248|316:180,1,240,4|4,1:0|0:0,0:0:0:0:
256,104,57666,1,8,0:0:0:0:
168,140,58135,2,0,P|108:144|60:104,2,120,6|8|6,0:0|0:0|0:0,0:0:0:0:
256,104,59541,1,8,0:0:0:0:
256,192,60010,12,8,63291,0:0:0:0:
256,300,63760,6,0,P|296:344|364:236,1,240,4|4,0:0|0:0,0:0:0:0:
344,140,65166,1,8,0:0:0:0:
248,132,65635,2,0,P|268:80|328:52,2,120,4|8|4,0:0|0:0|0:0,0:0:0:0:
208,220,67041,2,0,L|172:280,1,60,8|2,0:0|0:0,0:0:0:0:
132,284,67510,6,0,P|108:228|188:80,1,240,4|4,0:0|0:0,0:0:0:0:
272,48,68916,1,8,0:0:0:0:
356,92,69385,2,0,P|408:128|432:184,1,120,4|8,0:0|0:0,0:0:0:0:
404,220,70088,1,0,0:0:0:0:
432,260,70322,2,0,P|408:310|356:346,1,120,4|8,0:0|0:0,0:0:0:0:
268,312,71260,5,6,0:0:0:0:
192,256,71728,1,8,0:0:0:0:
96,260,72197,1,2,0:0:0:0:
64,168,72666,1,8,0:0:0:0:
156,136,73135,2,0,P|188:108|208:32,1,120,2|8,0:0|0:0,0:0:0:0:
304,36,74072,2,0,P|324:108|356:136,1,120,2|8,0:0|0:0,0:0:0:0:
308,220,75010,6,0,P|368:132|484:168,2,240,2|2|2,0:0|0:0|0:0,0:0:0:0:
260,304,77353,1,8,0:0:0:0:
164,316,77822,2,0,B|108:304|108:304|60:256,1,120,2|8,0:0|0:0,0:0:0:0:
36,168,78760,6,0,B|40:104|120:64|120:64|184:108|216:80,1,240,4|4,0:0|0:0,0:0:0:0:
256,168,80166,1,8,0:0:0:0:
300,84,80635,2,0,B|328:109|392:65|392:65|472:105|476:169,1,240,4|4,0:0|0:0,0:0:0:0:
452,260,82041,1,8,0:0:0:0:
404,344,82510,6,0,B|364:312|364:260|364:260|324:248,1,120,2|8,0:0|0:0,0:0:0:0:
256,208,83447,1,2,0:0:0:0:
172,252,83916,2,0,B|149:258|149:258|149:310|109:342,2,120,8|2|8,0:0|0:0|0:0,0:0:0:0:
256,208,85322,2,0,L|256:88,1,120,2|8,0:0|0:0,0:0:0:0:
352,84,86260,6,0,B|256:112|188:56|188:56|120:80,1,240,4|4,0:0|0:0,0:0:0:0:
80,164,87666,1,8,0:0:0:0:
72,260,88135,2,0,P|128:248|168:196,1,120,4|8,0:0|0:0,0:0:0:0:
256,164,89072,1,4,0:0:0:0:
344,200,89541,2,0,P|382:246|438:258,2,120,8|2|0,0:0|0:0|0:0,0:0:0:0:
256,164,90947,6,0,P|212:124|148:120,2,120,2|2|2,0:0|0:0|0:0,0:0:0:0:
264,212,92119,2,0,L|280:340,2,120,2|0|2,0:0|0:0|0:0,0:0:0:0:
220,196,93291,2,0,P|164:204|104:180,1,120,8|4,1:0|1:0,0:0:0:0:
64,96,94228,5,8,0:0:0:0:
104,72,94463,1,0,0:0:0:0:
148,48,94697,2,0,P|204:40|261:62,1,120,6|8,0:0|0:0,0:0:0:0:
276,156,95635,2,0,P|333:178|389:170,1,120,6|8,0:0|0:0,0:0:0:0:
408,124,96338,1,0,0:0:0:0:
424,80,96572,1,6,0:0:0:0:
484,156,97041,2,0,L|456:272,1,120,8|6,0:0|0:0,0:0:0:0:
380,332,97978,5,8,0:0:0:0:
288,308,98447,1,6,0:0:0:0:
212,252,98916,2,0,B|168:252|168:252|136:244|136:244|88:244,1,120,8|6,0:0|0:0,0:0:0:0:
92,148,99853,2,0,B|136:148|136:148|168:140|168:140|211:140,1,120,8|6,0:0|0:0,0:0:0:0:
292,88,100791,1,8,0:0:0:0:
376,40,101260,6,0,P|444:116|384:228,1,240,4|6,1:0|0:0,0:0:0:0:
292,224,102666,1,8,0:0:0:0:
200,196,103135,2,0,P|200:260|236:304,2,120,4|8|6,0:0|0:0|0:0,0:0:0:0:
272,132,104541,1,8,0:0:0:0:
360,88,105010,6,0,L|476:48,2,120,4|8|6,0:0|0:0|0:0,0:0:0:0:
272,132,106416,1,8,0:0:0:0:
184,172,106885,2,0,L|70:211,2,120,6|8|6,0:0|0:0|0:0,0:0:0:0:
264,224,108291,1,8,0:0:0:0:
344,280,108760,5,4,1:0:0:0:
372,188,109228,2,0,B|336:172|312:132|312:132|276:112|240:112|192:124|184:172,1,240,8|8,0:0|0:0,0:0:0:0:
88,168,110635,2,0,P|104:104|144:68,2,120,4|8|6,0:0|0:0|0:0,0:0:0:0:
112,260,112041,1,8,0:0:0:0:
204,292,112510,6,0,B|248:292|248:292|288:280|288:280|328:280,1,120,6|8,0:0|0:0,0:0:0:0:
408,240,113447,2,0,P|428:176|408:120,1,120,6|8,0:0|0:0,0:0:0:0:
332,76,114385,2,0,B|252:108|164:72|164:72|96:88,1,240,4|4,0:0|0:0,0:0:0:0:
40,164,115791,1,8,0:0:0:0:
116,224,116260,6,0,P|172:260|212:300,1,120,6|8,0:0|0:0,0:0:0:0:
304,296,117197,2,0,P|346:255|398:223,1,120,6|8,0:0|0:0,0:0:0:0:
424,132,118135,2,0,B|396:216|472:256|472:256|492:352,2,240,6|6|6,0:0|0:0|0:0,0:0:0:0:
256,192,120244,12,8,123291,0:0:0:0:
48,324,123760,6,0,B|96:360|160:340|176:280|176:280|212:296|252:280,1,240,4|4,0:0|0:0,0:0:0:0:
220,188,125166,1,4,0:0:0:0:
184,100,125635,2,0,B|224:84|260:100|260:100|276:40|340:20|388:56,1,240,4|4,0:0|0:0,0:0:0:0:
364,248,127510,6,0,L|340:124,2,120,4|4|4,0:0|0:0|0:0,0:0:0:0:
320,336,128916,1,4,0:0:0:0:
236,288,129385,2,0,B|192:288|192:288|156:272|156:272|120:272,1,120,4|4,0:0|0:0,0:0:0:0:
60,348,130322,2,0,B|112:292|96:220|96:220|120:160|172:160,1,240,4|2,0:0|0:0,0:0:0:0:
104,336,146260,6,0,B|160:332|188:280|152:224|152:224|208:204|213:166,1,240,2|2,0:0|0:0,0:0:0:0:
256,80,147666,1,4,0:0:0:0:
298,166,148135,2,0,B|304:204|360:224|360:224|324:280|352:332|408:336,1,240,2|2,0:0|0:0,0:0:0:0:
376,148,150010,6,0,P|364:88|304:56,2,120,2|2|2,0:0|0:0|0:0,0:0:0:0:
280,152,151416,1,4,0:0:0:0:
256,192,151885,12,4,153525,0:0:0:0:
256,192,155166,12,0,157041,1:0:0:0:
108,308,157510,6,0,P|160:264|212:256,1,120,4|8,1:0|0:0,0:0:0:0:
256,272,158213,1,0,0:0:0:0:
304,256,158447,2,0,P|353:264|405:308,2,120,6|8|6,0:0|0:0|0:0,0:0:0:0:
256,172,159853,2,0,B|312:140|312:140|372:136,1,120,8|6,0:0|0:0,0:0:0:0:
448,188,160791,1,8,0:0:0:0:
408,276,161260,6,0,B|344:316|256:304|256:304|184:344,1,240,6|6,0:0|0:0,0:0:0:0:
92,320,162666,1,8,0:0:0:0:
124,228,163135,2,0,P|140:172|112:120,1,120,6|8,0:0|0:0,0:0:0:0:
28,76,164072,2,0,P|72:36|136:32,1,120,6|8,0:0|0:0,0:0:0:0:
200,96,165010,6,4,P|268:132|416:60,1,240,4|6,1:0|0:0,0:0:0:0:
488,124,166416,1,8,0:0:0:0:
440,208,166885,2,0,B|420:244|420:244|416:280|416:280|392:320,1,120,6|8,0:0|0:0,0:0:0:0:
300,336,167822,1,6,0:0:0:0:
232,268,168291,1,8,0:0:0:0:
136,260,168760,6,0,P|176:184|316:212,1,240,6|6,0:0|0:0,0:0:0:0:
400,240,170166,1,8,0:0:0:0:
452,160,170635,2,0,P|460:108|420:56,1,120,6|8,0:0|0:0,0:0:0:0:
328,40,171572,2,0,L|88:56,1,240,6|4,0:0|1:0,0:0:0:0:
28,132,172978,5,8,0:0:0:0:
48,224,173447,2,0,P|96:192|116:132,1,120,4|8,0:0|0:0,0:0:0:0:
208,156,174385,2,0,B|188:232|144:272|144:272|244:320,1,240,6|6,0:0|0:0,0:0:0:0:
332,340,175791,1,8,0:0:0:0:
408,280,176260,6,0,B|429:243|429:243|433:207|433:207|453:171,1,120,6|8,0:0|0:0,0:0:0:0:
372,124,177197,2,0,B|352:160|352:160|348:196|348:196|324:236,1,120,6|8,0:0|0:0,0:0:0:0:
232,248,178135,2,0,P|132:244|136:128,1,240,4|4,0:0|0:0,0:0:0:0:
228,152,179541,1,8,0:0:0:0:
264,64,180010,6,0,P|304:80|328:160,2,120,6|8|6,0:0|0:0|0:0,0:0:0:0:
168,52,181416,1,8,0:0:0:0:
76,80,181885,2,0,B|84:124|137:138|137:138|101:194|129:246|185:250,1,240,4|6,0:0|0:0,0:0:0:0:
256,188,183291,1,8,0:0:0:0:
308,108,183760,6,0,P|344:144|344:216,1,120,4|8,0:0|0:0,0:0:0:0:
296,292,184697,2,0,P|356:304|412:280,2,120,2|8|6,0:0|0:0|0:0,0:0:0:0:
200,272,186103,1,8,0:0:0:0:
104,284,186572,1,6,0:0:0:0:
56,200,187041,1,8,0:0:0:0:
256,192,187510,12,0,191260,0:0:0:0:
