osu file format v12

[General]
AudioFilename: Lindsay Stirling Electric Daisy Violin.mp3
AudioLeadIn: 0
PreviewTime: 157402
Countdown: 0
SampleSet: Soft
StackLeniency: 0.7
Mode: 0
LetterboxInBreaks: 0

[Editor]
DistanceSpacing: 0.9
BeatDivisor: 4
GridSize: 4

[Metadata]
Title:Electric Daisy Violin
TitleUnicode:Electric Daisy Violin
Artist:Lindsey Stirling
ArtistUnicode:Lindsey Stirling
Creator:XinCrin
Version:Easy
Source:
Tags:classical crossover
BeatmapID:268892
BeatmapSetID:99566

[Difficulty]
HPDrainRate:2
CircleSize:3
OverallDifficulty:2
ApproachRate:2
SliderMultiplier:1
SliderTickRate:2

[Events]
//Background and Video events
0,0,"Wall.png",0,0
Video,0,"video.avi"
//Break Periods
2,131459,144700
//Storyboard Layer 0 (Background)
//Storyboard Layer 1 (Fail)
//Storyboard Layer 2 (Pass)
//Storyboard Layer 3 (Foreground)
//Storyboard Sound Samples
//Background Colour Transformations
3,100,163,162,255

[TimingPoints]
10,468.75,4,2,1,70,1,0
33760,-100,4,2,1,70,0,1
48642,-100,4,2,1,70,0,0
48760,-100,4,2,1,70,0,1
48877,-100,4,2,1,70,0,0
93760,-100,4,2,1,70,0,1
108642,-100,4,2,1,70,0,0
108760,-100,4,2,1,70,0,1
108877,-100,4,2,1,70,0,0
123760,-100,4,2,1,29,0,0
146260,-100,4,2,1,30,0,0
155166,-100,4,2,1,45,0,0
157510,-100,4,2,1,70,0,1
172275,-100,4,2,1,70,0,0
172510,-100,4,2,1,70,0,1
187510,-100,4,2,1,5,0,0

[Colours]
Combo1 : 150,234,74
Combo2 : 234,223,96
Combo3 : 91,173,217
Combo4 : 232,121,240

[HitObjects]
40,176,3760,2,0,P|148:232|204:188,1,200,4|4,0:0|0:0,0:0:0:0:
128,144,5166,1,8,0:0:0:0:
112,56,5635,2,0,P|160:56|200:88,1,100,4|8,0:0|0:0,0:0:0:0:
252,160,6572,1,4,0:0:0:0:
336,128,7041,1,8,0:0:0:0:
404,188,7510,6,0,P|428:132|416:88,2,100,4|8|4,0:0|0:0|0:0,0:0:0:0:
316,212,8916,2,0,P|348:260|400:280,2,100,8|4|8,0:0|0:0|0:0,0:0:0:0:
236,172,10322,1,4,0:0:0:0:
256,84,10791,1,8,0:0:0:0:
344,104,11260,6,0,B|388:132|440:120|440:120|436:176|472:220,1,200,4|4,0:0|0:0,0:0:0:0:
476,304,12666,1,8,0:0:0:0:
388,328,13135,2,0,B|332:324|332:324|284:340,1,100,4|8,0:0|0:0,0:0:0:0:
200,352,14072,2,0,P|168:312|172:256,1,100,4|8,0:0|0:0,0:0:0:0:
252,232,15010,6,0,P|336:208|352:104,1,200,4|4,0:0|0:0,0:0:0:0:
272,144,16416,1,8,0:0:0:0:
184,136,16885,2,0,P|200:88|244:56,2,100,4|8|4,0:0|0:0|0:0,0:0:0:0:
124,204,18291,1,8,0:0:0:0:
160,284,18760,6,0,B|232:304|296:260|296:260|316:264|348:292,1,200,4|4,0:0|0:0,0:0:0:0:
436,296,20166,1,8,0:0:0:0:
468,212,20635,2,0,B|456:164|456:164|468:100,1,100,4|8,0:0|0:0,0:0:0:0:
408,44,21572,2,0,L|308:28,1,100,4|8,0:0|0:0,0:0:0:0:
284,116,22510,6,0,B|240:140|192:132|192:132|216:180|188:232|136:272|68:240,1,300,4|8,0:0|0:0,0:0:0:0:
108,160,24385,1,4,0:0:0:0:
124,72,24853,2,0,P|172:52|228:52,1,100,8|4,0:0|0:0,0:0:0:0:
308,48,25791,1,8,0:0:0:0:
368,116,26260,6,0,B|432:132|460:184|460:184|440:220|452:276,1,200,4|4,0:0|0:0,0:0:0:0:
440,352,27666,1,8,0:0:0:0:
356,316,28135,2,0,P|308:284|264:280,1,100,4|8,0:0|0:0,0:0:0:0:
180,308,29072,2,0,P|138:303|90:271,1,100,4|8,0:0|0:0,0:0:0:0:
52,192,30010,6,0,P|76:96|164:76,1,200,2|2,0:0|0:0,0:0:0:0:
256,80,31416,1,8,0:0:0:0:
344,76,31885,2,0,B|400:72|400:72|444:56,2,100,2|0|2,0:0|0:0|0:0,0:0:0:0:
300,156,33291,1,8,1:0:0:0:
372,208,33760,6,0,P|288:248|216:184,1,200,4|6,1:0|0:0,0:0:0:0:
132,148,35166,1,8,0:0:0:0:
52,108,35635,2,0,P|48:164|68:208,2,100,4|8|6,0:0|0:0|0:0,0:0:0:0:
128,60,37041,2,0,L|332:80,1,200,8|8,0:0|0:0,0:0:0:0:
396,140,38447,5,6,0:0:0:0:
388,228,38916,2,0,B|372:268|372:268|348:288|348:288|332:320,1,100,8|4,0:0|0:0,0:0:0:0:
256,272,39853,1,8,0:0:0:0:
176,312,40322,2,0,B|164:289|164:289|140:269|140:269|124:229,1,100,6|8,0:0|0:0,0:0:0:0:
180,160,41260,6,0,P|256:104|332:160,1,200,4|6,1:0|0:0,0:0:0:0:
416,192,42666,2,0,P|420:140|396:84,2,100,8|4|8,0:0|0:0|0:0,0:0:0:0:
348,252,44072,2,0,P|328:308|332:352,1,100,6|8,0:0|0:0,0:0:0:0:
240,352,45010,6,0,B|236:292|248:248|248:248|200:264|144:240|120:192|136:136,1,300,6|8,0:0|0:0,0:0:0:0:
224,160,46885,1,6,0:0:0:0:
248,72,47353,2,0,P|292:96|316:144,2,100,8|6|8,0:0|0:0|0:0,0:0:0:0:
156,68,48760,6,0,B|104:128|104:128|88:192|88:192|48:244,1,200,4|4,1:0|0:0,0:0:0:0:
52,324,50166,1,8,0:0:0:0:
140,304,50635,2,0,B|184:276|236:280,1,100,6|8,0:0|0:0,0:0:0:0:
324,300,51572,2,0,P|428:296|460:208,1,200,6|4,0:0|0:0,0:0:0:0:
372,220,52978,5,8,0:0:0:0:
284,196,53447,2,0,P|312:152|356:132,2,100,6|8|4,0:0|0:0|0:0,0:0:0:0:
220,260,54853,2,0,B|164:232|100:248|100:248|72:220|80:172,1,200,8|8,0:0|0:0,0:0:0:0:
128,100,56260,6,0,P|176:68|224:64,1,100,4|8,0:0|0:0,0:0:0:0:
232,152,57197,2,0,P|273:147|321:115,1,100,6|8,0:0|0:0,0:0:0:0:
372,40,58135,2,0,L|352:240,1,200,4|6,0:0|0:0,0:0:0:0:
288,304,59541,1,8,0:0:0:0:
256,192,60010,12,2,62353,0:0:0:0:
48,168,63291,5,8,0:0:0:0:
56,256,63760,2,0,B|96:288|112:340|112:340|184:356|232:328|248:288|228:236,1,300,4|8,0:0|0:0,0:0:0:0:
168,172,65635,2,0,P|216:152|276:160,1,100,4|8,0:0|0:0,0:0:0:0:
332,212,66572,2,0,P|352:156|340:108,1,100,4|8,0:0|0:0,0:0:0:0:
420,64,67510,6,0,P|440:164|408:268,1,200,4|4,0:0|0:0,0:0:0:0:
356,328,68916,1,8,0:0:0:0:
272,292,69385,2,0,L|172:280,1,100,4|8,0:0|0:0,0:0:0:0:
84,304,70322,2,0,P|72:212|152:148,1,200,4|6,0:0|0:0,0:0:0:0:
236,168,71728,5,8,0:0:0:0:
296,236,72197,2,0,P|352:244|392:220,1,100,2|8,0:0|0:0,0:0:0:0:
436,148,73135,2,0,P|436:96|412:50,2,100,2|8|2,0:0|0:0|0:0,0:0:0:0:
348,156,74541,1,8,0:0:0:0:
304,80,75010,5,2,0:0:0:0:
220,48,75478,1,8,0:0:0:0:
132,52,75947,1,2,0:0:0:0:
76,124,76416,2,0,P|36:180|64:304,1,200,6|8,0:0|0:0,0:0:0:0:
132,244,77822,2,0,P|176:296|308:328,1,200,2|4,0:0|0:0,0:0:0:0:
372,276,79228,6,0,P|400:228|448:192,2,100,8|4|8,0:0|0:0|0:0,0:0:0:0:
284,264,80635,2,0,P|216:208|176:96,1,200,4|4,0:0|0:0,0:0:0:0:
252,60,82041,1,8,0:0:0:0:
340,80,82510,6,0,P|376:120|424:128,1,100,2|8,0:0|0:0,0:0:0:0:
460,208,83447,2,0,L|424:312,1,100,2|8,0:0|0:0,0:0:0:0:
336,308,84385,2,0,P|288:276|246:271,1,100,2|8,0:0|0:0,0:0:0:0:
176,328,85322,2,0,P|224:260|164:172,1,200,6|4,0:0|0:0,0:0:0:0:
124,252,86728,5,8,0:0:0:0:
84,172,87197,2,0,P|100:124|140:92,1,100,4|8,0:0|0:0,0:0:0:0:
228,100,88135,2,0,B|300:116|364:80|364:80|432:104,1,200,4|4,0:0|0:0,0:0:0:0:
444,188,89541,1,8,0:0:0:0:
408,268,90010,6,0,P|356:312|264:296,2,150,2|0|2,0:0|0:0|0:0,0:0:0:0:
324,232,91885,2,0,P|264:224|224:236,1,100,0|2,0:0|0:0,0:0:0:0:
160,296,92822,2,0,P|140:244|148:196,1,100,0|8,0:0|1:0,0:0:0:0:
56,208,93760,6,0,P|168:144|168:72,1,200,4|6,1:0|0:0,0:0:0:0:
256,56,95166,2,0,L|360:60,1,100,8|4,0:0|0:0,0:0:0:0:
436,108,96103,2,0,P|448:164|432:216,1,100,8|6,0:0|0:0,0:0:0:0:
352,228,97041,1,8,0:0:0:0:
264,216,97510,6,0,B|196:208|144:248|144:248|156:276|140:328,1,200,6|4,0:0|0:0,0:0:0:0:
64,276,98916,2,0,P|60:224|88:180,1,100,8|4,0:0|0:0,0:0:0:0:
160,140,99853,2,0,P|208:128|264:128,1,100,8|4,0:0|0:0,0:0:0:0:
328,184,100791,1,8,0:0:0:0:
368,264,101260,6,0,P|424:192|372:104,1,200,4|4,1:0|0:0,0:0:0:0:
300,60,102666,1,8,0:0:0:0:
236,120,103135,2,0,L|116:128,1,100,6|8,0:0|0:0,0:0:0:0:
112,212,104072,2,0,P|124:264|116:316,1,100,6|8,0:0|0:0,0:0:0:0:
204,336,105010,6,0,B|272:280|272:280|304:296|352:304|404:264|412:224|400:172,1,300,6|8,0:0|0:0,0:0:0:0:
316,200,106885,1,4,0:0:0:0:
232,172,107353,2,0,P|264:128|304:108,2,100,8|4|8,0:0|0:0|0:0,0:0:0:0:
148,204,108760,6,0,B|148:268|92:308|92:252|132:280|132:280|148:292|148:328|196:344,1,200,4|4,1:0|0:0,0:0:0:0:
252,280,110166,1,8,0:0:0:0:
336,300,110635,2,0,P|388:288|436:296,1,100,6|8,0:0|0:0,0:0:0:0:
440,204,111572,2,0,P|336:172|324:88,1,200,6|6,0:0|0:0,0:0:0:0:
240,56,112978,6,0,L|144:96,1,100,8|4,0:0|0:0,0:0:0:0:
80,152,113916,2,0,P|64:216|76:260,1,100,8|4,0:0|0:0,0:0:0:0:
152,288,114853,2,0,B|196:272|196:272|224:304|292:312|328:252,1,200,8|8,0:0|0:0,0:0:0:0:
260,196,116260,6,0,P|312:168|364:168,1,100,6|8,0:0|0:0,0:0:0:0:
432,212,117197,2,0,P|440:156|424:108,1,100,6|8,0:0|0:0,0:0:0:0:
356,64,118135,2,0,P|396:36|452:32,2,100,4|8|6,0:0|0:0|0:0,0:0:0:0:
312,144,119541,1,8,0:0:0:0:
256,192,120010,12,2,122353,0:0:0:0:
64,64,123291,5,8,0:0:0:0:
152,92,123760,2,0,B|164:196|312:196|300:360,1,300,4|4,0:0|0:0,0:0:0:0:
212,336,125635,2,0,B|200:191|348:191|360:87,1,300,4|4,0:0|0:0,0:0:0:0:
276,64,127510,6,0,P|252:104|208:132,1,100,4|4,0:0|0:0,0:0:0:0:
120,144,128447,2,0,P|144:196|180:216,1,100,4|4,0:0|0:0,0:0:0:0:
224,296,129385,2,0,P|260:268|276:216,1,100,4|4,0:0|0:0,0:0:0:0:
272,128,130322,2,0,P|352:220|428:208,1,200,4|2,0:0|0:0,0:0:0:0:
40,228,146260,6,0,P|116:320|176:280,1,200,2|2,0:0|0:0,0:0:0:0:
256,276,147666,1,4,0:0:0:0:
344,292,148135,2,0,P|396:320|472:228,1,200,2|2,0:0|0:0,0:0:0:0:
336,108,150010,6,0,P|312:156|304:204,1,100,2|4,0:0|0:0,0:0:0:0:
207,201,150947,2,0,P|200:156|176:108,1,100,2|4,0:0|0:0,0:0:0:0:
256,192,151885,12,0,153525,0:0:0:0:
256,192,155166,12,0,157041,1:0:0:0:
48,120,157510,6,0,B|128:88|192:128|192:128|172:180|200:240|256:248,1,300,4|8,1:0|0:0,0:0:0:0:
280,160,159385,2,0,P|340:120|380:112,1,100,6|8,0:0|0:0,0:0:0:0:
452,136,160322,2,0,P|448:76|416:40,1,100,6|8,0:0|0:0,0:0:0:0:
336,28,161260,5,6,0:0:0:0:
256,68,161728,1,8,0:0:0:0:
184,120,162197,2,0,P|152:192|184:312,1,200,6|4,0:0|0:0,0:0:0:0:
268,304,163603,1,8,0:0:0:0:
348,264,164072,2,0,P|388:232|440:232,1,100,6|8,0:0|0:0,0:0:0:0:
456,320,165010,6,0,L|456:100,1,200,4|4,1:0|0:0,0:0:0:0:
380,72,166416,1,8,0:0:0:0:
296,100,166885,2,0,P|252:116|200:100,1,100,4|8,0:0|0:0,0:0:0:0:
120,136,167822,2,0,L|76:228,1,100,6|8,0:0|0:0,0:0:0:0:
152,272,168760,6,0,B|204:248|264:260|264:260|280:304|332:320,1,200,6|6,0:0|0:0,0:0:0:0:
352,232,170166,1,8,0:0:0:0:
368,144,170635,2,0,P|416:164|440:212,2,100,4|8|4,0:0|0:0|0:0,0:0:0:0:
284,108,172041,1,8,0:0:0:0:
196,84,172510,6,0,L|88:88,1,100,4|8,1:0|0:0,0:0:0:0:
56,168,173447,2,0,P|68:240|188:236,1,200,6|6,0:0|0:0,0:0:0:0:
256,200,174853,1,8,0:0:0:0:
332,152,175322,2,0,P|376:128|440:132,1,100,6|8,0:0|0:0,0:0:0:0:
400,212,176260,6,0,P|360:288|236:284,1,200,6|4,0:0|0:0,0:0:0:0:
184,244,177666,1,8,0:0:0:0:
96,252,178135,2,0,P|112:196|144:164,1,100,4|8,0:0|0:0,0:0:0:0:
232,164,179072,2,0,L|340:184,1,100,4|8,0:0|0:0,0:0:0:0:
356,268,180010,6,0,P|364:140|436:108,2,200,4|6|4,1:0|0:0|0:0,0:0:0:0:
276,308,182353,1,8,0:0:0:0:
188,312,182822,1,6,0:0:0:0:
108,272,183291,1,8,0:0:0:0:
116,184,183760,6,0,P|136:132|124:88,1,100,4|8,0:0|0:0,0:0:0:0:
212,68,184697,1,4,0:0:0:0:
304,68,185166,1,8,0:0:0:0:
392,92,185635,2,0,P|381:133|401:185,1,100,6|8,0:0|0:0,0:0:0:0:
472,244,186572,2,0,P|492:192|481:150,1,100,6|8,0:0|0:0,0:0:0:0:
256,192,187510,12,0,191260,0:0:0:0:
