osu file format v9

[General]
AudioFilename: Violin- Lindsey Stirling- Crystallize.mp3
AudioLeadIn: 0
PreviewTime: 68791
Countdown: 1
SampleSet: Soft
StackLeniency: 0.7
Mode: 0
LetterboxInBreaks: 0

[Editor]
DistanceSpacing: 1
BeatDivisor: 4
GridSize: 4

[Metadata]
Title:Crystallize
Artist:Lindsey Stirling
Creator:Katty Pie
Version:Red Snow
Source:
Tags:kazumikos Snow dubstep

[Difficulty]
HPDrainRate:6
CircleSize:4
OverallDifficulty:6
ApproachRate:8
SliderMultiplier:1.7
SliderTickRate:2

[Events]
//Background and Video events
0,0,"ddddd.jpg"
//Break Periods
2,123932,134983
2,171933,181269
//Storyboard Layer 0 (Background)
//Storyboard Layer 1 (Fail)
//Storyboard Layer 2 (Pass)
//Storyboard Layer 3 (Foreground)
Sprite,Foreground,Centre,"SB\n2.png",320,240 M,0,305,,166,392 S,0,305,,0.6 F,0,305,1162,0,1 F,0,1162,26019,1 F,0,26019,26876,1,0
//Storyboard Sound Samples
//Background Colour Transformations
3,100,163,162,255

[TimingPoints]
305,428.571428571429,4,2,1,50,1,0
68876,-100,4,2,1,50,0,1
96305,-100,4,2,1,50,0,0
123197,-133.333333333333,4,2,1,35,0,0
123733,-100,4,2,1,20,0,0
137447,-100,4,2,1,50,0,0
171197,-133.333333333333,4,2,1,35,0,0
171733,-100,4,2,1,20,0,0
184590,-100,4,2,1,5,0,0
185447,-100,4,2,1,50,0,1
212876,-100,4,2,1,50,0,0
239769,-133.333333333333,4,2,1,35,0,0
240305,-133.333333333333,4,2,1,20,0,0

[Colours]
Combo1 : 0,128,192
Combo2 : 255,255,255
Combo3 : 128,128,255
SliderBorder : 255,255,255

[HitObjects]
340,68,27733,2,0,B|300:16|212:28|196:104,2,170,0|0|8
396,132,28805,2,0,B|352:164|304:144,1,85
420,208,29233,1,0
280,128,29447,6,0,B|280:172|304:220,1,85
176,164,29876,2,0,B|196:208|236:236,1,85
96,184,30305,2,0,B|76:120|136:60|204:88,2,170,8|0|0
124,264,31376,2,0,B|144:308|128:356,1,85
200,188,31805,2,0,B|188:232|204:280,1,85,0|8
280,240,32233,5,0
201,272,32447,1,0
200,188,32662,1,0
200,188,32876,2,0,B|236:160|284:160,1,85
320,156,33197,2,0,B|304:272|376:360,1,212.5,0|8
200,188,34162,2,0,B|212:140|240:96,1,85
264,208,34590,6,0,B|180:224|80:208,1,170,0|0
12,292,35233,1,0
94,210,35447,1,8
180,296,35662,1,0
264,208,35876,1,0
264,208,36305,2,0,B|296:176|344:168,1,85
428,40,36733,2,0,B|424:88|392:120,1,85
344,288,37162,6,0,B|380:236|384:164|320:116,1,170,8|0
40,52,38019,2,0,B|4:104|12:180|64:224,1,170
144,124,38662,1,0
144,124,38876,1,8
144,124,39305,1,0
400,76,39733,6,0,B|348:28|272:28,2,127.5,0|0|0
416,96,40483,1,0
432,116,40590,1,8
368,228,40805,2,0,B|356:256|364:292,2,42.5
272,136,41233,1,0
244,140,41340,1,0
212,144,41447,6,0,B|164:152|128:144,1,85
44,120,41876,1,0
128,144,42090,1,0
72,208,42305,2,0,B|48:284|184:272|160:348,1,170,8|0
162,334,42947,1,0
162,334,43162,1,0
448,240,43590,6,0,B|480:272|484:320,2,85,0|0|8
384,184,44233,1,0
384,184,44447,2,0,B|364:236|380:280,1,85
400,348,44876,2,0,B|340:280|240:280,1,170
249,280,45519,1,0
320,168,45733,1,8
224,236,45947,6,0,B|188:252|140:252,2,85
320,168,46590,2,0,B|356:144|408:144,1,85
256,116,47019,2,0,B|336:92,1,85
192,60,47447,2,0,B|280:60|360:20,2,170,8|0|0
192,60,48733,5,0
120,104,48947,2,0,B|40:148,2,85,0|8|0
132,188,49590,2,0,B|120:252|176:308|248:284,1,170
234,287,50233,1,0
220,204,50447,1,0
292,180,50662,1,0
308,264,50876,6,0,B|328:304|372:320,1,85,8|0
364,208,51304,2,0,B|405:223|425:263,1,85
488,160,51733,2,0,B|456:244|500:328,1,170
424,264,52376,1,0
364,208,52590,1,8
328,132,52804,1,0
332,48,53019,1,0
76,92,53447,5,0
4,136,53662,2,0,B|12:184|56:208,2,85
76,92,54304,2,0,B|72:152|148:144|144:208,2,127.5,8|0|0
80,76,55054,1,0
84,60,55162,1,4
180,100,55376,5,0
280,92,55590,1,0
344,172,55804,1,0
304,264,56019,1,8
204,276,56233,1,0
140,196,56447,5,0
244,184,56662,1,0
204,276,56876,2,0,B|184:316|144:344,1,85
84,260,57304,2,0,B|104:220|144:192,1,85
160,104,57733,2,0,B|204:92|248:100,1,85,8|0
340,120,58162,1,0
424,176,58376,1,0
340,120,58590,5,4
332,228,58804,1,0
236,268,59019,1,0
156,208,59233,1,0
160,104,59447,1,8
256,64,59662,1,0
340,120,59876,1,0
248,164,60090,1,0
156,208,60304,6,0,B|76:240,1,85
236,268,60733,2,0,B|156:300,2,85,0|0|8
328,228,61376,1,0
328,228,61590,2,0,B|328:272|312:316,1,85
160,300,62019,5,4
160,300,62447,1,0
420,224,62876,1,4
420,224,63304,1,0
224,40,63733,1,4
224,40,64162,1,0
160,300,64590,1,4
160,300,65019,1,0
420,224,65447,6,0,B|328:232,1,85,4|0
160,300,65876,2,0,B|208:224,1,85,4|0
224,40,66304,2,0,B|268:112,1,85,4|0
336,232,66733,1,4
204,228,66947,1,4
268,112,67162,1,4
256,192,67269,12,4,68876
316,100,69304,6,0,B|296:144|296:188,1,85,0|0
256,64,69733,2,0,B|344:52|428:96,1,170,8|0
408,208,70376,2,0,B|368:208|324:196,1,85,0|2
208,140,70804,5,0
324,196,71019,1,2
160,232,71233,1,0
324,196,71447,1,10
228,316,71662,1,0
324,196,71876,6,0,B|292:120|236:52,1,170,2|4
208,140,72519,2,0,B|208:184|228:232,1,85
340,280,72947,2,0,B|340:236|320:188,1,85,0|8
412,96,73376,1,0
324,196,73590,1,0
208,140,73804,2,0,B|168:120,1,42.5
136,104,74019,6,0,B|84:144|0:144,2,127.5,2|2|0
188,36,74876,2,0,B|252:36|328:56,2,127.5,10|0|0
208,140,75733,5,4
256,268,75947,1,0
348,168,76162,1,0
200,216,76376,1,0
288,112,76590,1,8
328,244,76804,1,0
424,144,77019,5,0
272,188,77233,1,0
364,92,77447,1,0
408,224,77662,2,0,B|420:268|400:312,1,85
424,144,78090,2,0,B|380:144|340:164,2,85,0|8|0
364,92,78733,6,0,B|292:52|196:52,1,170,0|4
96,144,79376,1,0
244,176,79590,1,0
132,268,79804,1,0
244,176,80019,1,8
96,144,80233,1,0
220,56,80447,2,0,B|264:40|304:40,1,85
432,120,80876,6,0,B|424:160|392:200,1,85,2|0
380,224,81197,2,0,B|360:264|316:288,1,85,2|0
292,304,81519,2,0,B|252:328|208:328,1,85,0|10
220,56,82162,2,0,B|196:84|204:136|264:160|284:176|260:212,1,170,0|4
180,292,82804,5,0
264,204,83019,1,0
152,176,83233,1,0
264,204,83447,2,0,B|348:232,1,85,8|0
308,104,83876,2,0,B|324:148|356:180,2,85,0|0|2
376,60,84519,5,0
268,108,84733,2,0,B|176:120,1,85,2|0
344,204,85162,2,0,B|252:216,1,85,10|0
436,308,85590,2,0,B|344:320,1,85,2|0
416,188,86019,6,0,B|440:152|440:104,2,85,4|0|0
296,272,86662,1,0
416,188,86876,1,8
296,272,87090,1,0
416,188,87304,1,0
296,272,87519,1,0
332,128,87733,6,0,B|276:104|204:104,2,127.5,2|2|0
260,176,88590,2,0,B|196:232|144:312,1,170,10|0
149,304,89447,6,0,B|136:260|136:216,1,85,4|0
136,220,89876,1,0
96,80,90090,2,0,B|80:124|80:168,1,85,0|8
80,163,90519,1,0
236,140,90733,2,0,B|192:140|144:148,1,85
151,146,91162,1,0
192,72,91376,6,0,B|236:60|276:60,1,85
400,128,91804,2,0,B|356:140|316:140,1,85,0|8
372,248,92233,1,0
400,128,92447,1,0
460,236,92662,1,0
484,120,92876,6,0,B|496:76|488:32,2,85,4|0|0
460,236,93519,1,0
400,128,93733,2,0,B|384:88|348:52,2,85,8|0|0
460,236,94376,1,0
384,200,94590,2,0,B|320:180|248:208,2,127.5,2|2|0
344,276,95447,6,0,B|296:320|232:256|180:300,2,170,10|0|4
100,212,96733,1,0
164,156,96947,1,0
100,212,97162,1,10
304,36,97590,1,0
100,212,98019,5,0
368,252,98447,1,0
448,280,98662,1,0
368,252,98876,2,0,B|336:168|376:88,1,170,10|0
135,296,99733,6,0,B|176:220|144:132,1,170
100,60,100376,2,0,B|140:40|184:40,1,85,0|10
144,132,100804,2,0,B|104:152|60:152,2,85
220,92,101447,5,0
364,144,101769,1,0
272,264,102090,2,0,B|244:300|244:344,1,85,0|10
364,144,102733,2,0,B|392:112|436:92,1,85
376,216,103162,2,0,B|296:232|308:128|224:148,2,170,0|0|10
104,264,104447,5,0
104,264,104662,1,0
104,264,104876,1,0
276,28,105304,2,0,B|260:68|264:116,1,85
280,196,105733,2,0,B|292:288|240:360,1,170,10|0
64,156,106590,6,0,B|13:225|25:317,1,170
25,317,107233,1,0
25,317,107447,1,8
25,317,107876,1,0
44,32,108304,5,0
128,40,108519,1,0
212,148,108733,1,0
128,140,108947,1,0
224,248,109162,1,10
308,256,109376,1,0
400,148,109590,1,0
308,256,109804,1,0
320,116,110019,6,0,B|340:56|424:40|464:92,1,170
400,148,110662,1,0
344,212,110876,2,0,B|396:252|460:232|484:172,1,170,10|0
400,148,111519,1,0
320,116,111733,6,0,B|280:100|232:100,1,85
344,212,112162,2,0,B|300:212|260:196,1,85
116,144,112590,2,0,B|160:144|200:160,1,85,10|0
68,228,113019,2,0,B|108:244|156:244,1,85
32,136,113447,6,0,B|40:64|112:36|172:76,2,170,0|0|10
32,136,114519,1,0
68,228,114733,1,0
140,296,114947,1,0
172,208,115162,6,0,B|192:168|228:144,1,85
256,128,115483,2,0,B|284:188|352:220,1,127.5
440,148,116019,2,0,B|404:68|320:32,1,170,10|0
172,208,116876,6,0,B|208:288|292:324,1,170,0|0
372,232,117519,1,0
292,324,117733,1,10
80,160,118162,2,0,B|116:136|164:120,1,85
48,148,118590,2,0,B|48:232|104:312,1,170
172,208,119233,1,0
172,208,119447,1,10
172,208,119876,6,0,B|348:172,1,170
338,173,120519,1,0
338,173,120733,1,0
480,292,121162,2,0,B|304:328,1,170,10|0
428,168,122019,2,0,B|464:108|428:40,2,127.5
312,296,122876,2,0,B|332:256|368:228,1,85,10|0
428,168,123304,6,0,B|400:132|344:168|312:120,1,127.499996200204,2|0
256,192,135733,12,0,137447
204,124,137876,22,0,B|120:144,2,85,0|0|8
288,100,138519,1,0
312,128,138626,1,0
332,152,138733,2,0,B|360:184|372:228,1,85
404,104,139162,5,0
371,226,139376,1,0
248,192,139590,1,0
216,312,139804,1,0
248,192,140019,2,0,B|180:136|92:108,1,170,8|0
99,110,140662,1,0
99,110,140876,5,0
368,68,141304,2,0,B|324:68|280:92,1,85
286,88,141733,1,8
284,340,142162,2,0,B|328:352|376:344,1,85
448,300,142590,6,0,B|488:244|456:172,2,127.5
368,276,143447,2,0,B|328:264|272:264,2,85,8|0|0
336,196,144090,1,0
336,196,144304,6,0,B|272:132|172:132,1,170
100,148,144947,1,0
182,132,145162,1,8
182,132,145376,1,0
100,148,145590,2,0,B|92:100|124:64,1,85
20,172,146019,6,0,B|32:232|116:256|156:212,1,170
404,124,146876,2,0,B|392:64|308:40|268:84,2,170,8|0|0
236,264,148162,5,0
180,200,148376,1,0
100,232,148590,2,0,B|56:232|24:192,1,85,8|0
180,200,149019,2,0,B|204:164|204:116,1,85
236,264,149447,5,0
26,195,149769,1,0
232,72,150090,2,0,B|268:72|292:80,2,42.5,0|0|8
180,200,150519,2,0,B|200:232|236:264,1,85
320,296,150947,2,0,B|364:304,1,42.5
400,308,151162,6,0,B|368:228|368:136,1,170
376,56,151805,1,0
368,142,152019,1,8
124,72,152447,1,0
124,72,152876,6,0,B|104:108|112:156,1,85
136,236,153305,2,0,B|144:260|140:284,2,42.5
128,152,153733,2,0,B|196:96|288:112,1,170,8|0
368,140,154376,1,0
392,264,154590,6,0,B|464:212|448:108,1,170
368,140,155233,1,0
240,164,155447,1,8
264,288,155662,1,0
392,264,155876,1,0
444,104,156305,6,0,B|420:60|372:48|332:64,2,127.5
432,188,157162,1,8
392,264,157376,1,0
432,188,157590,1,0
204,68,158019,6,0,B|204:108|180:152,1,85
72,152,158447,2,0,B|72:196|96:236,1,85
204,232,158876,2,0,B|204:272|180:316,1,85,8|0
136,108,159305,2,0,B|140:196,1,85
276,308,159733,6,0,B|268:132,1,170
268,52,160376,1,0
268,138,160590,1,8
268,138,161019,1,0
72,304,161447,1,0
128,168,161769,1,0
264,216,162090,2,0,B|308:228|352:228,2,85,0|8|0
192,260,162733,6,0,B|144:188|168:96,1,170
104,40,163376,2,0,B|88:76|84:124,1,85
232,40,163805,2,0,B|248:80|252:124,1,85,0|8
168,96,164233,2,0,B|160:140|164:184,1,85
164,180,164662,1,0
336,108,164876,5,0
220,240,165090,1,0
344,188,165305,1,0
276,296,165519,1,0
352,268,165733,2,0,B|396:248|444:248,1,85,8|0
344,188,166162,2,0,B|380:164|428:152,1,85
336,108,166590,6,0,B|368:80|412:60,2,85
268,156,167233,2,0,B|228:176|180:168,1,85,0|8
185,168,167662,1,0
104,144,167876,2,0,B|64:220|96:312,1,170
168,268,168519,6,0,B|184:312|168:352,1,85
232,220,168947,2,0,B|244:304,1,85,0|8
296,176,169376,2,0,B|292:224|320:260,1,85
228,144,169805,1,0
84,160,170019,1,0
228,144,170233,5,0
84,160,170447,1,0
228,144,170662,2,0,B|272:136|308:120,1,85,0|8
309,119,171090,1,0
392,56,171305,6,0,B|424:112|404:188,1,127.499996200204
256,192,182019,12,0,184590
156,120,185447,5,4
156,120,185662,1,0
156,120,185876,2,0,B|116:136|72:136,1,85,0|0
188,56,186305,2,0,B|264:20|356:20,1,170,8|0
352,20,186947,1,0
428,84,187162,6,0,B|400:116|352:128,1,85,2|0
256,168,187590,2,0,B|256:212|272:256,1,85,2|0
372,204,188019,2,0,B|372:248|352:288,1,85,10|0
356,126,188447,2,0,B|292:68|196:88,1,170,2|4
48,112,189090,6,0,B|92:124|136:108,1,85
248,28,189519,1,0
356,128,189733,1,8
248,28,189947,2,0,B|224:68|236:112,2,85,0|0|0
356,128,190590,6,0,B|428:128|472:68,2,127.5,2|2|0
236,108,191447,1,10
236,108,191876,1,0
236,108,192090,1,0
236,108,192305,6,0,B|156:136,1,85,4|0
288,168,192733,2,0,B|228:240,1,85,0|0
360,196,193162,2,0,B|352:288,2,85,8|0|0
332,48,193805,6,0,B|352:132,1,85,0|0
220,116,194233,2,0,B|288:168,1,85
192,240,194662,2,0,B|284:240,1,85,0|8
368,288,195090,1,0
277,240,195305,1,0
368,288,195519,1,0
436,204,195733,6,0,B|448:164|436:120,2,85,4|0|0
436,204,196376,1,0
452,56,196590,2,0,B|408:36|360:48,2,85,8|0|0
452,56,197233,1,0
344,132,197447,6,0,B|288:156|216:168,2,127.5,2|2|0
344,132,198305,1,10
108,28,198733,2,0,B|52:96|76:188,1,170,0|4
220,224,199376,5,0
76,188,199590,1,0
184,144,199805,1,0
112,272,200019,1,8
220,224,200233,1,0
76,188,200447,1,0
220,224,200662,1,0
76,188,200876,6,0,B|68:148|80:104,1,85,2|0
208,52,201305,2,0,B|216:92|204:136,1,85,2|0
172,280,201733,2,0,B|164:240|176:196,1,85,10|0
316,68,202162,6,0,B|232:40|148:52,1,170,2|4
224,132,202805,1,0
280,228,203019,1,0
224,132,203233,1,0
316,68,203447,1,8
224,132,203662,2,0,B|180:156|152:188,2,85
348,180,204305,6,0,B|320:212|272:232,1,85,2|0
248,244,204626,2,0,B|312:260|376:300,1,127.5,2|0
436,172,205162,1,10
436,172,205590,1,0
132,84,206019,5,4
108,208,206233,1,0
224,164,206447,1,0
84,140,206662,1,0
200,96,206876,1,8
176,220,207090,1,0
272,112,207305,5,0
384,56,207519,1,0
376,180,207733,1,0
312,52,207947,1,0
304,176,208162,1,0
416,120,208376,1,0
304,176,208590,6,0,B|280:212|280:256,1,85,8|0
224,164,209019,1,0
196,264,209233,2,0,B|160:288|112:288,2,85,0|4|0
224,164,209876,5,0
140,92,210090,2,0,B|120:132|112:176,1,85,0|8
48,76,210519,2,0,B|36:124|44:184,1,85
60,256,210947,1,0
164,296,211162,6,0,B|220:312|224:240|292:256,2,127.5,2|2|0
164,296,212019,1,10
256,56,212447,1,0
256,56,212876,6,0,B|344:72|404:144,1,170,4|0
400,139,213519,1,0
400,139,213733,1,10
400,139,214162,1,0
288,336,214590,6,0,B|200:320|140:248,1,170
143,252,215233,1,0
143,252,215447,1,10
143,252,215876,1,0
228,72,216305,6,0,B|172:40|104:56,2,127.5
300,116,217162,2,0,B|272:156|224:156,2,85,10|0|0
228,72,217805,1,0
304,32,218019,5,0
416,148,218340,1,0
380,292,218662,2,0,B|340:292|296:284,2,85,0|10|0
352,140,219305,2,0,B|328:180|328:224,1,85
228,320,219733,6,0,B|292:248|248:160,1,170
148,228,220376,1,0
48,292,220590,2,0,B|5:206|70:135,2,170,10|0|0
148,228,221662,5,0
148,228,222090,1,0
148,228,222305,1,10
420,312,222733,1,0
420,312,223162,1,0
420,312,223376,1,0
388,68,223805,6,0,B|436:56|472:92,1,85,0|10
408,148,224233,1,0
408,148,224447,2,0,B|336:148|348:224|260:224,1,170
176,156,225090,6,0,B|208:120|252:116,1,85
264,224,225519,2,0,B|232:260|188:264,1,85,0|10
176,156,225947,1,0
232,80,226162,1,0
316,120,226376,1,0
376,200,226590,6,0,B|448:128|380:40,1,170
385,46,227233,1,0
385,46,227447,1,10
176,156,227876,1,0
428,280,228305,5,0
348,308,228519,1,0
392,188,228733,1,0
312,216,228947,1,0
360,96,229162,1,10
280,124,229376,1,0
392,188,229590,1,0
280,124,229805,1,0
220,240,230019,6,0,B|184:280|100:256|52:292,2,170,0|0|10
292,200,231090,2,0,B|316:248|288:288,1,85
292,200,231519,1,0
260,120,231733,2,0,B|304:68|380:56,2,127.5
260,120,232590,5,10
260,120,233019,1,0
48,304,233447,2,0,B|20:220|56:128,1,170
84,56,234090,1,0
52,137,234305,1,10
52,137,234733,1,0
316,56,235162,5,0
316,56,235376,1,0
400,292,235805,1,0
316,280,236019,1,10
244,236,236233,1,0
200,164,236447,1,0
200,164,236876,6,0,B|144:204|152:284|208:312,1,170
436,184,237733,2,0,B|492:144|484:64|428:36,2,170,10|0|0
388,116,238805,1,0
388,116,238912,2,0,B|344:68|268:68,1,127.5
292,152,239447,2,0,B|304:196|280:240,1,85,10|0
224,304,239876,6,0,B|192:252|212:176,1,127.499996200204,2|0
