osu file format v9

[General]
AudioFilename: Violin- Lindsey Stirling- Crystallize.mp3
AudioLeadIn: 0
PreviewTime: 68791
Countdown: 1
SampleSet: Soft
StackLeniency: 0.7
Mode: 0
LetterboxInBreaks: 0

[Editor]
DistanceSpacing: 0.8
BeatDivisor: 3
GridSize: 4

[Metadata]
Title:Crystallize
Artist:Lindsey Stirling
Creator:Katty Pie
Version:Black Snow
Source:
Tags:kazumikos Snow dubstep

[Difficulty]
HPDrainRate:7
CircleSize:4
OverallDifficulty:8
ApproachRate:8
SliderMultiplier:2
SliderTickRate:2

[Events]
//Background and Video events
0,0,"ddddd.jpg"
//Break Periods
2,123933,134126
2,171933,181269
//Storyboard Layer 0 (Background)
//Storyboard Layer 1 (Fail)
//Storyboard Layer 2 (Pass)
//Storyboard Layer 3 (Foreground)
Sprite,Foreground,Centre,"SB\n.png",320,240 M,0,305,,169,392 S,0,305,,0.6 F,0,305,1161,0,1 F,0,1162,26019,1 F,0,26019,26876,1,0
//Storyboard Sound Samples
//Background Colour Transformations
3,100,163,162,255

[TimingPoints]
305,428.571428571429,4,2,1,60,1,0
68876,-100,4,2,1,60,0,1
96305,-100,4,2,1,60,0,0
123733,-100,4,2,1,40,0,0
134876,-100,4,2,1,60,0,0
185447,-100,4,2,1,60,0,1
212876,-100,4,2,1,60,0,0
240305,-100,4,2,1,40,0,0

[Colours]
Combo1 : 0,128,192
Combo2 : 255,255,255
Combo3 : 128,128,255
SliderBorder : 255,255,255

[HitObjects]
256,56,27733,38,0,B|344:40|408:80|431:167|375:255,1,300,0|0
304,272,28590,1,10
320,192,28805,1,0
312,112,29019,1,0
256,56,29233,1,0
188,100,29447,6,0,B|152:100|152:100|112:100|88:139|112:180|160:180|160:180|216:180,2,200,0|0|10
252,148,30519,1,0
288,168,30626,1,0
320,192,30733,1,0
476,224,31162,6,0,B|459:280|472:327|472:327|428:316|363:356,2,200,0|0|10
444,152,32233,1,0
380,104,32447,2,0,B|352:48|288:56,1,100
220,56,32876,2,0,B|116:56,2,100
248,132,33519,1,0
312,180,33733,1,10
372,32,34162,5,0
428,88,34376,1,0
416,168,34590,2,0,B|420:252|368:312|268:336|188:244,1,300
232,188,35447,2,0,B|216:140|228:100|284:72|336:92|359:135,2,200,10|0|0
108,84,36733,6,0,B|60:172,1,100
28,240,37162,1,10
188,224,37590,2,0,B|236:136,1,100
272,64,38019,1,0
272,64,38233,2,0,B|316:28|364:64,1,100
372,144,38662,2,0,B|404:196|360:252,1,100,0|10
240,328,39305,5,0
160,324,39519,1,0
96,280,39733,1,0
72,204,39947,1,0
88,124,40162,2,0,B|104:52|212:20|276:80,2,200,0|10|0
152,172,41233,5,10
176,192,41340,1,10
196,212,41447,2,0,B|252:252|252:252|292:324|292:324|332:252|332:252|392:212,1,300,2|0
387,215,42305,1,10
388,136,42519,1,0
320,96,42733,1,0
276,252,43162,6,0,B|272:204|208:180|208:224|208:268|160:280|136:212,1,200
84,152,43805,1,0
132,88,44019,1,10
180,152,44233,1,0
220,84,44447,1,0
300,88,44662,1,0
360,144,44876,2,0,B|404:188|360:232,1,100
288,200,45304,2,0,B|244:244|288:288,1,100
287,287,45733,1,10
356,308,45947,6,0,B|456:352,1,100
361,225,46376,2,0,B|452:268,1,100
365,145,46804,2,0,B|456:188,1,100
372,68,47233,2,0,B|464:108,1,100,0|10
484,184,47662,1,0
460,260,47876,1,0
404,316,48090,1,0
324,316,48304,6,0,B|363:198|216:92|91:200|132:330,2,400,0|10|0
252,280,50233,6,0,B|204:280,2,50
324,316,50662,1,0
324,316,50876,1,10
400,292,51090,1,0
400,292,51304,1,0
440,224,51519,5,0
440,224,51733,2,0,B|464:160|428:104,1,100
372,172,52162,2,0,B|264:172,1,100
276,92,52590,1,10
204,60,52804,1,0
132,92,53019,1,0
64,240,53447,5,0
84,276,53554,1,0
116,304,53662,1,0
152,324,53769,1,0
192,332,53876,1,0
232,332,53983,1,0
272,332,54090,1,0
272,252,54305,2,0,B|272:144,1,100,10|0
272,112,54626,1,0
272,72,54733,2,0,B|392:72,1,100,0|8
412,76,55054,1,10
436,108,55162,5,0
440,188,55376,2,0,B|464:244|432:304,1,100,0|0
368,320,55804,1,0
288,324,56019,1,10
208,308,56233,1,0
156,248,56447,2,0,B|96:152,1,100
184,152,56876,6,0,B|120:60,2,100
244,96,57519,2,0,B|308:188,2,100,0|10|0
336,100,58162,2,0,B|404:196,1,100
436,248,58590,5,0
376,300,58804,1,0
304,336,59019,1,0
224,336,59233,1,0
148,308,59447,1,10
88,256,59662,1,0
84,176,59876,2,0,B|52:124|88:76,1,100
156,120,60304,6,0,B|182:170|154:218,1,100
236,224,60733,1,0
272,240,60840,1,0
308,260,60947,1,0
364,204,61162,1,10
388,172,61269,1,0
412,140,61376,1,0
352,88,61590,1,0
316,72,61697,1,0
280,52,61804,1,0
204,80,62019,6,0,B|152:48|96:72|72:128|108:184,1,200,0|4
260,140,62876,2,0,B|292:192|276:240|209:271|160:232,1,200,0|4
316,272,63733,2,0,B|295:332|336:376|398:382|436:334,1,200,0|4
344,204,64590,2,0,B|380:152|444:164|484:206|464:266,1,200,0|4
256,192,65447,12,4,68019
268,56,68876,6,0,B|332:56|332:56|372:100,1,100,4|0
296,136,69304,2,0,B|296:256,1,100,0|0
256,308,69733,1,10
228,336,69840,1,0
188,348,69947,1,0
148,336,70054,1,0
120,308,70162,1,0
188,264,70376,2,0,B|188:208,2,50,0|0|4
284,192,70804,5,0
300,172,70912,1,0
316,156,71019,1,0
392,132,71233,1,0
436,200,71447,2,0,B|384:264,2,50,10|0|0
336,264,71876,2,0,B|336:324|276:364|216:328|216:260,1,200,0|4
136,264,72519,5,0
64,228,72733,1,0
32,156,72947,1,0
88,100,73162,2,0,B|136:64|184:100,1,100,10|0
140,164,73590,2,0,B|184:197|232:161,1,100
300,116,74019,5,4
300,116,74233,2,0,B|334:159|300:208,1,100
220,196,74662,1,0
144,216,74876,2,0,B|124:204|124:204|104:216|104:216|88:204|88:204|72:216|72:216|56:204|56:204|40:216|40:216|24:204|24:204|8:216|8:216|-8:204,2,150,10|0|0
200,276,75733,5,4
228,276,75840,1,0
256,276,75947,1,0
284,276,76054,1,0
316,276,76162,2,0,B|368:276,3,50,0|0|0|0
396,272,76590,2,0,B|424:224,3,50,10|0|0|0
420,200,77019,2,0,B|420:128,3,50
420,120,77447,1,4
356,76,77662,6,0,B|272:76,1,50
296,104,77876,2,0,B|232:104,1,50
248,132,78090,2,0,B|176:132,2,50,0|0|10
248,212,78519,1,0
196,272,78733,1,0
124,312,78947,1,0
56,272,79162,6,0,B|56:232|56:232|52:220|52:220|60:220|60:220|56:208|56:208|56:172,1,100,4|0
132,40,79590,2,0,B|132:80|132:80|128:92|128:92|136:92|136:92|132:104|132:104|132:140,1,100,0|0
200,276,80019,2,0,B|200:236|200:236|204:224|204:224|196:224|196:224|200:212|200:212|200:176,1,100,10|0
268,40,80447,2,0,B|268:80|268:80|264:92|264:92|272:92|272:92|268:104|268:104|268:140,1,100,0|0
348,148,80876,6,0,B|412:144|424:212,1,100,4|0
420,228,81197,2,0,B|420:328,1,100,4|0
388,328,81519,2,0,B|284:328,1,100,4|10
216,292,81947,1,0
160,232,82162,2,4,B|104:120|168:24,1,200,0|4
224,84,82804,5,0
300,60,83019,1,0
380,72,83233,1,0
436,128,83447,1,10
452,208,83662,1,0
432,284,83876,1,0
360,320,84090,2,0,B|248:336,1,100,0|4
188,312,84519,5,0
164,300,84626,1,0
144,284,84733,1,0
124,268,84840,1,0
108,248,84947,1,0
96,228,85054,1,0
84,208,85162,1,10
76,128,85376,2,0,B|76:64|136:44,2,100
156,148,86019,5,4
180,160,86126,1,0
200,176,86233,1,0
220,192,86340,1,0
236,212,86447,1,0
248,232,86554,1,0
260,252,86662,1,0
332,284,86876,1,10
392,232,87090,1,0
392,152,87304,2,0,B|392:36,1,100
312,68,87733,6,0,B|256:108|204:60,1,100,4|0
188,76,88054,1,0
160,84,88162,1,0
132,100,88269,1,0
112,120,88376,1,0
96,148,88483,1,0
88,176,88590,2,0,B|53:235|105:282,1,100,10|0
164,300,89019,1,0
244,300,89233,1,0
324,300,89447,5,4
368,232,89662,2,0,B|444:152,1,100
360,136,90090,2,0,B|432:60,1,100,0|10
352,36,90519,1,0
272,44,90733,1,0
200,80,90947,1,0
144,136,91162,6,0,B|100:176|116:244,1,100,4|0
192,216,91590,2,0,B|204:272|160:307,1,100
84,284,92019,1,10
60,204,92233,1,0
80,128,92447,1,0
144,80,92662,1,0
224,88,92876,6,0,B|244:132|284:136|300:100|300:100|316:64|356:64|376:116,1,200,4|0
300,252,93733,2,0,B|280:208|240:204|224:240|224:240|208:276|168:276|148:224,1,200,10|0
256,192,94590,12,4,96304
36,104,96733,5,0
52,184,96947,1,0
124,220,97162,2,0,B|160:220|160:220|200:220|224:181|200:140|152:140|152:140|96:140,2,200,10|0|4
256,312,98447,5,0
336,308,98662,1,0
408,272,98876,1,10
448,204,99090,1,0
452,124,99304,1,0
424,48,99519,1,0
352,108,99733,6,0,B|392:160|360:220|308:256|244:200,2,200,4|0|10
276,132,100804,1,0
208,92,101019,2,0,B|156:36|56:64|44:144,1,200,0|4
60,208,101662,5,0
112,268,101876,2,0,B|164:324|264:296|276:216,1,200,0|10
280,148,102519,1,0
344,100,102733,2,0,B|353:33|453:5|505:61,1,200,0|4
492,140,103376,5,0
500,180,103483,1,0
496,220,103590,1,0
468,292,103805,1,0
436,316,103912,1,0
396,332,104019,1,10
312,344,104233,1,0
260,280,104447,6,0,B|220:348|128:348|96:280,2,200,0|4|0
304,120,105733,1,10
304,120,106162,1,0
156,72,106590,6,0,B|20:68|20:160|4:180|4:180|20:196|20:284|160:284,1,400,4|10
212,336,107662,1,0
292,336,107876,1,0
372,336,108090,1,0
432,284,108305,6,0,B|480:244,3,50,4|0|0|0
468,224,108733,2,0,B|404:180,3,50
428,164,109162,2,0,B|476:124,3,50,10|0|0|0
468,104,109590,1,0
468,76,109697,1,0
468,44,109805,1,0
394,75,110019,6,0,B|350:23|310:79,1,100,4|0
310,155,110447,2,0,B|270:207|228:155,1,100
238,75,110876,2,0,B|194:27|152:74,1,100,10|0
154,155,111304,2,0,B|112:206|72:154,1,100
114,85,111733,5,4
134,61,111840,1,0
162,49,111947,1,0
190,45,112054,1,0
222,49,112162,1,0
250,61,112269,1,0
270,85,112376,1,0
226,153,112590,5,10
246,177,112697,1,0
274,189,112804,1,0
306,193,112912,1,0
334,189,113019,1,0
362,177,113126,1,0
382,153,113233,1,0
424,85,113447,6,0,B|474:101|474:101|454:149|474:189|474:189|422:210,2,200,4|0|10
344,145,114519,1,0
256,197,114733,1,0
172,145,114947,1,0
88,85,115162,2,0,B|37:101|37:101|57:149|37:189|37:189|90:210,2,200,4|0|10
256,196,116447,1,0
149,147,116876,6,0,B|221:63|337:103,1,200,4|0
337,179,117519,1,0
417,171,117733,2,0,B|510:232|489:343,1,200,10|0
413,323,118376,1,0
349,371,118590,6,0,B|309:395|237:395|189:347|189:283|189:219|237:171|309:171|349:203,1,400,4|10
349,119,119662,1,0
317,99,119769,1,0
281,119,119876,1,0
201,119,120090,1,0
189,199,120305,6,0,B|159:236|159:308|207:356|271:356|335:356|383:308|383:236|359:196,1,400,4|10
349,119,121376,1,0
317,99,121483,1,0
281,119,121590,1,0
201,119,121804,1,0
256,192,122019,12,4,123733
256,192,134876,12,4,137447
48,272,137876,5,0
40,192,138090,1,0
64,116,138304,2,0,B|84:44|192:16|248:104,1,200,10|0
180,144,138947,1,0
220,216,139162,6,0,B|220:284|284:284,1,100
320,216,139590,2,0,B|319:282|376:282,1,100
420,216,140019,2,0,B|419:282|476:282,2,100,10|0|0
384,144,140662,1,0
352,72,140876,6,0,B|224:72,2,100
344,124,141447,1,0
320,172,141590,1,0
292,220,141733,2,0,B|420:220,2,100,10|0|0
240,220,142305,5,0
188,212,142447,1,0
192,160,142590,2,0,B|104:100,1,100
40,60,143019,6,0,B|-12:100|-12:144|-12:192|36:232,2,200,0|10|0
40,60,143983,1,0
40,60,144090,1,0
120,68,144304,6,0,B|87:162|116:166|133:139|133:139|169:90|213:110|193:171|193:171|177:225|220:246|247:197|247:197|285:144|329:164|307:229|307:229|307:229|294:276|338:296|362:254|362:254|401:198|448:220|427:285|427:285|412:335|497:238,1,800
476,176,146233,5,0
436,108,146447,1,0
360,80,146662,1,0
304,136,146876,2,0,B|262:189|222:137,1,100,10|0
248,60,147305,2,0,B|200:4|160:72,1,100
100,108,147733,6,0,B|52:112|0:168|32:256|72:272,2,200,0|0|10
104,192,148805,2,0,B|204:232,1,100
228,304,149233,1,0
300,264,149447,6,0,B|412:264,1,100
436,192,149876,2,0,B|328:192,1,100
300,120,150305,2,0,B|416:120,1,100,10|0
392,40,150733,1,0
356,24,150840,1,0
316,24,150947,1,8
276,36,151055,1,8
252,68,151162,6,0,B|239:49|200:40|178:68|187:103|187:103|197:130|175:158|136:149|124:130,1,200,0|0
64,180,151805,1,0
52,216,151912,1,0
52,256,152019,1,10
196,328,152447,1,0
344,276,152876,6,0,B|408:300|440:244,1,100
376,200,153305,1,0
404,188,153412,1,0
428,168,153519,1,0
444,144,153626,1,0
448,116,153733,2,0,B|420:64,1,50,10|0
408,48,153947,2,0,B|352:32,1,50
328,32,154162,1,0
300,32,154269,1,0
272,32,154376,1,0
244,32,154483,1,0
216,32,154590,5,0
144,68,154805,2,0,B|20:144|156:236,1,200
148,304,155447,1,10
204,360,155662,1,0
284,364,155876,1,0
332,300,156090,2,0,B|332:196,1,100
332,200,156519,6,0,B|412:140,1,100
432,124,156840,2,0,B|380:64,3,50,0|0|0|10
356,152,157376,1,0
308,88,157590,1,0
260,152,157805,1,0
212,88,158019,1,0
168,156,158233,6,0,B|52:156,1,100
196,232,158662,2,0,B|96:232,1,100,0|10
88,152,159090,1,0
132,84,159305,1,0
212,88,159519,1,0
260,152,159733,6,0,B|260:268,2,100
308,88,160376,1,0
388,88,160590,2,0,B|468:84|492:156|480:232|416:248,1,200,10|0
400,296,161233,1,0
328,328,161447,5,0
248,328,161662,1,0
172,304,161876,1,0
112,252,162090,1,0
108,172,162305,1,10
144,100,162519,2,0,B|184:60|236:76,1,100
288,136,162947,2,0,B|288:244,1,100
288,276,163269,6,0,B|312:360|416:340,1,150
436,316,163697,2,0,B|472:252,3,50,0|0|0|10
472,192,164233,1,0
444,116,164447,1,0
376,72,164662,1,8
340,56,164769,1,8
300,68,164876,1,0
224,92,165090,1,0
164,144,165305,6,0,B|116:188|144:256,1,100
172,308,165733,1,10
240,352,165947,1,0
320,368,166162,1,0
396,348,166376,1,0
448,288,166590,6,0,B|484:240|444:184,1,100
448,156,166912,1,0
424,124,167019,2,0,B|392:68|332:96,1,100
300,92,167340,1,0
260,92,167447,2,0,B|212:56|164:96,1,100,10|0
128,92,167769,1,0
88,96,167876,2,0,B|56:144|88:192,1,100
108,268,168305,5,0
116,296,168412,1,0
124,324,168519,1,0
204,316,168733,1,0
212,344,168840,1,0
220,372,168947,1,0
300,236,169162,5,10
292,208,169269,1,0
284,180,169376,1,0
356,144,169590,1,0
348,116,169697,1,0
340,88,169805,1,0
256,192,170019,12,4,171733
256,192,182019,12,0,184590
148,88,185447,22,0,B|100:92|100:92|84:152,1,100,4|0
160,172,185876,2,0,B|146:222|146:222|98:226,1,100,0|0
72,304,186305,1,10
96,320,186412,1,0
124,332,186519,1,0
152,340,186626,1,0
184,344,186733,1,0
264,344,186947,2,0,B|348:344,2,50,0|0|4
264,264,187376,5,0
264,232,187483,1,0
264,204,187590,1,0
316,144,187805,1,0
376,92,188019,2,0,B|448:92,2,50,10|0|0
304,60,188447,2,0,B|259:15|188:36|177:103|220:145,1,200,0|4
140,152,189090,5,0
60,160,189305,1,0
20,228,189519,1,0
60,296,189733,2,0,B|88:348|144:332,1,100,10|0
152,252,190162,2,0,B|207:236|235:288,1,100
316,288,190590,5,4
316,208,190805,2,0,B|316:96,1,100
248,64,191233,1,0
180,104,191447,2,0,B|160:92|160:92|140:104|140:104|124:92|124:92|108:104|108:104|92:92|92:92|76:104|76:104|60:92|60:92|44:104|44:104|28:92,2,150,10|0|0
248,64,192305,6,0,B|300:64,3,50,4|0|0|0
328,64,192733,1,0
356,64,192840,1,0
384,72,192947,1,0
404,96,193055,1,0
412,124,193162,2,0,B|412:196,3,50,10|0|0|0
412,204,193590,2,0,B|412:284,3,50,0|0|0|0
412,284,194019,1,4
332,292,194233,5,0
312,324,194340,1,0
280,344,194447,1,0
240,352,194555,1,0
200,344,194662,1,0
168,324,194769,1,0
144,292,194876,1,10
64,296,195090,1,0
64,216,195305,1,0
68,136,195519,1,0
132,88,195733,6,0,B|172:88|172:88|172:80|172:80|180:80|180:80|180:88|180:88|228:88,1,100,4|0
356,160,196162,2,0,B|316:160|316:160|316:152|316:152|308:152|308:152|308:160|308:160|260:160,1,100,0|0
132,236,196590,2,0,B|172:236|172:236|172:228|172:228|180:228|180:228|180:236|180:236|228:236,1,100,10|0
356,312,197019,2,0,B|316:312|316:312|316:304|316:304|308:304|308:304|308:312|308:312|260:312,1,100
192,312,197447,6,0,B|136:340|84:296,1,100,4|0
76,284,197769,2,0,B|26:245|44:179,1,100,4|0
44,164,198090,2,0,B|58:103|125:91,1,100,4|10
164,36,198519,1,0
220,96,198733,2,0,B|308:36|408:96,1,200,0|4
408,176,199376,5,0
396,256,199590,1,0
388,336,199805,1,0
308,320,200019,1,10
320,240,200233,1,0
328,160,200447,1,0
344,80,200662,2,0,B|240:52,1,100,0|4
168,60,201090,6,0,B|128:112,1,50
144,128,201305,1,0
152,156,201412,1,0
160,184,201519,1,0
172,212,201626,2,0,B|132:280,1,50,0|10
220,284,201947,2,0,B|220:352|292:356,2,100
296,236,202590,6,0,B|336:184,1,50,4|0
320,168,202805,1,0
312,140,202912,1,0
304,112,203019,1,0
296,84,203126,2,0,B|336:16,1,50,0|0
396,68,203447,1,10
448,132,203662,1,0
448,212,203876,2,0,B|448:324,1,100
368,312,204305,6,0,B|320:268|280:316,1,100,4|0
256,296,204626,1,0
232,276,204733,1,0
208,256,204840,1,0
184,236,204947,1,0
160,216,205055,1,0
136,196,205162,2,0,B|182:150|136:107,1,100,10|0
200,60,205590,1,0
280,60,205805,1,0
360,60,206019,5,4
428,104,206233,2,0,B|428:216,1,100
356,168,206662,2,0,B|356:280,1,100,0|10
300,324,207090,1,0
224,348,207305,1,0
144,344,207519,1,0
88,288,207733,5,4
88,208,207947,2,0,B|88:104,1,100
160,148,208376,2,0,B|160:44,1,100,0|10
240,52,208805,1,0
320,52,209019,1,0
316,132,209233,1,0
368,188,209447,6,0,B|340:232|372:287|372:287|320:272|263:316,1,200,4|0
152,208,210305,2,0,B|180:164|148:109|148:109|200:124|257:80,1,200,10|0
256,192,211162,12,4,212876
88,140,213305,5,0
88,224,213519,1,0
88,304,213733,2,0,B|88:344|88:344|144:360|208:344|208:344|208:304,2,200,10|0|4
152,156,215019,5,0
196,88,215233,1,0
268,56,215447,2,0,B|372:56,1,100,10|0
440,88,215876,1,0
484,156,216090,1,0
404,176,216305,6,0,B|384:132|313:119|248:136|232:180,2,200,4|0|10
400,256,217376,1,0
332,296,217590,2,0,B|317:335|252:352|181:339|161:295,1,200,0|4
96,252,218233,5,0
60,180,218447,2,0,B|74:140|139:123|210:136|230:180,1,200,0|10
280,116,219090,1,0
332,56,219305,2,0,B|374:52|416:103|435:173|403:210,1,200,0|4
352,272,219947,5,0
316,292,220055,1,0
276,296,220162,1,0
196,296,220376,1,0
156,292,220483,1,0
120,272,220590,1,10
44,244,220805,1,0
92,180,221019,2,0,B|64:156|64:156|36:128|40:88|80:76|112:96|112:96|144:120,2,200,0|4|0
164,212,222090,1,0
232,168,222305,5,10
232,168,222519,1,0
300,124,222733,1,0
300,124,222947,1,0
368,84,223162,6,0,B|500:84|500:176|516:196|516:196|500:212|500:300|360:300,1,400,4|10
288,304,224233,1,0
220,344,224447,1,0
144,332,224662,1,0
88,276,224876,6,0,B|40:244,3,50,4|0|0|0
44,220,225305,2,0,B|44:172,3,50
48,140,225733,2,0,B|89:112,3,50,10|0|0|0
116,96,226162,1,0
140,80,226269,1,0
164,64,226376,1,0
216,124,226590,6,0,B|332:124,1,100,4|0
396,124,227019,2,0,B|512:124,1,100
496,204,227447,2,0,B|388:204,1,100,10|0
316,204,227876,2,0,B|208:204,1,100
164,264,228305,5,4
160,292,228412,1,0
168,320,228519,1,0
184,344,228626,1,0
208,364,228733,1,0
236,368,228840,1,0
264,360,228947,1,0
248,280,229162,5,10
252,252,229269,1,0
244,224,229376,1,0
228,200,229483,1,0
204,180,229590,1,0
176,176,229697,1,0
148,184,229805,1,0
112,112,230019,6,0,B|68:144|68:144|94:186|72:236|72:236|132:275,2,200,4|0|10
204,36,231090,1,0
256,144,231305,1,0
308,36,231519,1,0
400,112,231733,2,0,B|443:144|443:144|417:186|439:236|439:236|379:275,2,200,4|0|10
256,248,233019,1,0
96,248,233447,6,0,B|48:232|48:80|96:72,1,200,4|0
164,32,234090,1,0
200,104,234305,2,0,B|208:152|360:152|376:104,1,200,10|0
284,236,235162,6,0,B|316:275|316:347|268:395|204:395|140:395|92:347|92:275|124:236,1,400,4|10
200,104,236447,1,0
256,192,236876,12,4,240305
