osu file format v13

[General]
AudioFilename: Beyond The Veil.mp3
AudioLeadIn: 0
PreviewTime: 73355
Countdown: 0
SampleSet: Soft
StackLeniency: 0.7
Mode: 0
LetterboxInBreaks: 0
WidescreenStoryboard: 1

[Editor]
Bookmarks: 1629
DistanceSpacing: 1.7
BeatDivisor: 4
GridSize: 4
TimelineZoom: 0.9999999

[Metadata]
Title:Beyond The Veil
TitleUnicode:Beyond The Veil
Artist:Lindsey Stirling
ArtistUnicode:Lindsey Stirling
Creator:kazumikos
Version:Normal
Source:
Tags:Zejky Autumn Shatter Me
BeatmapID:471091
BeatmapSetID:198563

[Difficulty]
HPDrainRate:5
CircleSize:3
OverallDifficulty:4
ApproachRate:5
SliderMultiplier:1
SliderTickRate:1

[Events]
//Background and Video events
0,0,"BG3.jpg",0,0
//Break Periods
2,51919,73792
2,191555,200337
//Storyboard Layer 0 (Background)
//Storyboard Layer 1 (Fail)
//Storyboard Layer 2 (Pass)
//Storyboard Layer 3 (Foreground)
//Storyboard Sound Samples

[TimingPoints]
5174,727.272727272727,4,2,1,60,1,0
28446,-62.5,4,2,1,60,0,0
51719,-62.5,4,2,1,10,0,0
74264,-62.5,4,2,1,60,0,0
98264,-62.5,4,2,1,60,0,1
121537,-62.5,4,2,1,60,0,0
141537,-100,4,2,1,60,0,0
144446,-100,4,2,1,20,0,0
167355,-62.5,4,2,1,60,0,0
201537,-62.5,4,2,1,60,0,0
202992,-62.5,4,2,1,60,0,1
226264,-62.5,4,2,1,60,0,0
229173,-62.5,4,2,1,60,0,1
237901,-62.5,4,2,1,60,0,0
240810,-62.5,4,2,1,60,0,1
246628,-62.5,4,2,1,60,0,0

[Colours]
Combo1 : 109,218,207
Combo2 : 209,209,209
Combo3 : 84,149,188
Combo4 : 37,101,112

[HitObjects]
468,280,9173,6,0,P|416:312|312:232,1,200
400,224,10992,2,0,P|416:180|404:112,1,100,4|8,0:3|1:2,0:0:0:0:
220,160,12810,1,4,0:3:0:0:
220,160,13173,1,8,1:2:0:0:
410,127,13901,6,0,P|416:177|400:224,1,100,4|8,0:3|1:2,0:0:0:0:
328,276,14992,2,0,B|292:289|255:270|255:270|215:246|176:264,1,150,0|8,0:0|1:2,0:0:0:0:
120,320,16446,1,0,0:0:0:0:
120,320,16810,2,0,P|80:312|4:328,1,100,4|8,0:3|1:2,0:0:0:0:
4,124,18628,1,4,0:3:0:0:
4,124,18992,1,8,1:2:0:0:
21,320,19719,6,0,P|70:311|120:320,1,100,4|8,0:3|1:2,0:0:0:0:
200,348,20810,1,0,0:0:0:0:
284,328,21173,2,0,L|344:336,1,50
412,304,21901,2,0,L|444:256,1,50,8|0,1:2|0:0,0:0:0:0:
392,192,22628,2,0,P|332:192|276:176,2,100,4|8|0,0:3|1:2|0:0,0:0:0:0:
476,180,24446,1,4,0:3:0:0:
476,180,24810,1,8,1:2:0:0:
364,48,25537,6,0,L|312:40,1,50
252,96,26264,2,0,L|200:100,1,50,2|0,0:3|0:0,0:0:0:0:
156,168,26992,2,0,L|36:152,1,100
152,308,28446,6,0,P|208:332|308:296,2,160,4|8|0,1:0|1:2|0:0,0:0:0:0:
72,196,30264,1,4,0:3:0:0:
72,196,30628,2,0,P|145:167|219:192,1,160,8|4,1:2|0:3,0:0:0:0:
348,152,31719,2,0,P|388:144|440:160,2,80,0|8|0,0:0|1:2|0:0,0:0:0:0:
348,292,32810,2,0,P|386:300|425:292,2,80,0|0|8,0:0|0:0|0:0,0:0:0:0:
256,192,33901,1,0,0:0:0:0:
172,84,34264,6,0,L|124:88,1,40,4|0,0:3|0:0,0:0:0:0:
68,140,34628,2,0,L|104:164,1,40
64,232,34992,2,0,P|52:272|72:332,1,80,8|0,1:2|0:0,0:0:0:0:
188,344,35719,2,0,L|360:328,1,160,0|8,0:0|1:2,0:0:0:0:
484,312,36810,1,0,0:0:0:0:
476,176,37173,6,0,L|472:116,2,40,4|0|0,0:3|0:0|0:0,0:0:0:0:
404,212,37719,2,0,L|372:176,2,40,0|8|0,0:0|1:2|0:0,0:0:0:0:
352,276,38264,2,0,P|304:288|196:216,2,160,0|0|0,0:0|0:0|0:0,0:0:0:0:
240,364,40083,5,4,0:0:0:0:
240,364,40264,2,0,P|192:356|144:356,1,80
84,340,40810,2,0,P|72:300|72:240,1,80,8|0,1:2|0:0,0:0:0:0:
92,188,41355,2,0,P|100:156|96:96,1,80
144,44,41901,2,0,L|248:51,1,80,4|8,0:3|1:2,0:0:0:0:
368,56,42628,1,0,0:0:0:0:
472,144,42992,5,0,0:0:0:0:
472,144,43173,2,0,P|468:184|488:236,1,80
460,300,43719,2,0,L|376:292,1,80,8|0,1:2|0:0,0:0:0:0:
324,236,44264,2,0,P|296:252|240:252,1,80
220,332,44810,2,0,L|299:339,2,80,4|8|0,0:3|1:2|0:0,0:0:0:0:
100,272,45901,6,0,P|76:228|104:116,2,160,0|8|0,0:0|0:0|0:0,0:0:0:0:
216,200,47719,1,4,0:3:0:0:
216,200,48083,1,8,1:2:0:0:
256,192,48810,12,0,51719,0:0:0:0:
456,144,74992,5,4,0:0:0:0:
400,268,75355,1,8,0:0:0:0:
276,208,75719,1,0,0:0:0:0:
160,284,76083,1,8,0:0:0:0:
40,344,76446,2,0,P|28:284|36:244,1,80,0|8,0:0|0:0,0:0:0:0:
116,160,77173,2,0,P|124:116|116:64,1,80,0|8,0:0|0:0,0:0:0:0:
256,52,77901,5,0,0:0:0:0:
364,132,78264,1,8,0:0:0:0:
276,236,78628,2,0,P|268:300|344:360,2,160,2|8|2,0:0|0:0|0:0,0:0:0:0:
364,132,80446,1,8,0:0:0:0:
440,244,80810,6,0,L|456:328,1,80,0|8,0:0|0:0,0:0:0:0:
336,260,81537,2,0,P|304:284|256:288,1,80,0|8,0:0|0:0,0:0:0:0:
156,208,82264,2,0,P|112:212|72:240,1,80,0|8,0:0|0:0,0:0:0:0:
32,104,82992,2,0,B|72:104|72:104|120:104,1,80,0|8,0:0|0:0,0:0:0:0:
244,76,83719,6,0,P|332:64|408:116,1,160,2|2,0:0|0:0,0:0:0:0:
300,196,84810,1,8,0:0:0:0:
300,196,85173,2,0,L|340:364,2,160,2|8|2,0:0|0:0|0:0,0:0:0:0:
196,284,86992,6,0,P|156:308|104:312,1,80,8|0,0:0|0:0,0:0:0:0:
68,188,87719,2,0,P|108:164|160:160,1,80,8|0,0:0|0:0,0:0:0:0:
268,204,88446,2,0,P|316:216|360:204,1,80,8|0,0:0|0:0,0:0:0:0:
396,84,89173,2,0,P|348:72|304:84,1,80,8|0,0:0|0:0,0:0:0:0:
204,148,89901,6,0,P|184:196|188:228,1,80,8|0,0:0|0:0,0:0:0:0:
268,332,90628,2,0,P|320:352|360:340,1,80,8|0,0:0|0:0,0:0:0:0:
444,256,91355,2,0,P|460:208|456:172,2,80,8|0|8,0:0|0:0|0:0,0:0:0:0:
380,136,92446,6,0,B|340:132|308:164|308:164|276:200|220:192,1,160,2|2,0:0|0:0,0:0:0:0:
100,176,93537,2,0,P|64:116|80:28,1,160,2|2,0:0|0:0,0:0:0:0:
200,92,94628,1,0,0:0:0:0:
316,336,95355,6,0,P|372:316|424:156,1,240
410,26,96810,2,0,P|312:88|304:204,1,240
392,304,98264,6,0,P|328:344|232:308,2,160,4|8|0,0:0|1:2|0:0,0:0:0:0:
320,28,100446,2,0,L|304:140,1,80,8|0,1:2|0:0,0:0:0:0:
424,36,101173,2,0,L|400:200,2,160,4|8|0,0:3|1:2|0:0,0:0:0:0:
380,304,103355,2,0,P|336:360|244:360,1,160,8|0,1:2|0:0,0:0:0:0:
16,228,104810,6,0,P|72:272|72:364,1,160,8|0,1:2|0:0,0:0:0:0:
336,280,106264,1,8,1:2:0:0:
336,280,106628,1,0,0:0:0:0:
336,280,106992,2,0,L|455:292,1,120
444,204,107719,2,0,L|324:191,1,120,0|0,0:0|0:0,0:0:0:0:
349,106,108446,2,0,L|468:118,1,120
444,204,109173,2,0,L|272:184,1,160,8|0,1:2|0:0,0:0:0:0:
36,292,110628,6,0,P|116:296|184:352,1,160,8|0,0:0|0:0,0:0:0:0:
40,176,112083,2,0,P|104:184|188:136,1,160,8|0,1:2|0:0,0:0:0:0:
84,56,113173,2,0,L|68:8,2,40,0|0|8,0:0|0:0|1:2,0:0:0:0:
184,148,113901,2,0,L|280:148,1,80
332,264,114628,2,0,L|312:312,2,40,0|0|8,0:0|0:0|1:2,0:0:0:0:
452,204,115355,5,0,0:0:0:0:
452,204,115719,2,0,P|472:156|472:116,1,80
368,44,116446,2,0,B|276:8|212:84|212:84|148:152|72:108,1,320,8|8,1:2|1:2,0:0:0:0:
12,232,118264,1,0,0:0:0:0:
116,320,118628,6,0,L|248:312,1,120,0|0,0:0|0:0,0:0:0:0:
268,232,119355,2,0,L|400:224,1,120,0|0,0:0|0:0,0:0:0:0:
468,200,120083,2,0,P|496:152|472:48,2,160,0|8|4,0:0|1:2|0:3,0:0:0:0:
256,32,122264,1,8,1:2:0:0:
56,192,123355,1,4,0:3:0:0:
56,192,123719,1,8,1:2:0:0:
256,376,124446,6,0,L|208:252,1,120
276,200,125173,2,0,L|324:324,1,120,8|0,0:0|0:0,0:0:0:0:
404,300,125901,2,0,L|345:150,1,160,0|8,0:0|1:2,0:0:0:0:
256,48,126992,1,0,0:0:0:0:
176,156,127355,6,0,P|176:192|192:236,1,80,4|0,0:0|0:0,0:0:0:0:
264,276,127901,2,0,L|320:284,1,40,0|8,0:0|0:0,0:0:0:0:
372,328,128264,2,0,L|424:320,1,40
496,218,128810,2,0,P|508:160|476:104,1,120,0|0,0:0|0:0,0:0:0:0:
424,172,129537,2,0,P|396:120|452:24,1,160,8|0,1:2|0:0,0:0:0:0:
312,92,130628,6,0,L|268:76,1,40
224,144,130992,2,0,L|168:156,1,40,8|0,1:2|0:0,0:0:0:0:
124,212,131355,2,0,P|116:272|168:352,2,160,0|0|0,0:0|0:0|0:0,0:0:0:0:
256,136,133173,6,0,P|208:136|156:112,1,80
192,40,133719,2,0,P|240:40|292:64,1,80
340,104,134264,2,0,L|432:96,1,80,0|0,0:0|0:0,0:0:0:0:
396,232,134992,2,0,L|340:236,2,40,0|0|8,0:0|0:0|1:2,0:0:0:0:
372,364,135719,1,0,0:0:0:0:
248,304,136083,5,4,0:3:0:0:
116,328,136446,1,0,0:0:0:0:
48,208,136810,1,8,1:2:0:0:
144,112,137173,1,0,0:0:0:0:
268,168,137537,1,0,0:0:0:0:
248,304,137901,1,4,0:3:0:0:
116,328,138264,1,8,1:2:0:0:
48,208,138628,1,0,0:0:0:0:
144,112,138992,6,0,P|212:124|288:60,1,160,4|8,0:3|1:2,0:0:0:0:
400,140,140083,2,0,L|388:188,1,40
368,256,140446,2,0,P|320:244|224:304,1,160,0|8,0:0|1:2,0:0:0:0:
384,80,141901,6,0,P|300:132|108:60,1,300
32,268,144810,6,2,B|76:240|128:264|128:264|192:268|232:216,1,200,0|2,0:0|0:0,0:0:0:0:
332,104,146992,2,0,P|384:100|444:120,1,100,0|2,0:0|0:0,0:0:0:0:
364,272,148446,1,0,0:0:0:0:
332,104,149173,1,2,0:0:0:0:
168,144,149901,1,0,0:0:0:0:
200,312,150628,6,0,P|252:264|252:140,1,200,2|2,0:0|0:0,0:0:0:0:
96,76,152810,2,0,L|88:144,1,50
80,212,153537,2,0,P|140:204|192:228,1,100,2|0,0:0|0:0,0:0:0:0:
228,284,154628,2,0,P|260:296|292:296,1,50,0|2,0:0|0:0,0:0:0:0:
324,228,155355,2,0,P|292:216|260:216,2,50,0|0|0,0:0|0:0|0:0,0:0:0:0:
372,300,156446,6,0,P|412:236|344:144,1,200,2|2,0:0|0:0,0:0:0:0:
200,60,158628,2,0,L|96:60,1,100,0|2,0:0|0:0,0:0:0:0:
20,300,160446,6,0,P|52:276|128:284,1,100
176,328,161537,2,0,L|240:312,1,50
304,348,162264,2,0,P|320:308|304:248,2,100,2|0|2,0:0|0:0|0:0,0:0:0:0:
216,204,164446,2,0,P|212:156|240:108,2,100,0|2|0,0:0|0:0|0:0,0:0:0:0:
312,68,166628,1,2,0:0:0:0:
312,68,166992,1,0,0:0:0:0:
312,68,167355,1,0,0:0:0:0:
440,112,167719,6,4,L|448:200,1,80,0|4,0:0|0:0,0:0:0:0:
360,296,168446,2,0,L|352:208,1,80,0|8,0:0|0:0,0:0:0:0:
248,128,169173,2,0,L|256:216,1,80,0|0,0:0|0:0,0:0:0:0:
164,308,169901,2,0,L|156:220,2,80,0|8|8,0:0|0:0|0:0,0:0:0:0:
48,240,170992,6,0,P|24:188|48:80,1,160,0|8,0:0|0:0,0:0:0:0:
156,160,172083,2,0,P|196:160|240:140,1,80,0|8,0:0|0:0,0:0:0:0:
320,40,172810,1,0,0:0:0:0:
444,92,173173,2,0,L|460:184,1,80,8|8,0:0|0:0,0:0:0:0:
320,164,173901,6,0,B|332:208|284:236|284:236|240:264|252:316,2,160,0|8|0,0:0|0:0|0:0,0:0:0:0:
216,76,175719,1,0,0:0:0:0:
148,192,176083,1,8,0:0:0:0:
44,104,176446,1,8,0:0:0:0:
148,192,176810,6,0,P|148:228|128:272,1,80,0|0,0:0|0:0,0:0:0:0:
248,196,177537,2,0,P|312:176|400:220,1,160,8|0,0:0|0:0,0:0:0:0:
432,344,178628,2,0,L|528:352,1,80,0|8,0:0|0:0,0:0:0:0:
484,216,179355,1,8,0:0:0:0:
500,80,179719,5,0,0:0:0:0:
372,128,180083,1,0,0:0:0:0:
484,216,180446,1,8,0:0:0:0:
500,80,180810,2,0,L|448:8,1,80,0|0,0:0|0:0,0:0:0:0:
372,128,181537,2,0,L|280:120,2,80,0|8|8,0:0|0:0|0:0,0:0:0:0:
268,216,182628,5,0,0:0:0:0:
160,132,182992,1,0,0:0:0:0:
140,268,183355,1,8,0:0:0:0:
268,216,183719,1,0,0:0:0:0:
160,132,184083,2,0,L|72:144,1,80
140,268,184810,2,0,L|68:336,1,80,8|8,0:0|0:0,0:0:0:0:
216,336,185537,5,0,0:0:0:0:
216,336,185901,1,0,0:0:0:0:
216,336,186264,1,8,0:0:0:0:
348,296,186628,1,0,0:0:0:0:
348,296,186992,1,0,0:0:0:0:
348,296,187355,2,0,P|360:260|360:204,1,80,0|8,0:0|0:0,0:0:0:0:
320,88,188083,1,0,0:0:0:0:
452,100,188446,6,0,P|432:164|280:216,1,240
196,112,189901,2,0,P|132:92|32:136,1,160
128,232,190992,1,0,0:0:0:0:
128,232,191355,1,4,0:3:0:0:
156,140,201537,6,0,P|108:140|56:124,2,80,0|0|4,0:0|0:0|0:3,0:0:0:0:
344,28,202992,6,0,P|316:84|348:188,2,160,4|8|0,0:0|1:2|0:0,0:0:0:0:
404,292,205173,2,0,L|312:284,1,80,8|0,1:2|0:0,0:0:0:0:
200,232,205901,2,0,P|168:288|80:308,1,160,0|8,0:0|1:2,0:0:0:0:
56,36,207355,6,0,P|52:76|80:120,1,80
176,196,208083,2,0,P|180:156|152:112,1,80,8|0,1:2|0:0,0:0:0:0:
288,68,208810,2,0,L|388:76,1,80
436,192,209537,2,0,L|360:184,3,53.3333333333333,8|0|0|0,1:2|0:0|0:0|0:0,0:0:0:0:
148,328,210992,5,8,1:2:0:0:
84,208,211355,1,0,0:0:0:0:
148,328,211719,2,0,P|212:344|264:304,1,120
288,240,212446,2,0,P|339:212|395:229,1,120,8|0,0:3|0:0,0:0:0:0:
448,296,213173,2,0,P|476:256|428:152,1,160,0|8,0:0|1:2,0:0:0:0:
332,80,214264,1,0,0:0:0:0:
216,148,214628,6,0,P|136:148|108:124,1,120
32,164,215355,2,0,L|20:248,3,53.3333333333333,8|0|0|0,1:2|0:0|0:0|0:0,0:0:0:0:
120,312,216446,1,0,0:0:0:0:
256,292,216810,1,8,1:2:0:0:
176,180,217173,2,0,P|208:160|272:160,1,80
256,292,217901,6,0,L|252:340,2,40,0|0|8,0:0|0:0|1:2,0:0:0:0:
372,220,218628,2,0,L|424:236,2,40,0|0|0,0:0|0:0|0:0,0:0:0:0:
368,84,219355,2,0,L|424:72,2,40,0|0|8,0:0|0:0|1:2,0:0:0:0:
260,164,220083,1,0,0:0:0:0:
180,56,220446,6,0,L|88:72,1,80,0|0,0:0|0:0,0:0:0:0:
28,180,221173,2,0,P|68:232|64:328,2,160,8|0|8,1:2|0:0|1:2,0:0:0:0:
164,184,222992,1,0,0:0:0:0:
192,316,223355,2,0,L|336:308,1,120
304,228,224083,6,0,L|448:220,1,120,8|0,0:3|0:0,0:0:0:0:
488,164,224810,2,0,P|500:124|500:76,2,80,0|0|8,0:0|0:0|1:2,0:0:0:0:
364,104,225901,1,0,0:0:0:0:
236,56,226264,6,0,P|136:100|96:60,1,160,0|8,0:0|1:2,0:0:0:0:
44,200,227355,1,4,0:3:0:0:
44,200,227719,1,4,0:3:0:0:
88,328,228083,6,0,L|144:328,1,40
184,264,228446,2,0,L|240:256,1,40,0|0,0:0|0:0,0:0:0:0:
252,180,228810,2,0,L|300:152,1,40
336,224,229173,6,0,P|388:232|432:208,1,80,4|0,0:0|0:0,0:0:0:0:
464,156,229719,1,0,0:0:0:0:
464,156,229901,2,0,P|440:224|496:300,1,160,8|0,1:2|0:0,0:0:0:0:
364,356,230992,1,0,0:0:0:0:
336,224,231355,1,8,1:2:0:0:
308,92,231719,1,0,0:0:0:0:
336,224,232083,2,0,P|292:240|248:240,1,80
132,196,232810,6,0,L|60:196,3,53.3333333333333,8|0|0|0,1:2|0:0|0:0|0:0,0:0:0:0:
28,68,233901,1,0,0:0:0:0:
164,64,234264,1,8,1:2:0:0:
256,164,234628,1,0,0:0:0:0:
388,196,234992,6,0,P|432:196|480:180,1,80
500,104,235537,1,0,0:0:0:0:
448,40,235719,2,0,P|404:40|356:56,1,80,8|0,1:2|0:0,0:0:0:0:
332,128,236264,1,0,0:0:0:0:
256,164,236446,2,0,L|176:156,1,80
104,272,237173,2,0,L|184:280,1,80,8|0,1:2|0:0,0:0:0:0:
296,356,237901,6,0,B|288:328|332:292|332:292|380:256|364:204,2,160,0|8|0,0:0|1:2|0:0,0:0:0:0:
160,344,239719,1,0,0:0:0:0:
160,344,240446,1,0,0:0:0:0:
100,220,240810,6,0,L|92:160,2,40,4|0|0,0:0|0:0|0:0,0:0:0:0:
184,224,241355,2,0,L|176:172,2,40,0|8|0,0:0|1:2|0:0,0:0:0:0:
268,236,241901,2,0,L|260:184,2,40,0|0|0,0:0|0:0|0:0,0:0:0:0:
404,260,242628,5,0,0:0:0:0:
428,128,242992,1,8,1:2:0:0:
296,104,243355,1,0,0:0:0:0:
268,236,243719,2,0,P|220:264|112:216,2,160,0|8|0,0:0|1:2|0:0,0:0:0:0:
56,64,245901,6,0,P|56:108|36:152,2,80,8|0|0,1:2|0:0|0:0,0:0:0:0:
188,100,246992,2,0,P|188:144|208:184,2,80,0|8|0,0:0|1:2|0:0,0:0:0:0:
304,168,248083,2,0,P|304:212|216:280,1,160,0|8,0:0|1:2,0:0:0:0:
92,236,249173,1,8,1:2:0:0:
92,236,249537,1,0,0:0:0:0:
