osu file format v14

[General]
AudioFilename: Beyond The Veil.mp3
AudioLeadIn: 0
PreviewTime: 73355
Countdown: 0
SampleSet: Soft
StackLeniency: 0.7
Mode: 0
LetterboxInBreaks: 0
WidescreenStoryboard: 1

[Editor]
Bookmarks: 1629
DistanceSpacing: 1.3
BeatDivisor: 4
GridSize: 4
TimelineZoom: 1.2

[Metadata]
Title:Beyond The Veil
TitleUnicode:Beyond The Veil
Artist:Lindsey Stirling
ArtistUnicode:Lindsey Stirling
Creator:kazumikos
Version:Hard
Source:
Tags:Zejky Autumn Shatter Me
BeatmapID:471090
BeatmapSetID:198563

[Difficulty]
HPDrainRate:8
CircleSize:4
OverallDifficulty:7.5
ApproachRate:8.5
SliderMultiplier:1.7
SliderTickRate:1

[Events]
//Background and Video events
0,0,"BG1.jpg",0,0
//Break Periods
2,51919,74317
2,191555,200862
//Storyboard Layer 0 (Background)
//Storyboard Layer 1 (Fail)
//Storyboard Layer 2 (Pass)
//Storyboard Layer 3 (Foreground)
//Storyboard Sound Samples

[TimingPoints]
5174,727.272727272727,4,2,1,60,1,0
28446,-62.5,4,2,1,60,0,0
33355,-62.5,4,1,1,60,0,0
33537,-62.5,4,2,1,60,0,0
45355,-62.5,4,1,1,60,0,0
45537,-62.5,4,2,1,60,0,0
46446,-62.5,4,1,1,60,0,0
46628,-62.5,4,2,1,60,0,0
48810,-125,4,2,1,60,0,0
48992,-125,4,2,1,10,0,0
74992,-55.5555555555556,4,2,1,60,0,0
91810,-55.5555555555556,4,2,1,75,0,0
92173,-55.5555555555556,4,2,1,60,0,0
95355,-55.5555555555556,4,2,1,40,0,0
96083,-55.5555555555556,4,2,1,35,0,0
96810,-55.5555555555556,4,2,1,30,0,0
97537,-55.5555555555556,4,2,1,25,0,0
98264,-55.5555555555556,4,2,1,60,0,1
99719,-55.5555555555556,4,2,1,60,0,1
102083,-55.5555555555556,4,1,1,60,0,1
102264,-55.5555555555556,4,2,1,60,0,1
109355,-55.5555555555556,4,1,1,60,0,1
109537,-55.5555555555556,4,2,1,60,0,1
113537,-50,4,2,1,60,0,1
113901,-55.5555555555556,4,2,1,60,0,1
114992,-50,4,2,1,60,0,1
115355,-55.5555555555556,4,2,1,60,0,1
121537,-76.9230769230769,4,2,1,60,0,0
126264,-71.4285714285714,4,2,1,60,0,0
126628,-66.6666666666667,4,2,1,60,0,0
127355,-62.5,4,2,1,60,0,0
132628,-62.5,4,1,1,60,0,0
132810,-62.5,4,2,1,60,0,0
141901,-125,4,2,1,60,0,0
142083,-125,4,2,1,10,0,0
144810,-125,4,2,1,5,0,0
145173,-125,4,2,1,10,0,0
145355,-125,4,2,1,20,0,0
145719,-125,4,2,1,10,0,0
145901,-125,4,2,1,20,0,0
146264,-125,4,2,1,10,0,0
146446,-125,4,2,1,20,0,0
146810,-100,4,2,1,10,0,0
146992,-100,4,2,1,20,0,0
148083,-100,4,2,1,10,0,0
148264,-100,4,2,1,20,0,0
148628,-100,4,2,1,10,0,0
148810,-100,4,2,1,20,0,0
149173,-100,4,2,1,10,0,0
149355,-100,4,2,1,20,0,0
149719,-100,4,2,1,10,0,0
149901,-100,4,2,1,20,0,0
150992,-100,4,2,1,10,0,0
151173,-100,4,2,1,20,0,0
151537,-100,4,2,1,10,0,0
151719,-100,4,2,1,20,0,0
156992,-100,4,2,1,30,0,0
157355,-100,4,2,1,20,0,0
157537,-100,4,2,1,30,0,0
159719,-100,4,2,1,20,0,0
159901,-100,4,2,1,30,0,0
160264,-100,4,2,1,20,0,0
160446,-100,4,2,1,30,0,0
162810,-100,4,2,1,40,0,0
163173,-100,4,2,1,30,0,0
163355,-100,4,2,1,40,0,0
163719,-100,4,2,1,30,0,0
163901,-100,4,2,1,40,0,0
166628,-76.9230769230769,4,2,1,40,0,0
167355,-62.5,4,2,1,60,0,0
168083,-55.5555555555556,4,2,1,60,0,0
188355,-55.5555555555556,4,2,1,30,0,0
200810,-55.5555555555556,4,2,1,60,0,0
202992,-55.5555555555556,4,2,1,60,0,1
218264,-50,4,2,1,60,0,1
218628,-55.5555555555556,4,2,1,60,0,1
219719,-50,4,2,1,60,0,1
220083,-55.5555555555556,4,2,1,60,0,1
226264,-55.5555555555556,4,2,1,60,0,0
229173,-55.5555555555556,4,2,1,60,0,1
237901,-55.5555555555556,4,2,1,60,0,0
238083,-55.5555555555556,4,1,1,60,0,0
238628,-55.5555555555556,4,2,1,60,0,0
240810,-55.5555555555556,4,2,1,60,0,1
246628,-55.5555555555556,4,2,1,60,0,0

[Colours]
Combo1 : 109,218,207
Combo2 : 209,209,209
Combo3 : 84,149,188
Combo4 : 37,101,112

[HitObjects]
144,164,9173,6,0,P|180:136|236:136,2,85,0|0|4,0:0|0:0|0:3,0:0:0:0:
140,264,10264,2,0,P|181:258|214:231,1,85,0|2,1:0|0:0,0:0:0:0:
272,148,10992,2,0,P|308:212|412:224,1,170,4|0,0:3|1:0,0:0:0:0:
296,48,12810,5,4,0:3:0:0:
272,148,13173,2,0,P|308:212|412:224,1,170,0|4,1:0|1:3,0:0:0:0:
296,48,14628,1,0,1:0:0:0:
272,148,14992,6,0,P|216:152|168:136,1,85
136,96,15537,1,0,0:0:0:0:
72,136,15719,1,4,3:0:0:0:
136,96,15901,1,0,0:0:0:0:
72,136,16083,2,0,L|56:236,1,85,0|2,1:0|0:0,0:0:0:0:
124,312,16810,2,0,B|152:288|208:308|208:308|264:328|292:304,2,170,4|0|0,0:3|1:0|0:0,0:0:0:0:
192,216,18628,5,4,0:3:0:0:
400,252,18992,1,0,1:0:0:0:
48,64,19719,1,4,1:3:0:0:
192,216,20446,1,0,1:0:0:0:
272,124,20810,6,0,L|340:132,1,42.5,0|4,0:0|0:3,0:0:0:0:
360,188,21173,2,0,P|352:220|372:284,2,85,0|4|0,0:0|0:3|1:0,0:0:0:0:
512,224,22264,1,2,0:0:0:0:
420,344,22628,6,0,L|244:360,1,170,4|0,0:3|1:0,0:0:0:0:
0,112,24083,2,0,L|92:120,1,85,0|4,0:0|0:3,0:0:0:0:
296,24,24810,1,0,1:0:0:0:
432,304,25537,6,0,P|392:312|336:312,1,85
284,212,26264,2,0,P|236:212|184:220,1,85,0|0,0:0|0:0,0:0:0:0:
116,312,26992,2,0,P|60:312|20:304,2,85
344,276,28446,5,4,0:0:0:0:
408,232,28628,2,0,L|424:152,2,68
344,276,29173,2,0,P|280:268|208:304,1,136,8|0,1:2|0:0,0:0:0:0:
268,360,29719,1,0,0:0:0:0:
216,296,29901,2,0,P|152:284|80:328,1,136,2|4,0:0|0:3,0:0:0:0:
20,264,30446,2,0,L|0:196,1,68,0|8,0:0|1:2,0:0:0:0:
92,116,30810,2,0,L|80:200,1,68
160,220,31173,1,0,0:0:0:0:
160,220,31355,5,4,0:3:0:0:
208,144,31537,1,0,0:0:0:0:
280,192,31719,2,0,P|312:204|356:204,1,68
364,116,32083,2,0,P|332:104|280:104,1,68,8|0,1:2|0:0,0:0:0:0:
384,224,32446,2,0,L|460:216,1,68,0|4,0:0|0:3,0:0:0:0:
280,192,32810,2,0,L|208:200,1,68,2|0,0:0|0:0,0:0:0:0:
364,116,33173,2,0,B|400:116|420:108|420:108|444:108|444:108|468:116|504:116,2,136,4|8|2,0:3|1:2|0:0,0:0:0:0:
56,56,34264,5,4,0:0:0:0:
112,124,34446,2,0,L|92:220,1,68
100,276,34810,1,0,0:0:0:0:
100,276,34992,2,0,P|144:292|236:292,1,136,8|0,1:2|0:0,0:0:0:0:
304,216,35537,1,0,0:0:0:0:
304,216,35719,2,0,P|264:208|224:216,1,68,2|0,0:0|0:0,0:0:0:0:
344,284,36083,2,0,P|372:256|380:212,1,68,4|0,0:3|0:0,0:0:0:0:
240,168,36446,2,0,P|224:228|280:292,2,136,8|2|4,1:2|0:0|0:3,0:0:0:0:
312,128,37355,5,0,0:0:0:0:
448,184,37537,1,0,0:0:0:0:
304,216,37719,1,0,0:0:0:0:
400,108,37901,1,8,1:2:0:0:
388,256,38083,1,0,0:0:0:0:
312,128,38264,1,2,0:0:0:0:
312,128,38628,6,0,P|316:88|304:56,1,68,2|0,0:0|0:0,0:0:0:0:
400,108,38992,1,4,0:3:0:0:
448,184,39173,1,0,0:0:0:0:
388,256,39355,1,8,1:2:0:0:
304,216,39537,1,0,0:0:0:0:
304,216,39719,2,0,P|296:272|352:340,1,136,2|4,0:0|0:0,0:0:0:0:
212,244,40264,5,0,0:0:0:0:
304,216,40446,1,2,0:0:0:0:
152,152,40628,1,0,0:0:0:0:
252,128,40810,1,8,1:2:0:0:
212,244,40992,1,0,0:0:0:0:
152,152,41173,1,2,0:0:0:0:
304,216,41355,1,0,0:0:0:0:
252,128,41537,1,2,0:0:0:0:
212,244,41719,5,0,0:0:0:0:
40,96,41901,1,4,0:3:0:0:
152,152,42083,1,0,0:0:0:0:
44,224,42264,1,8,1:2:0:0:
40,96,42446,1,0,0:0:0:0:
152,152,42628,2,0,P|156:216|92:284,1,136,2|4,0:0|0:3,0:0:0:0:
280,260,43173,5,0,0:0:0:0:
236,172,43355,1,2,0:0:0:0:
336,180,43537,1,0,0:0:0:0:
336,180,43719,1,8,1:2:0:0:
280,260,43901,2,0,P|276:300|288:348,2,68,0|2|4,0:0|0:0|0:3,0:0:0:0:
236,172,44446,6,0,P|224:204|204:232,1,68,2|0,0:0|0:0,0:0:0:0:
96,304,44810,2,0,L|167:295,1,68,4|0,0:3|0:0,0:0:0:0:
125,177,45173,2,0,P|167:229|163:296,1,136,8|2,1:2|0:0,0:0:0:0:
172,48,45901,6,0,P|240:96|404:24,1,272,4|8,0:0|1:2,0:0:0:0:
184,160,46992,2,0,L|196:240,1,68,2|0,0:0|0:0,0:0:0:0:
212,312,47355,2,0,P|308:276|444:372,1,272,0|8,0:0|1:2,0:0:0:0:
72,116,48810,6,0,P|249:176|125:81,1,544,4|0,0:3|0:0,0:0:0:0:
380,60,74992,6,0,P|380:100|352:160,1,76.4999976654053,4|0,0:0|0:0,0:0:0:0:
274,111,75355,2,0,P|238:120|208:144,1,76.4999976654053,8|0,0:0|0:0,0:0:0:0:
112,116,75719,2,0,P|88:88|68:28,2,76.4999976654053,2|0|8,0:0|0:0|0:0,0:0:0:0:
208,144,76264,1,0,0:0:0:0:
120,232,76446,6,0,L|144:308,2,76.4999976654053,2|0|8,0:0|0:0|0:0,0:0:0:0:
208,144,76992,1,0,0:0:0:0:
320,104,77173,2,0,L|336:28,2,76.4999976654053,2|0|8,0:0|0:0|0:0,0:0:0:0:
208,144,77719,1,0,0:0:0:0:
304,188,77901,5,4,0:0:0:0:
208,144,78083,1,0,0:0:0:0:
160,240,78264,1,8,0:0:0:0:
256,288,78446,1,0,0:0:0:0:
304,188,78628,2,0,P|360:180|432:240,1,152.999995330811,2|8,0:0|0:0,0:0:0:0:
344,276,79173,5,0,0:0:0:0:
430,237,79355,2,0,P|436:204|428:152,1,76.4999976654053,2|0,0:0|0:0,0:0:0:0:
356,88,79719,2,0,P|420:112|504:76,1,152.999995330811,8|2,0:0|0:0,0:0:0:0:
424,16,80264,1,0,0:0:0:0:
356,88,80446,1,8,0:0:0:0:
356,88,80628,1,0,0:0:0:0:
260,76,80810,6,0,L|248:0,1,76.4999976654053,4|0,0:0|0:0,0:0:0:0:
200,144,81173,2,0,L|212:220,1,76.4999976654053,8|0,0:0|0:0,0:0:0:0:
260,76,81537,1,2,0:0:0:0:
200,144,81719,1,0,0:0:0:0:
168,60,81901,1,8,0:0:0:0:
168,60,82083,1,0,0:0:0:0:
216,184,82264,5,2,0:0:0:0:
136,264,82446,1,0,0:0:0:0:
104,156,82628,1,8,0:0:0:0:
104,156,82810,1,0,0:0:0:0:
148,304,82992,5,2,0:0:0:0:
32,376,83173,1,0,0:0:0:0:
28,236,83355,2,0,L|12:76,1,152.999995330811,8|4,0:0|0:0,0:0:0:0:
104,156,83901,5,0,0:0:0:0:
136,264,84083,1,8,0:0:0:0:
104,156,84264,1,0,0:0:0:0:
148,304,84446,2,0,P|214:340|285:320,1,152.999995330811,2|8,0:0|0:0,0:0:0:0:
148,304,84992,1,0,0:0:0:0:
304,248,85173,2,0,P|336:264|356:308,1,76.4999976654053,2|0,0:0|0:0,0:0:0:0:
240,318,85537,2,0,P|204:254|228:184,1,152.999995330811,8|2,0:0|0:0,0:0:0:0:
400,196,86083,2,0,L|488:212,2,76.4999976654053,0|8|0,0:0|0:0|0:0,0:0:0:0:
304,248,86628,5,4,0:0:0:0:
352,96,86810,1,0,0:0:0:0:
400,196,86992,1,10,0:0:0:0:
304,248,87173,1,0,0:0:0:0:
304,248,87355,2,0,P|304:284|336:324,1,76.4999976654053,2|0,0:0|0:0,0:0:0:0:
240,188,87719,2,0,P|276:164|324:164,1,76.4999976654053,10|0,0:0|0:0,0:0:0:0:
160,168,88083,2,0,P|160:212|184:248,1,76.4999976654053,2|0,0:0|0:0,0:0:0:0:
112,96,88446,2,0,P|156:84|204:96,1,76.4999976654053,10|0,0:0|0:0,0:0:0:0:
36,56,88810,1,2,0:0:0:0:
160,168,88992,2,0,L|172:252,2,76.4999976654053,8|10|0,0:0|0:0|0:0,0:0:0:0:
252,88,89537,5,4,0:0:0:0:
240,188,89719,1,0,0:0:0:0:
240,188,89901,1,10,0:0:0:0:
316,256,90083,1,0,0:0:0:0:
316,256,90264,2,0,P|348:244|400:244,1,76.4999976654053,2|0,0:0|0:0,0:0:0:0:
356,84,90628,2,0,L|336:172,1,76.4999976654053,10|0,0:0|0:0,0:0:0:0:
476,96,90992,2,0,L|464:16,1,76.4999976654053,2|0,0:0|0:0,0:0:0:0:
356,84,91355,5,10,0:0:0:0:
408,192,91537,1,0,0:0:0:0:
372,303,91719,2,0,P|338:286|316:256,2,76.4999976654053,2|8|10,0:0|0:0|0:0,0:0:0:0:
180,288,92264,1,0,0:0:0:0:
256,180,92446,6,0,L|348:172,1,76.4999976654053,4|0,0:0|0:0,0:0:0:0:
180,288,92810,2,0,L|276:304,1,76.4999976654053,10|0,0:0|0:0,0:0:0:0:
40,288,93173,2,0,P|32:252|36:204,1,76.4999976654053,2|0,0:0|0:0,0:0:0:0:
256,180,93537,6,0,L|348:172,1,76.4999976654053,10|0,0:0|0:0,0:0:0:0:
180,288,93901,2,0,L|276:304,1,76.4999976654053,2|0,0:0|0:0,0:0:0:0:
40,288,94264,2,0,P|32:252|36:204,1,76.4999976654053,10|0,0:0|0:0,0:0:0:0:
132,88,94628,2,0,L|112:164,1,76.4999976654053,2|0,0:0|0:0,0:0:0:0:
229,43,94992,2,0,P|216:116|256:180,1,152.999995330811,10|0,0:0|0:0,0:0:0:0:
316,100,95537,5,0,0:0:0:0:
228,44,95719,1,0,0:0:0:0:
132,88,95901,1,0,0:0:0:0:
316,100,96083,2,0,L|408:92,1,76.4999976654053,2|0,0:0|0:0,0:0:0:0:
228,44,96446,2,0,L|64:56,1,152.999995330811,0|0,0:0|0:0,0:0:0:0:
316,100,96992,5,0,0:0:0:0:
132,88,97173,1,0,0:0:0:0:
228,44,97355,1,0,0:0:0:0:
132,88,97537,2,0,P|116:156|180:228,1,152.999995330811,2|0,0:0|0:0,0:0:0:0:
512,120,98264,6,0,B|488:188|388:184|388:184|284:180|256:252,1,305.999990661621,4|8,0:0|1:2,0:0:0:0:
356,300,99234,2,0,B|408:308|408:308|436:312|464:300,2,101.999996887207,0|0|0,3:0|3:0|3:0,0:0:0:0:
160,16,100446,6,0,P|168:72|96:152,1,152.999995330811,8|4,1:2|0:3,0:0:0:0:
76,56,100992,1,0,0:0:0:0:
76,56,101173,2,0,P|24:104|32:204,1,152.999995330811,4|0,0:3|0:0,0:0:0:0:
279,212,101901,6,0,L|432:224,2,152.999995330811,4|0|4,1:2|0:0|0:3,0:0:0:0:
368,304,102810,1,0,0:0:0:0:
432,224,102992,1,0,0:0:0:0:
432,224,103173,1,4,0:3:0:0:
460,124,103355,1,8,1:2:0:0:
460,124,103537,1,0,0:0:0:0:
432,20,103719,1,0,0:0:0:0:
432,20,103901,1,0,0:0:0:0:
340,64,104083,6,0,P|276:68|208:16,1,152.999995330811,4|0,0:3|0:0,0:0:0:0:
176,136,104628,1,0,0:0:0:0:
176,136,104810,2,0,P|192:184|196:256,2,101.999996887207,8|0|0,1:2|3:0|3:0,0:0:0:0:
12,8,105537,2,0,B|-8:76|48:144|48:144|108:212|68:300,1,305.999990661621,0|8,3:0|1:2,0:0:0:0:
232,52,106628,5,4,0:3:0:0:
232,52,106992,2,0,P|252:144|140:232,1,229.499992996216,4|8,0:3|3:0,0:0:0:0:
144,116,107719,2,0,P|208:160|332:100,1,229.499992996216,8|4,3:0|0:3,0:0:0:0:
232,52,108446,2,0,P|224:88|236:136,1,76.4999976654053,4|0,0:3|0:0,0:0:0:0:
272,240,108810,2,0,L|248:316,1,76.4999976654053,2|0,0:0|0:0,0:0:0:0:
380,192,109173,2,0,B|424:200|424:200|428:204|428:204|420:200|420:200|436:200|436:200|448:212|480:208|528:196,1,152.999995330811,8|0,1:2|0:0,0:0:0:0:
232,52,109901,6,0,B|196:124|256:188|256:188|320:252|280:336,1,305.999990661621,4|8,0:0|1:2,0:0:0:0:
188,276,110870,1,0,3:0:0:0:
188,276,111113,1,0,3:0:0:0:
188,276,111355,2,0,P|136:248|36:280,2,152.999995330811,4|0|8,0:3|0:0|1:2,0:0:0:0:
0,100,112446,5,4,0:3:0:0:
0,100,112810,2,0,P|28:132|132:164,1,152.999995330811,4|0,0:3|0:0,0:0:0:0:
184,212,113264,2,0,L|220:192,2,38.2499988327027,0|0|0,0:0|0:0|0:0,0:0:0:0:
152,232,113537,6,0,P|156:156|212:80,1,170,8|0,1:2|0:0,0:0:0:0:
320,56,114083,1,4,0:3:0:0:
320,56,114264,2,0,P|348:104|328:208,1,152.999995330811,4|0,0:3|0:0,0:0:0:0:
268,232,114719,2,0,L|224:216,2,38.2499988327027,0|4|4,0:0|0:3|0:3,0:0:0:0:
284,256,114992,6,0,P|244:288|124:268,1,170,8|8,1:2|1:2,0:0:0:0:
196,176,115537,1,0,0:0:0:0:
196,176,115719,2,0,B|220:132|100:132|132:40,1,152.999995330811,4|0,0:0|0:0,0:0:0:0:
12,292,116446,2,0,P|53:263|103:258,2,101.999996887207,8|0|0,1:2|3:0|3:0,0:0:0:0:
91,362,117173,2,0,P|163:342|103:158,1,305.999990661621,4|8,0:3|1:2,0:0:0:0:
348,40,118264,5,4,0:3:0:0:
348,40,118628,2,0,P|356:120|476:196,1,229.499992996216,4|8,0:3|3:0,0:0:0:0:
464,80,119355,2,0,B|452:140|392:172|392:172|364:172|312:172|280:200,1,229.499992996216,8|4,3:0|0:3,0:0:0:0:
216,276,120083,2,0,P|212:320|232:372,1,76.4999976654053,4|0,0:3|0:0,0:0:0:0:
287,193,120446,2,0,P|300:240|300:280,1,76.4999976654053,0|4,0:0|0:3,0:0:0:0:
139,200,120810,2,0,L|124:276,1,76.4999976654053,8|0,1:2|0:0,0:0:0:0:
160,116,121173,1,0,0:0:0:0:
160,116,121355,1,0,0:0:0:0:
216,48,121537,6,0,B|300:28|360:76|360:76|396:76|428:48,2,220.999989883423,0|8|0,3:0|1:2|0:0,0:0:0:0:
40,88,123355,1,0,1:0:0:0:
40,88,123719,1,8,1:2:0:0:
124,312,124446,6,0,P|168:264|268:280,1,165.749992412568,0|0,1:0|0:0,0:0:0:0:
212,344,125173,2,0,P|192:228|240:188,1,165.749992412568,8|4,1:2|3:0,0:0:0:0:
304,196,125901,2,0,L|372:220,1,55.2499974708558,0|8,0:0|3:0,0:0:0:0:
248,128,126264,2,0,L|164:104,1,59.4999981842042,0|8,0:0|3:0,0:0:0:0:
332,104,126628,2,0,L|424:136,1,63.7500024318696,0|8,0:0|3:0,0:0:0:0:
196,56,126992,1,0,0:0:0:0:
196,56,127173,1,8,0:3:0:0:
196,56,127355,6,0,P|164:112|192:196,1,136,4|0,0:0|0:0,0:0:0:0:
216,248,127901,1,0,0:0:0:0:
216,248,128083,1,8,1:2:0:0:
140,288,128264,1,0,0:0:0:0:
140,288,128446,2,0,P|80:280|16:320,1,136,2|2,0:0|0:0,0:0:0:0:
40,240,128992,5,0,0:0:0:0:
68,164,129173,2,0,L|44:96,1,68,4|8,0:3|0:0,0:0:0:0:
40,240,129537,1,8,1:2:0:0:
148,144,129719,1,2,0:0:0:0:
68,164,129901,2,0,P|76:104|148:60,1,136,2|4,0:0|0:3,0:0:0:0:
260,208,130628,5,2,0:0:0:0:
260,208,130810,2,0,P|300:216|344:216,1,68,0|8,0:0|1:2,0:0:0:0:
392,176,131173,1,0,0:0:0:0:
444,108,131355,2,0,P|476:172|440:244,1,136,2|2,0:0|0:0,0:0:0:0:
376,264,131901,2,0,L|408:340,2,68,0|4|0,0:0|3:0|0:0,0:0:0:0:
392,176,132446,6,0,B|368:160|328:164|328:164|288:152|252:164,1,136,2|4,2:0|0:2,0:0:0:0:
56,356,133173,2,0,P|20:320|36:216,1,136,4|0,0:3|0:0,0:0:0:0:
136,116,133719,2,0,P|152:172|84:244,1,136,2|0,0:0|0:0,0:0:0:0:
40,48,134264,2,0,P|32:120|100:172,2,136,2|0|2,0:0|0:0|0:0,0:0:0:0:
60,40,135083,1,0,0:0:0:0:
84,32,135173,1,2,0:0:0:0:
136,116,135355,6,0,P|152:180|100:244,1,136,8|2,1:2|0:0,0:0:0:0:
316,40,136083,1,4,0:3:0:0:
316,40,136264,1,0,0:0:0:0:
256,112,136446,1,2,0:0:0:0:
240,200,136628,1,0,0:0:0:0:
188,280,136810,1,8,1:2:0:0:
108,320,136992,1,0,0:0:0:0:
188,280,137173,6,0,P|228:280|276:296,1,68,2|4,0:0|0:3,0:0:0:0:
108,320,137537,2,0,L|40:308,1,68,0|2,0:0|0:0,0:0:0:0:
180,368,137901,2,0,P|212:376|260:372,1,68,4|8,0:3|1:2,0:0:0:0:
108,320,138264,5,8,1:2:0:0:
80,232,138446,1,0,0:0:0:0:
84,140,138628,1,4,0:0:0:0:
84,140,138810,1,0,0:0:0:0:
160,192,138992,6,0,P|224:236|400:172,1,272,4|8,0:3|1:2,0:0:0:0:
84,140,140083,2,0,L|48:228,1,68
160,192,140446,2,0,P|240:184|304:224,1,136,2|4,0:0|0:3,0:0:0:0:
136,32,141173,1,8,1:2:0:0:
136,32,141901,6,0,B|120:124|208:200|312:168|312:168|420:136|504:216|488:320,1,544,0|2,0:0|0:0,0:0:0:0:
464,96,145173,5,0,0:0:0:0:
432,96,145355,1,2,0:0:0:0:
380,248,145719,1,0,0:0:0:0:
392,280,145901,1,2,0:0:0:0:
212,288,146264,1,0,0:0:0:0:
188,316,146446,1,2,0:0:0:0:
4,260,146810,2,0,L|24:200,1,42.5,0|2,0:0|0:0,0:0:0:0:
44,148,147173,1,0,0:0:0:0:
44,148,147355,2,0,P|92:164|148:164,1,85,2|2,0:0|0:0,0:0:0:0:
288,56,148083,6,0,P|312:48|340:48,1,42.5,0|2,0:0|0:0,0:0:0:0:
416,208,148628,2,0,P|440:208|472:200,1,42.5,0|2,0:0|0:0,0:0:0:0:
200,316,149173,2,0,L|232:352,1,42.5,0|2,0:0|0:0,0:0:0:0:
68,200,149719,2,0,P|68:224|56:256,1,42.5,0|2,0:0|0:0,0:0:0:0:
136,144,150083,2,0,L|152:200,2,42.5,0|2|0,0:0|0:0|0:0,0:0:0:0:
208,80,150628,6,0,P|244:96|308:96,1,85,2|0,0:0|0:0,0:0:0:0:
324,180,151173,2,0,L|420:164,1,85,2|0,0:0|0:0,0:0:0:0:
452,256,151719,2,0,L|396:248,1,42.5,2|0,0:0|0:0,0:0:0:0:
500,192,152083,2,0,P|452:244|476:344,1,170,0|2,0:0|0:0,0:0:0:0:
328,48,153537,6,0,B|332:96|280:124|280:124|252:164|272:208,1,170,2|0,0:0|0:0,0:0:0:0:
116,124,154628,2,0,P|100:104|88:72,2,42.5,2|0|0,0:0|0:0|0:0,0:0:0:0:
224,268,155355,2,0,P|248:276|276:304,2,42.5,0|0|2,0:0|0:0|0:0,0:0:0:0:
148,296,155901,1,0,0:0:0:0:
72,280,156083,2,0,P|76:260|96:232,1,42.5,2|0,0:0|0:0,0:0:0:0:
148,296,156446,6,0,P|168:328|220:348,1,85,2|0,0:0|0:0,0:0:0:0:
304,284,156992,2,0,P|296:228|268:192,1,85,2|0,0:0|0:0,0:0:0:0:
224,268,157537,1,2,0:0:0:0:
460,352,157901,2,0,B|456:304|404:272|404:272|392:224|416:192,2,170,0|2|2,0:0|0:0|0:0,0:0:0:0:
484,112,159719,1,0,0:0:0:0:
484,112,159901,1,2,0:0:0:0:
232,96,160264,5,0,0:0:0:0:
232,96,160446,2,0,P|184:100|148:96,2,85,2|0|0,0:0|0:0|0:0,0:0:0:0:
144,228,161537,1,2,0:0:0:0:
212,268,161719,1,0,0:0:0:0:
144,228,161901,1,2,0:0:0:0:
212,268,162083,1,0,0:0:0:0:
144,228,162264,6,0,P|136:288|152:320,1,85,2|0,0:0|0:0,0:0:0:0:
216,348,162810,2,0,L|304:332,1,85,2|0,0:0|0:0,0:0:0:0:
368,300,163355,2,0,P|384:260|360:200,1,85,2|0,0:0|0:0,0:0:0:0:
376,136,163901,2,0,P|424:148|464:116,1,85,2|0,0:0|0:0,0:0:0:0:
332,72,164446,6,0,P|300:120|364:212,3,170,2|0|2|0,0:0|0:0|0:0|0:0,0:0:0:0:
312,284,166810,2,0,L|340:336,2,55.2499974708558,0|2|0,0:0|0:0|0:0,0:0:0:0:
216,240,167355,2,0,P|160:236|88:276,2,136,2|2|4,0:0|0:0|0:0,0:0:0:0:
292,152,168264,5,0,0:0:0:0:
292,152,168446,1,10,0:0:0:0:
244,56,168628,1,0,0:0:0:0:
244,56,168810,2,0,L|152:48,1,76.4999976654053,8|0,1:2|0:0,0:0:0:0:
292,152,169173,6,0,L|384:144,1,76.4999976654053,10|0,0:0|0:0,0:0:0:0:
344,272,169537,2,0,L|248:256,2,76.4999976654053,8|0|10,1:2|0:0|0:0,0:0:0:0:
292,152,170083,1,0,0:0:0:0:
332,32,170264,2,0,L|424:24,2,76.4999976654053,8|0|10,1:2|0:0|0:0,0:0:0:0:
292,152,170810,1,0,0:0:0:0:
232,64,170992,5,4,1:2:0:0:
232,64,171173,1,0,0:0:0:0:
292,152,171355,2,0,P|296:200|272:244,1,76.4999976654053,10|0,0:0|0:0,0:0:0:0:
128,284,171719,2,0,P|156:208|240:184,1,152.999995330811,8|10,1:2|0:0,0:0:0:0:
224,280,172264,1,0,0:0:0:0:
128,284,172446,5,8,1:2:0:0:
224,280,172628,1,0,0:0:0:0:
36,264,172810,2,0,P|44:333|128:380,1,152.999995330811,10|8,0:0|1:2,0:0:0:0:
128,284,173355,1,0,0:0:0:0:
232,184,173537,1,10,0:0:0:0:
136,188,173719,1,0,0:0:0:0:
224,280,173901,5,4,1:2:0:0:
128,284,174083,1,0,0:0:0:0:
232,184,174264,2,0,L|316:192,1,76.4999976654053,10|0,0:0|0:0,0:0:0:0:
376,332,174628,2,0,P|340:320|312:280,1,76.4999976654053,8|0,1:2|0:0,0:0:0:0:
396,168,174992,2,0,P|404:204|380:264,1,76.4999976654053,10|0,0:0|0:0,0:0:0:0:
480,100,175355,6,0,L|440:28,2,76.4999976654053,8|0|10,1:2|0:0|0:0,0:0:0:0:
508,216,175901,1,0,0:0:0:0:
396,168,176083,2,0,P|356:160|308:160,1,76.4999976654053,8|0,1:2|0:0,0:0:0:0:
256,32,176446,2,0,B|272:64|248:108|248:108|224:148|240:188,1,152.999995330811,10|4,0:0|1:2,0:0:0:0:
148,240,176992,6,0,L|52:232,2,76.4999976654053,0|10|0,0:0|0:0|0:0,0:0:0:0:
240,316,177537,2,0,P|208:249|236:180,1,152.999995330811,8|10,1:2|0:0,0:0:0:0:
116,136,178083,5,0,0:0:0:0:
44,216,178264,1,8,1:2:0:0:
148,240,178446,1,0,0:0:0:0:
192,96,178628,2,0,L|24:108,1,152.999995330811,10|8,0:0|1:2,0:0:0:0:
44,216,179173,1,0,0:0:0:0:
116,136,179355,1,10,0:0:0:0:
44,216,179537,1,0,0:0:0:0:
236,188,179719,6,0,P|280:188|316:196,2,76.4999976654053,4|0|10,1:2|0:0|0:0,0:0:0:0:
152,292,180264,1,0,0:0:0:0:
152,292,180446,2,0,L|140:212,1,76.4999976654053,4|0,1:2|0:0,0:0:0:0:
308,104,180810,2,0,P|317:141|318:180,1,76.4999976654053,10|0,0:0|0:0,0:0:0:0:
209,131,181173,2,0,P|200:94|200:56,1,76.4999976654053,4|0,1:2|0:0,0:0:0:0:
396,176,181537,6,0,L|408:256,1,76.4999976654053,10|0,0:0|0:0,0:0:0:0:
308,104,181901,1,4,1:2:0:0:
492,112,182083,1,8,0:0:0:0:
308,104,182264,1,10,0:0:0:0:
396,176,182446,1,2,0:0:0:0:
324,8,182628,6,0,L|244:36,1,76.4999976654053,4|0,1:2|0:0,0:0:0:0:
164,136,182992,2,0,P|201:143|239:143,1,76.4999976654053,10|0,0:0|0:0,0:0:0:0:
92,48,183355,2,0,L|64:148,1,76.4999976654053,4|0,1:2|0:0,0:0:0:0:
52,292,183719,2,0,L|44:208,1,76.4999976654053,10|0,0:0|0:0,0:0:0:0:
144,336,184083,6,0,P|192:336|236:324,1,76.4999976654053,4|0,1:2|0:0,0:0:0:0:
352,240,184446,2,0,P|304:240|260:252,1,76.4999976654053,10|0,0:0|0:0,0:0:0:0:
432,320,184810,1,4,1:2:0:0:
400,136,184992,1,8,0:0:0:0:
352,240,185173,1,10,0:0:0:0:
400,136,185355,1,2,0:0:0:0:
352,240,185537,5,4,1:2:0:0:
188,256,185719,1,0,1:0:0:0:
316,316,185901,1,0,1:0:0:0:
224,180,186083,1,0,1:0:0:0:
352,240,186264,2,0,P|396:296|372:376,1,152.999995330811,4|8,1:2|1:2,0:0:0:0:
232,328,186810,5,0,1:0:0:0:
304,172,186992,1,4,1:2:0:0:
316,316,187173,1,0,1:0:0:0:
224,180,187355,2,0,P|192:176|144:192,1,76.4999976654053,0|0,1:0|1:0,0:0:0:0:
84,104,187719,2,0,P|104:168|56:260,1,152.999995330811,4|0,1:2|1:0,0:0:0:0:
56,260,188173,1,0,1:0:0:0:
36,272,188264,1,0,1:0:0:0:
168,336,188446,5,0,1:0:0:0:
184,324,188537,1,0,1:0:0:0:
200,312,188628,1,0,1:0:0:0:
216,300,188719,1,0,1:0:0:0:
232,288,188810,1,0,1:0:0:0:
248,276,188901,1,0,1:0:0:0:
264,264,188992,1,0,1:0:0:0:
280,252,189083,1,0,1:0:0:0:
296,236,189173,6,0,L|344:220,3,38.2499988327027,0|0|0|0,1:0|1:0|1:0|1:0,1:0:0:0:
340,200,189537,2,0,L|360:152,3,38.2499988327027,0|0|0|0,1:0|1:0|1:0|1:0,1:0:0:0:
368,128,189901,6,0,P|324:136|280:136,1,76.4999976654053,0|0,0:0|0:0,1:0:0:0:
240,64,190264,2,0,L|148:36,1,76.4999976654053
56,48,190628,2,0,P|56:124|78:197,1,152.999995330811
78,197,191355,5,12,1:3:0:0:
392,120,201537,54,0,P|348:128|304:128,1,76.4999976654053,0|0,0:0|0:0,0:0:0:0:
240,64,201901,2,0,L|148:36,1,76.4999976654053
58,50,202264,2,0,P|58:126|80:199,1,152.999995330811,4|0,1:2|0:0,0:0:0:0:
8,364,202992,6,0,P|68:316|216:324,1,229.499992996216,4|0,0:0|0:0,0:0:0:0:
320,356,203719,2,0,P|316:300|344:252,2,101.999996887207,8|0|0,1:2|3:0|3:0,0:0:0:0:
214,287,204446,2,0,P|227:177|152:96,1,229.499992996216,4|0,0:3|0:0,0:0:0:0:
56,40,205173,6,0,L|88:200,1,152.999995330811,8|4,1:2|0:3,0:0:0:0:
152,96,205719,1,0,0:0:0:0:
152,96,205901,2,0,P|208:64|300:84,1,152.999995330811,4|0,0:3|0:0,0:0:0:0:
450,153,206628,6,0,P|405:254|296:276,1,229.499992996216,4|4,1:2|0:3,0:0:0:0:
208,340,207355,2,0,L|292:360,1,76.4999976654053,4|0,0:3|0:0,0:0:0:0:
148,244,207719,2,0,P|184:244|232:264,1,76.4999976654053,2|4,0:0|0:3,0:0:0:0:
68,292,208083,2,0,P|56:240|68:196,1,76.4999976654053,8|0,1:2|0:0,0:0:0:0:
68,188,208355,1,0,0:0:0:0:
80,160,208446,1,2,0:0:0:0:
128,56,208628,1,0,0:0:0:0:
128,56,208810,6,0,P|172:84|276:64,1,152.999995330811,4|0,0:3|0:0,0:0:0:0:
216,164,209355,1,0,0:0:0:0:
216,164,209537,2,0,P|208:212|236:268,2,101.999996887207,8|0|0,1:2|3:0|3:0,0:0:0:0:
340,248,210264,2,0,P|316:332|128:316,1,305.999990661621,4|8,0:3|1:2,0:0:0:0:
88,60,211355,1,4,0:3:0:0:
88,60,211719,6,0,B|64:111|129:158|129:158|187:200|164:257,1,229.499992996216,4|8,0:3|3:0,0:0:0:0:
64,220,212446,2,0,P|124:156|256:196,1,229.499992996216,8|4,3:0|0:3,0:0:0:0:
256,312,213173,2,0,P|224:344|196:356,1,76.4999976654053,4|0,0:3|0:0,0:0:0:0:
74,293,213537,2,0,P|62:257|64:219,1,76.4999976654053,2|4,0:0|0:3,0:0:0:0:
168,256,213901,2,0,B|180:224|180:224|176:212|176:212|196:164|168:100,1,152.999995330811,8|0,1:2|0:0,0:0:0:0:
296,228,214628,6,0,P|368:244|468:124,1,229.499992996216,4|0,0:0|0:0,0:0:0:0:
404,44,215355,2,0,P|370:81|355:130,3,101.999996887207,8|0|0|4,1:2|3:0|3:0|0:3,0:0:0:0:
232,296,216446,1,2,0:0:0:0:
232,296,216810,2,0,P|244:236|196:148,1,152.999995330811,8|4,1:2|0:3,0:0:0:0:
32,16,217537,2,0,P|20:76|68:164,1,152.999995330811,4|0,0:3|0:0,0:0:0:0:
132,144,217992,2,0,L|124:192,2,38.2499988327027
136,104,218264,6,0,B|156:144|128:188|128:188|96:236|124:276,1,170,8|0,1:2|0:0,0:0:0:0:
208,332,218810,1,4,3:0:0:0:
208,332,218992,2,0,P|260:300|356:320,1,152.999995330811,8|0,0:3|0:0,0:0:0:0:
424,272,219446,2,0,L|468:280,2,38.2499988327027,0|4|4,0:0|0:3|0:3,0:0:0:0:
396,256,219719,6,0,P|416:200|372:88,1,170,8|8,1:2|1:2,0:0:0:0:
292,52,220264,1,0,0:0:0:0:
236,136,220446,2,0,P|164:144|84:112,2,152.999995330811,4|0|8,0:0|0:0|1:2,0:0:0:0:
176,248,221416,1,0,3:0:0:0:
176,248,221658,1,0,3:0:0:0:
176,248,221901,2,0,P|256:224|396:324,1,229.499992996216,0|0,3:0|0:0,0:0:0:0:
480,304,222628,6,0,L|504:224,1,76.4999976654053,8|0,1:2|0:0,0:0:0:0:
416,112,222992,2,0,L|424:188,1,76.4999976654053,4|0,0:3|0:0,0:0:0:0:
468,56,223355,2,0,P|412:112|332:112,1,152.999995330811,4|0,0:3|0:0,0:0:0:0:
260,44,223901,1,8,3:0:0:0:
341,115,224083,6,0,P|352:168|288:268,1,152.999995330811,8|0,3:0|0:0,0:0:0:0:
188,220,224628,1,8,3:0:0:0:
188,220,224810,2,0,L|96:244,1,76.4999976654053,8|0,3:0|0:0,0:0:0:0:
364,236,225173,2,0,L|440:244,1,76.4999976654053,0|4,0:0|0:3,0:0:0:0:
340,116,225537,2,0,L|256:112,1,76.4999976654053,8|0,1:2|0:0,0:0:0:0:
272,328,225901,2,0,L|356:332,1,76.4999976654053
448,136,226264,6,0,P|339:116|250:183,1,229.499992996216,4|0,0:3|0:0,0:0:0:0:
224,280,226992,2,0,P|184:324|76:320,1,152.999995330811,8|0,1:2|0:0,0:0:0:0:
8,184,227537,5,4,3:0:0:0:
8,184,227719,1,4,3:0:0:0:
8,184,228083,5,2,0:0:0:0:
92,132,228264,1,0,0:0:0:0:
100,232,228446,1,2,0:0:0:0:
8,84,228628,1,0,0:0:0:0:
92,132,228810,1,2,0:0:0:0:
8,184,228992,1,0,0:0:0:0:
88,28,229173,6,0,P|160:52|196:132,1,152.999995330811,4|0,0:0|0:0,0:0:0:0:
272,180,229719,1,0,0:0:0:0:
272,180,229901,2,0,P|340:192|416:132,2,152.999995330811,4|0|4,1:2|0:0|0:0,0:0:0:0:
320,92,230810,6,0,L|372:72,2,38.2499988327027,2|0|2,0:0|0:0|0:0,0:0:0:0:
226,121,231173,1,2,0:0:0:0:
226,121,231264,1,0,0:0:0:0:
226,121,231355,2,0,P|242:155|272:180,1,76.4999976654053,8|0,1:2|0:0,0:0:0:0:
128,128,231719,1,0,0:0:0:0:
228,112,231901,1,0,0:0:0:0:
128,128,232083,6,0,P|152:192|124:288,1,152.999995330811,4|0,0:0|0:0,0:0:0:0:
64,340,232628,1,0,0:0:0:0:
64,340,232810,2,0,P|44:300|44:240,3,101.999996887207,4|0|0|0,0:0|3:0|3:0|3:0,0:0:0:0:
168,44,233901,5,0,0:0:0:0:
168,44,234083,1,0,0:0:0:0:
168,44,234264,2,0,P|244:20|340:40,2,152.999995330811,4|4|4,1:2|0:3|0:3,0:0:0:0:
396,208,235355,5,2,0:0:0:0:
396,208,235446,1,0,0:0:0:0:
396,208,235537,1,8,3:0:0:0:
316,264,235719,2,0,P|300:192|348:116,1,152.999995330811,8|2,3:0|0:0,0:0:0:0:
376,112,236173,1,0,0:0:0:0:
376,112,236264,1,8,3:0:0:0:
452,288,236446,6,0,P|379:303|316:264,1,152.999995330811,8|2,3:0|0:0,0:0:0:0:
304,224,236901,1,0,0:0:0:0:
304,224,236992,1,8,3:0:0:0:
376,112,237173,2,0,P|416:112|464:136,1,76.4999976654053,4|0,1:2|0:0,0:0:0:0:
304,224,237537,2,0,P|264:224|216:200,1,76.4999976654053,2|0,0:0|0:0,0:0:0:0:
284,116,237901,6,0,B|224:76|140:136|140:136|56:196|-8:136,1,305.999990661621,4|0,0:3|1:0,0:0:0:0:
64,264,238810,5,0,0:0:0:0:
136,288,238992,1,2,0:0:0:0:
136,288,239173,1,0,0:0:0:0:
208,248,239355,1,2,0:0:0:0:
208,248,239537,1,0,0:0:0:0:
208,248,239719,1,4,0:3:0:0:
172,20,240083,1,2,0:0:0:0:
376,160,240446,6,0,L|464:140,1,76.4999976654053,2|0,0:0|0:0,0:0:0:0:
356,32,240810,5,4,0:0:0:0:
260,64,240992,1,0,0:0:0:0:
260,64,241173,1,0,0:0:0:0:
216,152,241355,1,0,0:0:0:0:
216,152,241537,1,4,1:2:0:0:
132,204,241719,1,0,0:0:0:0:
132,204,241901,1,0,0:0:0:0:
32,212,242083,1,4,0:3:0:0:
32,212,242264,6,0,P|20:252|36:312,1,76.4999976654053,0|0,1:0|0:0,0:0:0:0:
132,308,242628,2,0,P|176:320|220:348,1,76.4999976654053,2|4,0:0|0:3,0:0:0:0:
132,204,242992,2,0,P|128:168|140:120,2,76.4999976654053,8|0|0,1:2|0:0|0:0,0:0:0:0:
124,48,243537,6,0,P|158:49|209:92,1,76.4999976654053,0|4,0:0|3:0,0:0:0:0:
208,84,243810,1,0,0:0:0:0:
224,96,243901,1,0,0:0:0:0:
240,108,243992,1,0,0:0:0:0:
256,120,244083,1,0,0:0:0:0:
272,132,244173,1,0,0:0:0:0:
288,144,244264,1,0,0:0:0:0:
304,156,244355,1,0,0:0:0:0:
320,168,244446,6,0,P|332:216|312:284,2,101.999996887207,8|0|0,1:2|3:0|3:0,0:0:0:0:
376,336,245173,2,0,B|332:364|268:344|268:344|200:320|156:356,1,229.499992996216,4|0,0:3|0:0,0:0:0:0:
188,220,245901,5,4,1:2:0:0:
236,112,246083,1,0,0:0:0:0:
128,68,246264,1,4,0:3:0:0:
84,176,246446,1,0,0:0:0:0:
84,176,246628,1,4,0:3:0:0:
236,316,246992,5,0,0:0:0:0:
332,268,247173,1,8,3:0:0:0:
288,172,247355,1,8,3:0:0:0:
188,220,247537,1,0,0:0:0:0:
188,220,247719,1,0,0:0:0:0:
388,340,248083,5,4,3:0:0:0:
456,280,248264,1,0,0:0:0:0:
400,212,248446,1,2,0:0:0:0:
332,268,248628,1,4,0:3:0:0:
456,280,248810,1,4,1:2:0:0:
400,212,248992,1,0,0:0:0:0:
388,340,249173,1,0,1:0:0:0:
332,268,249355,1,0,0:0:0:0:
332,268,249537,1,2,0:0:0:0:
