osu file format v14

[General]
AudioFilename: saitama2000.mp3
AudioLeadIn: 0
PreviewTime: 12572
Countdown: 0
SampleSet: None
StackLeniency: 0.7
Mode: 1
LetterboxInBreaks: 1
WidescreenStoryboard: 1

[Editor]
DistanceSpacing: 1.2
BeatDivisor: 4
GridSize: 8
TimelineZoom: 1.7

[Metadata]
Title:Saitama 2000
TitleUnicode:さいたま2000
Artist:LindaAI-CUE
ArtistUnicode:LindaAI-CUE
Creator:Sacowea
Version:Futsuu
Source:太鼓の達人
Tags:taiko no tatsujin
BeatmapID:1179172
BeatmapSetID:557258

[Difficulty]
HPDrainRate:7
CircleSize:4
OverallDifficulty:4
ApproachRate:5
SliderMultiplier:1.4
SliderTickRate:1

[Events]
//Background and Video events
0,0,"taikoBG.jpg",0,0
//Break Periods
//Storyboard Layer 0 (Background)
//Storyboard Layer 1 (Fail)
//Storyboard Layer 2 (Pass)
//Storyboard Layer 3 (Foreground)
//Storyboard Sound Samples

[TimingPoints]
572,300,4,1,0,100,1,0
12572,-100,4,1,0,100,0,1
31772,-100,4,1,0,100,0,0
83372,-100,4,1,0,100,0,1
102572,-100,4,1,0,100,0,0

[HitObjects]
168,216,2972,5,0,0:0:0:0:
168,216,3272,1,0,0:0:0:0:
168,216,3572,1,0,0:0:0:0:
168,216,3872,1,0,0:0:0:0:
168,216,4172,1,0,0:0:0:0:
168,216,4472,1,0,0:0:0:0:
168,216,4772,1,2,0:0:0:0:
168,216,5372,5,0,0:0:0:0:
168,216,5672,1,0,0:0:0:0:
168,216,5972,1,0,0:0:0:0:
168,216,6272,1,0,0:0:0:0:
168,216,6572,1,0,0:0:0:0:
168,216,6872,1,0,0:0:0:0:
168,216,7172,1,2,0:0:0:0:
168,216,7772,5,0,0:0:0:0:
168,216,8072,1,0,0:0:0:0:
168,216,8372,1,0,0:0:0:0:
168,216,8672,1,0,0:0:0:0:
168,216,8972,1,0,0:0:0:0:
168,216,9272,1,0,0:0:0:0:
168,216,9572,1,2,0:0:0:0:
168,216,10172,5,0,0:0:0:0:
168,216,10472,1,0,0:0:0:0:
168,216,10772,1,0,0:0:0:0:
168,216,11072,1,0,0:0:0:0:
168,216,11372,1,0,0:0:0:0:
168,216,11672,1,0,0:0:0:0:
168,216,11972,1,6,0:0:0:0:
216,144,12572,5,0,0:0:0:0:
216,144,12872,1,0,0:0:0:0:
216,144,13172,1,0,0:0:0:0:
216,144,13322,1,0,0:0:0:0:
216,144,13472,1,0,0:0:0:0:
216,144,13772,1,0,0:0:0:0:
216,144,14072,1,0,0:0:0:0:
216,144,14372,1,0,0:0:0:0:
216,144,14522,1,0,0:0:0:0:
216,144,14672,1,0,0:0:0:0:
216,144,14972,5,0,0:0:0:0:
216,144,15272,1,0,0:0:0:0:
216,144,15572,1,0,0:0:0:0:
216,144,15722,1,0,0:0:0:0:
216,144,15872,1,0,0:0:0:0:
216,144,16172,1,0,0:0:0:0:
216,144,16472,1,0,0:0:0:0:
216,144,16772,1,4,0:0:0:0:
216,144,17372,5,0,0:0:0:0:
216,144,17672,1,0,0:0:0:0:
216,144,17972,1,0,0:0:0:0:
216,144,18122,1,0,0:0:0:0:
216,144,18272,1,0,0:0:0:0:
216,144,18572,1,0,0:0:0:0:
216,144,18872,1,0,0:0:0:0:
216,144,19172,1,0,0:0:0:0:
216,144,19322,1,0,0:0:0:0:
216,144,19472,1,0,0:0:0:0:
216,144,19772,5,0,0:0:0:0:
216,144,20072,1,0,0:0:0:0:
216,144,20372,1,0,0:0:0:0:
216,144,20522,1,0,0:0:0:0:
216,144,20672,1,0,0:0:0:0:
216,144,20972,1,0,0:0:0:0:
216,144,21272,1,0,0:0:0:0:
216,144,21572,1,4,0:0:0:0:
288,224,22172,5,2,0:0:0:0:
288,224,22472,1,2,0:0:0:0:
288,224,22772,1,0,0:0:0:0:
288,224,22922,1,0,0:0:0:0:
288,224,23072,1,0,0:0:0:0:
288,224,23372,1,2,0:0:0:0:
288,224,23672,1,2,0:0:0:0:
288,224,23972,1,0,0:0:0:0:
288,224,24122,1,0,0:0:0:0:
288,224,24272,1,0,0:0:0:0:
288,224,24572,5,2,0:0:0:0:
288,224,24872,1,2,0:0:0:0:
288,224,25172,1,0,0:0:0:0:
288,224,25322,1,0,0:0:0:0:
288,224,25472,1,0,0:0:0:0:
288,224,25772,1,2,0:0:0:0:
288,224,26072,1,2,0:0:0:0:
288,224,26372,1,4,0:0:0:0:
288,224,26972,5,2,0:0:0:0:
288,224,27272,1,2,0:0:0:0:
288,224,27572,1,0,0:0:0:0:
288,224,27722,1,0,0:0:0:0:
288,224,27872,1,0,0:0:0:0:
288,224,28172,1,2,0:0:0:0:
288,224,28472,1,2,0:0:0:0:
288,224,28772,1,0,0:0:0:0:
288,224,28922,1,0,0:0:0:0:
288,224,29072,1,0,0:0:0:0:
288,224,29372,5,2,0:0:0:0:
288,224,29672,1,2,0:0:0:0:
288,224,29972,1,0,0:0:0:0:
288,224,30122,1,0,0:0:0:0:
288,224,30272,1,0,0:0:0:0:
288,224,30572,1,2,0:0:0:0:
288,224,30872,1,2,0:0:0:0:
288,224,31172,1,4,0:0:0:0:
144,144,31772,5,0,0:0:0:0:
144,144,32072,1,0,0:0:0:0:
144,144,32372,1,0,0:0:0:0:
144,144,32522,1,0,0:0:0:0:
144,144,32672,1,0,0:0:0:0:
144,144,32972,1,0,0:0:0:0:
144,144,33122,1,0,0:0:0:0:
144,144,33272,1,0,0:0:0:0:
144,144,33422,1,0,0:0:0:0:
144,144,33572,1,0,0:0:0:0:
144,144,33872,1,2,0:0:0:0:
144,144,34172,5,0,0:0:0:0:
144,144,34472,1,0,0:0:0:0:
144,144,34772,1,0,0:0:0:0:
144,144,34922,1,0,0:0:0:0:
144,144,35072,1,0,0:0:0:0:
144,144,35372,1,0,0:0:0:0:
144,144,35522,1,0,0:0:0:0:
144,144,35672,1,0,0:0:0:0:
144,144,35822,1,0,0:0:0:0:
144,144,35972,1,0,0:0:0:0:
144,144,36572,5,0,0:0:0:0:
144,144,36872,1,0,0:0:0:0:
144,144,37172,1,0,0:0:0:0:
144,144,37322,1,0,0:0:0:0:
144,144,37472,1,0,0:0:0:0:
144,144,37772,1,0,0:0:0:0:
144,144,37922,1,0,0:0:0:0:
144,144,38072,1,0,0:0:0:0:
144,144,38222,1,0,0:0:0:0:
144,144,38372,1,0,0:0:0:0:
144,144,38672,1,2,0:0:0:0:
144,144,38972,5,0,0:0:0:0:
144,144,39272,1,0,0:0:0:0:
144,144,39572,1,0,0:0:0:0:
144,144,39722,1,0,0:0:0:0:
144,144,39872,1,0,0:0:0:0:
144,144,40172,1,0,0:0:0:0:
144,144,40322,5,0,0:0:0:0:
144,144,40472,1,0,0:0:0:0:
144,144,40622,1,0,0:0:0:0:
144,144,40772,1,0,0:0:0:0:
144,152,41072,1,6,0:0:0:0:
344,112,41372,5,4,0:0:0:0:
344,112,42572,1,4,0:0:0:0:
344,112,43772,1,4,0:0:0:0:
344,112,44972,1,4,0:0:0:0:
344,112,46172,5,4,0:0:0:0:
344,112,46772,1,0,0:0:0:0:
344,112,47372,1,4,0:0:0:0:
344,112,47972,1,0,0:0:0:0:
344,112,48572,1,4,0:0:0:0:
344,112,49172,1,0,0:0:0:0:
344,112,49772,1,4,0:0:0:0:
344,112,50372,1,0,0:0:0:0:
344,112,50972,5,4,0:0:0:0:
344,112,51572,1,0,0:0:0:0:
344,112,51872,1,0,0:0:0:0:
344,112,52172,1,4,0:0:0:0:
344,112,52772,1,0,0:0:0:0:
344,112,53072,1,0,0:0:0:0:
344,112,53372,1,4,0:0:0:0:
344,112,53972,1,0,0:0:0:0:
344,112,54272,1,0,0:0:0:0:
344,112,54572,1,4,0:0:0:0:
344,112,55172,1,0,0:0:0:0:
344,112,55472,1,0,0:0:0:0:
344,112,55772,5,4,0:0:0:0:
344,112,56072,1,0,0:0:0:0:
344,112,56372,1,0,0:0:0:0:
344,112,56672,1,0,0:0:0:0:
344,112,56972,1,4,0:0:0:0:
344,112,57272,1,0,0:0:0:0:
344,112,57572,1,0,0:0:0:0:
344,112,57872,1,0,0:0:0:0:
344,112,58172,1,4,0:0:0:0:
344,112,58472,1,0,0:0:0:0:
344,112,58772,1,0,0:0:0:0:
344,112,59072,1,0,0:0:0:0:
344,112,59372,1,4,0:0:0:0:
344,112,59672,1,0,0:0:0:0:
344,112,59972,1,0,0:0:0:0:
344,112,60272,1,0,0:0:0:0:
368,200,60572,5,2,0:0:0:0:
368,200,60872,1,2,0:0:0:0:
368,200,61172,1,2,0:0:0:0:
368,200,61472,1,2,0:0:0:0:
368,200,61772,1,2,0:0:0:0:
368,200,62072,1,2,0:0:0:0:
368,200,62372,1,2,0:0:0:0:
368,200,62972,1,2,0:0:0:0:
368,200,63272,1,2,0:0:0:0:
368,200,63572,1,2,0:0:0:0:
368,200,63872,1,2,0:0:0:0:
296,232,64172,2,0,B|144:256|136:128|440:64|440:288,1,420
176,192,65372,5,2,0:0:0:0:
176,192,65672,1,2,0:0:0:0:
176,192,65972,1,2,0:0:0:0:
176,192,66272,1,2,0:0:0:0:
176,192,66572,1,2,0:0:0:0:
176,192,66872,1,2,0:0:0:0:
176,192,67172,1,2,0:0:0:0:
176,192,67772,1,2,0:0:0:0:
176,192,68072,1,2,0:0:0:0:
176,192,68372,1,2,0:0:0:0:
176,192,68672,1,2,0:0:0:0:
296,232,68972,2,0,B|144:256|136:128|440:64|437:254|437:254|296:312,1,560
112,160,73772,5,0,0:0:0:0:
112,160,74072,1,2,0:0:0:0:
112,160,74372,1,0,0:0:0:0:
112,160,74672,1,2,0:0:0:0:
112,160,74972,1,0,0:0:0:0:
112,160,75122,1,0,0:0:0:0:
112,160,75272,1,0,0:0:0:0:
112,160,75422,1,0,0:0:0:0:
112,160,75572,1,0,0:0:0:0:
216,160,76172,5,2,0:0:0:0:
216,160,76472,1,0,0:0:0:0:
216,160,76772,1,2,0:0:0:0:
216,160,77072,1,0,0:0:0:0:
216,160,77372,1,0,0:0:0:0:
216,160,77522,1,0,0:0:0:0:
216,160,77672,1,0,0:0:0:0:
216,160,77822,1,0,0:0:0:0:
216,160,77972,1,0,0:0:0:0:
112,160,78572,5,0,0:0:0:0:
112,160,78872,1,0,0:0:0:0:
112,160,79172,1,0,0:0:0:0:
112,160,79322,1,0,0:0:0:0:
112,160,79472,1,0,0:0:0:0:
112,160,79772,1,0,0:0:0:0:
112,160,79922,1,0,0:0:0:0:
112,160,80072,1,0,0:0:0:0:
112,160,80372,1,0,0:0:0:0:
104,160,80522,1,0,0:0:0:0:
104,160,80672,1,0,0:0:0:0:
216,160,80972,5,0,0:0:0:0:
216,160,81272,1,0,0:0:0:0:
216,160,81572,1,0,0:0:0:0:
216,160,81722,1,0,0:0:0:0:
216,160,81872,1,0,0:0:0:0:
216,160,82022,1,0,0:0:0:0:
216,160,82172,1,0,0:0:0:0:
216,160,82472,1,0,0:0:0:0:
216,160,82622,1,0,0:0:0:0:
216,160,82772,1,0,0:0:0:0:
216,160,83072,1,4,0:0:0:0:
144,240,83372,5,0,0:0:0:0:
144,240,83672,1,2,0:0:0:0:
144,240,83972,1,0,0:0:0:0:
144,240,84272,1,2,0:0:0:0:
144,240,84572,1,0,0:0:0:0:
144,240,84722,1,0,0:0:0:0:
144,240,84872,1,0,0:0:0:0:
144,240,85022,1,0,0:0:0:0:
144,240,85172,1,0,0:0:0:0:
144,240,85772,5,2,0:0:0:0:
144,240,86072,1,0,0:0:0:0:
144,240,86372,1,2,0:0:0:0:
144,240,86672,1,0,0:0:0:0:
144,240,86972,1,0,0:0:0:0:
144,240,87122,1,0,0:0:0:0:
144,240,87272,1,0,0:0:0:0:
144,240,87422,1,0,0:0:0:0:
144,240,87572,1,0,0:0:0:0:
112,160,88172,5,0,0:0:0:0:
112,160,88472,1,0,0:0:0:0:
112,160,88772,1,0,0:0:0:0:
112,160,88922,1,0,0:0:0:0:
112,160,89072,1,0,0:0:0:0:
112,160,89372,1,0,0:0:0:0:
112,160,89522,1,0,0:0:0:0:
112,160,89672,1,0,0:0:0:0:
112,160,89972,1,0,0:0:0:0:
104,160,90122,1,0,0:0:0:0:
104,160,90272,1,0,0:0:0:0:
216,160,90572,5,0,0:0:0:0:
216,160,90872,1,0,0:0:0:0:
216,160,91172,1,0,0:0:0:0:
216,160,91322,1,0,0:0:0:0:
216,160,91472,1,0,0:0:0:0:
216,160,91622,1,0,0:0:0:0:
216,160,91772,1,0,0:0:0:0:
216,160,92072,1,0,0:0:0:0:
216,160,92222,1,0,0:0:0:0:
216,160,92372,1,0,0:0:0:0:
216,160,92672,1,4,0:0:0:0:
312,224,92972,5,0,0:0:0:0:
312,224,93272,1,2,0:0:0:0:
312,224,93572,1,0,0:0:0:0:
312,224,93872,1,2,0:0:0:0:
312,224,94172,1,0,0:0:0:0:
312,224,94322,1,0,0:0:0:0:
312,224,94472,1,0,0:0:0:0:
312,224,94622,1,0,0:0:0:0:
312,224,94772,1,0,0:0:0:0:
312,224,95372,5,2,0:0:0:0:
312,224,95672,1,0,0:0:0:0:
312,224,95972,1,2,0:0:0:0:
312,224,96272,1,0,0:0:0:0:
312,224,96572,1,0,0:0:0:0:
312,224,96722,1,0,0:0:0:0:
312,224,96872,1,0,0:0:0:0:
312,224,97022,1,0,0:0:0:0:
312,224,97172,1,0,0:0:0:0:
112,160,97772,5,0,0:0:0:0:
112,160,98072,1,0,0:0:0:0:
112,160,98372,1,0,0:0:0:0:
112,160,98522,1,0,0:0:0:0:
112,160,98672,1,0,0:0:0:0:
112,160,98972,1,0,0:0:0:0:
112,160,99122,1,0,0:0:0:0:
112,160,99272,1,0,0:0:0:0:
112,160,99572,1,0,0:0:0:0:
104,160,99722,1,0,0:0:0:0:
104,160,99872,1,0,0:0:0:0:
216,160,100172,5,0,0:0:0:0:
216,160,100472,1,0,0:0:0:0:
216,160,100772,1,0,0:0:0:0:
216,160,100922,1,0,0:0:0:0:
216,160,101072,1,0,0:0:0:0:
216,160,101222,1,0,0:0:0:0:
216,160,101372,1,0,0:0:0:0:
216,160,101672,5,0,0:0:0:0:
216,160,101822,1,0,0:0:0:0:
216,160,101972,1,0,0:0:0:0:
216,160,102272,1,4,0:0:0:0:
208,232,102572,5,0,0:0:0:0:
208,232,102872,1,2,0:0:0:0:
208,232,103172,1,0,0:0:0:0:
208,232,103472,1,2,0:0:0:0:
208,232,103772,1,0,0:0:0:0:
208,232,103922,1,0,0:0:0:0:
208,232,104072,1,0,0:0:0:0:
208,232,104222,1,0,0:0:0:0:
208,232,104372,1,0,0:0:0:0:
304,272,104972,5,2,0:0:0:0:
304,272,105272,1,0,0:0:0:0:
304,272,105572,1,2,0:0:0:0:
304,272,105872,1,0,0:0:0:0:
304,272,106172,1,0,0:0:0:0:
304,272,106322,1,0,0:0:0:0:
304,272,106472,1,0,0:0:0:0:
304,272,106622,1,0,0:0:0:0:
304,272,106772,1,0,0:0:0:0:
112,160,107372,5,0,0:0:0:0:
112,160,107672,1,0,0:0:0:0:
112,160,107972,1,0,0:0:0:0:
112,160,108122,1,0,0:0:0:0:
112,160,108272,1,0,0:0:0:0:
112,160,108572,1,0,0:0:0:0:
112,160,108722,1,0,0:0:0:0:
112,160,108872,1,0,0:0:0:0:
112,160,109172,1,0,0:0:0:0:
104,160,109322,1,0,0:0:0:0:
104,160,109472,1,0,0:0:0:0:
216,160,109772,5,0,0:0:0:0:
216,160,110072,1,0,0:0:0:0:
216,160,110372,1,0,0:0:0:0:
216,160,110522,1,0,0:0:0:0:
216,160,110672,1,0,0:0:0:0:
216,160,110822,1,0,0:0:0:0:
216,160,110972,1,0,0:0:0:0:
216,160,111272,1,0,0:0:0:0:
216,160,111422,1,0,0:0:0:0:
216,160,111572,1,0,0:0:0:0:
216,160,111872,1,4,0:0:0:0:
216,160,112172,1,4,0:0:0:0:
