osu file format v7

[General]
AudioFilename: coi wan gwok mat jyu.mp3
AudioLeadIn: 1000
PreviewTime: 52164
Countdown: 1
SampleSet: Soft
StackLeniency: 0.7
Mode: 0
LetterboxInBreaks: 1

[Editor]
DistanceSpacing: 1
BeatDivisor: 4
GridSize: 16

[Metadata]
Title:coi wan gwok mat jyu
Artist:Linda, Chung Ka Yan
Creator:CHAS
Version:Hard
Source:Saiunkoku Monogatari (The Story of Color-cloud Land)
Tags:Hong Kong yue zh

[Difficulty]
HPDrainRate:7
CircleSize:5
OverallDifficulty:5
SliderMultiplier:1.5
SliderTickRate:2

[Events]
//Background and Video events
0,0,"7.jpg"
//Break Periods
2,90131,99178
//Storyboard Layer 0 (Background)
//Storyboard Layer 1 (Fail)
//Storyboard Layer 2 (Pass)
//Storyboard Layer 3 (Foreground)
//Storyboard Sound Samples
//Background Colour Transformations
3,100,0,0,255

[TimingPoints]
-336,535.714285714286,4,2,0,60,1,0
1672,-100,4,2,0,30,0,0
1940,-100,4,2,0,60,0,0
2744,-100,4,2,0,30,0,0
3012,-100,4,2,0,60,0,0
3815,-100,4,2,0,30,0,0
4083,-100,4,2,0,60,0,0
10244,-100,4,2,0,40,0,0
10512,-100,4,2,0,60,0,0
16405,-200,4,2,0,60,0,0
16940,-200,4,2,0,20,0,0
17208,-100,4,2,0,60,0,0
23101,-100,4,2,0,30,0,0
23369,-100,4,2,0,60,0,0
89797,-100,4,2,0,30,0,0
90065,-100,4,2,0,60,0,0
123681,-100,4,2,0,0,0,0
124887,-100,4,2,0,60,0,0

[Colours]
Combo1 : 149,255,255
Combo2 : 255,157,157
Combo3 : 255,255,147
Combo4 : 166,255,166

[HitObjects]
160,256,735,1,8
224,208,1003,1,0
288,160,1271,1,0
352,112,1539,2,0,B|272:112,1,75
128,112,2342,1,8
208,112,2610,2,0,B|304:112,1,75
432,112,3414,1,0
352,112,3681,2,0,B|272:112,1,75
352,256,5021,5,8
288,208,5289,1,0
224,160,5556,1,0
160,112,5824,2,0,B|240:112,1,75
384,112,6628,1,8
304,112,6896,2,0,B|144:112,2,150
160,256,9306,5,8
224,208,9574,1,0
288,160,9842,1,0
352,112,10110,2,0,B|240:112,1,75
128,112,10913,1,8
208,112,11181,2,0,B|288:112,1,75
352,112,11717,2,0,B|352:288,1,150
256,320,13592,6,0,B|256:224,2,75,8|0|0
176,320,14396,2,0,B|176:144,1,150
256,176,15199,1,8
336,176,15467,2,0,B|336:352,1,150
256,320,16271,1,0
256,240,16538,2,0,B|256:160,1,75
256,192,18949,5,4
208,240,19485,5,0
304,240,19753,1,0
304,144,20021,1,0
208,144,20288,2,0,B|32:77|128:240,1,225
272,240,21628,5,0
352,240,21896,1,0
432,240,22164,2,0,B|432:160|400:160,1,75
352,144,22699,2,0,B|352:64|384:64,1,75
367,71,23235,1,0
217,71,23771,6,0,B|128:96|80:176,1,150
95,266,24708,1,0
95,266,25110,1,0
170,266,25378,1,0
170,266,26181,1,0
170,266,26315,1,0
170,266,26449,2,0,B|353:266,2,150,0|0|0
170,115,28056,5,0
282,115,28458,2,0,B|330:115,1,37.5
394,115,28860,2,0,B|352:176|448:240|384:336,1,225,0|8
237,331,30199,5,0
124,331,30601,2,0,B|124:279,1,37.5
124,218,31003,2,0,B|214:217,3,75,0|0|0|8
198,67,32342,5,0
291,67,32610,2,0,B|355:67,1,37.5
422,67,33146,2,0,B|400:160|288:176,1,150
322,168,33949,2,0,B|229:190|213:302,1,150
220,267,34753,2,0,B|118:276|102:180,1,150
176,192,35556,5,8
256,192,35824,1,0
336,192,36092,1,0
336,192,36628,5,0
256,192,36896,1,0
176,192,37164,1,8
416,192,37699,5,0
416,112,37967,1,0
336,112,38235,1,0
256,112,38503,1,8
176,112,38771,1,0
96,112,39039,1,0
96,192,39306,1,0
336,192,39842,5,0
256,192,40110,1,0
176,192,40378,1,8
416,192,40914,5,0
416,272,41181,1,0
336,272,41449,1,0
256,272,41717,1,0
176,272,41985,1,8
96,272,42253,1,0
96,192,42521,1,2
96,192,42789,1,2
176,192,43056,2,0,B|352:192,1,150
256,320,44128,6,0,B|176:320,2,75,8|0|0
256,64,45199,6,0,B|336:64,2,75,8|0|0
448,288,46271,5,0
384,240,46539,1,0
320,192,46806,2,0,B|256:144,1,75
192,192,47342,1,8
128,240,47610,1,0
64,288,47878,1,0
208,336,48414,5,8
304,336,48681,1,0
256,256,48949,1,8
384,256,49485,5,0
320,192,49753,1,0
256,128,50021,1,8
192,192,50289,1,0
128,256,50556,1,0
128,144,50958,2,0,C|256:64|384:144,1,300
400,176,52164,5,0
320,160,52431,1,8
240,144,52699,1,8
160,128,52967,2,0,B|64:192|176:256,1,150
224,272,53771,1,2
240,192,54039,2,0,B|288:80|336:192,1,150
416,192,54842,1,2
416,272,55110,2,0,B|368:272|368:272|352:240|352:240|336:304|336:304|320:272|320:272|272:272|272:272,1,225
368,208,56449,5,8
288,208,56717,1,0
208,208,56985,1,0
128,208,57253,2,0,B|224:208|224:112,1,150
144,128,58056,1,8
160,48,58324,2,0,B|64:48|64:144,1,150
144,128,59128,1,8
144,128,59396,2,0,B|384:128,1,225,0|8
448,80,60735,5,8
448,160,61003,1,0
448,240,61271,1,0
448,320,61539,2,0,B|336:320,1,75
222,320,62342,1,0
146,320,62610,2,0,B|57:320,1,75
71,244,63146,2,0,B|152:244,1,75
221,244,63681,2,0,B|304:160|432:176,1,225
432,320,65021,5,8
352,320,65289,1,0
272,320,65556,1,0
192,320,65824,1,0
112,320,66092,2,0,B|112:224,1,75
192,240,66628,1,8
272,240,66896,2,0,B|272:144|176:144,1,150
112,144,67699,1,0
112,64,67967,2,0,B|208:64,3,75
336,64,69306,5,8
416,64,69574,1,0
416,144,69842,1,0
336,144,70110,2,0,B|160:144,1,150
112,144,70914,1,8
112,64,71181,1,0
112,224,71717,2,0,B|272:224,2,150
112,224,73056,1,0
176,320,73592,5,8
96,320,73860,1,0
96,240,74128,1,0
176,240,74396,2,0,B|336:240,1,150
400,240,75199,1,0
400,320,75467,1,0
400,160,76003,2,0,B|240:160,2,150
400,160,77342,1,8
400,304,77878,5,8
320,304,78146,1,0
320,224,78413,1,0
400,224,78681,2,0,B|400:128,2,75
320,224,79485,1,2
240,224,79753,1,8
240,80,80288,2,0,B|64:80,2,150
240,80,81628,1,8
96,80,82163,5,8
176,80,82431,1,0
176,160,82699,1,0
96,160,82967,2,0,B|96:272,2,75
176,160,83771,1,8
256,160,84038,2,0,B|432:160,1,150
406,160,84842,1,8
406,235,85110,2,0,B|243:235,1,150
256,235,85913,1,8
256,320,86449,5,8
256,240,86717,1,0
256,160,86985,2,0,B|256:64,1,75
256,85,87521,1,8
256,240,88056,1,0
336,240,88324,2,0,B|336:90,1,150
256,96,89128,1,0
176,96,89396,2,0,B|176:272,1,150
256,192,100378,5,10
256,128,100913,5,0
320,192,101181,1,0
256,256,101449,1,0
192,192,101717,1,0
64,224,103056,5,8
128,160,103324,1,0
192,96,103592,1,8
256,160,103860,1,0
320,224,104128,1,8
384,160,104396,1,8
448,96,104663,1,8
448,245,105199,6,0,B|376:246|312:187,1,150,0|8
365,135,106003,2,0,B|301:76|230:77,1,150
230,153,106806,2,0,B|158:154|94:95,1,150,8|0
95,171,107610,1,0
95,171,107744,1,0
95,171,107878,2,0,B|157:228|229:227,2,150,0|8|0
95,321,109485,6,0,B|175:321,1,75
170,321,109887,1,8
170,321,110021,1,0
240,320,110288,2,0,B|352:320|464:240,1,225,0|8
300,249,111628,6,0,B|236:249|204:201,1,75
300,185,112163,2,0,B|236:185|204:137,1,75,0|0
300,121,112699,2,0,B|236:121|204:73,2,75
406,227,113771,6,0,B|406:147,1,75
406,152,114172,1,8
406,152,114306,1,0
406,76,114574,2,0,B|326:76|256:136,1,150
336,160,115378,2,2,B|240:240|96:240,1,225,2|4
400,240,116985,5,8
336,192,117253,1,0
400,144,117521,1,0
112,240,118056,5,0
176,192,118324,1,0
112,144,118592,1,8
304,128,119128,2,0,B|240:208,1,75
208,128,119663,2,0,B|256:192,1,75
304,128,120199,1,4
256,192,120467,1,0
208,128,120735,1,0
256,272,121271,6,0,B|256:352,2,75,0|0|4
256,272,122342,2,0,B|320:208,1,75,0|8
256,272,122878,2,0,B|192:208,1,75,0|8
256,192,123413,1,0
256,192,123815,12,0,124753
400,192,125021,6,0,B|320:192,1,75,8|0
256,192,125556,2,0,B|176:192,1,75
181,192,126092,1,2
336,192,126628,2,0,B|256:192,1,75,8|0
416,192,127699,2,0,B|336:192,1,75,0|0
341,192,128235,1,4
80,80,129306,5,0
80,160,129574,1,0
160,160,129842,1,0
160,80,130110,2,0,B|336:80,1,150
304,160,130913,1,0
384,160,131181,2,0,B|384:240,1,75
304,240,131717,2,0,B|128:240,2,150
304,240,133056,1,2
256,192,133592,6,0,B|160:192,1,75,0|0
256,192,134128,2,0,B|256:96,2,75
368,304,135199,6,0,B|304:240,1,75,0|0
208,144,136003,1,0
208,144,136538,2,0,B|320:256,1,150
314,250,137342,1,0
448,192,137878,6,0,B|384:272,1,75
401,250,138413,2,0,B|335:175,1,75
351,194,138949,1,0
208,192,139485,5,0
208,192,139753,2,0,B|288:272,2,75
128,192,140556,5,0
128,192,140824,2,0,B|192:256,3,75
320,192,142163,6,0,B|240:192,3,75,0|8|0|8
245,192,143235,1,8
245,192,143771,1,0
245,267,144038,2,0,B|165:267,1,75
170,191,144574,2,0,B|170:111,1,75
94,116,145110,1,0
48,176,145378,1,8
96,240,145646,1,0
48,304,145913,1,8
197,304,146449,6,0,B|277:304,2,75
197,224,147253,2,0,B|373:224|373:224,1,150,0|0
421,224,148056,1,8
421,144,148324,1,8
421,304,148860,2,0,B|325:304,1,75
346,304,149396,2,0,B|165:304,1,150
196,304,150199,1,8
304,240,150735,5,8
304,144,151003,1,0
208,144,151271,1,0
208,240,151538,1,0
256,192,151806,5,4
112,192,152342,5,0
187,192,152610,2,0,B|272:192,1,75,8|0
336,192,153146,2,0,B|432:192,1,75,8|0
411,116,153681,1,8
357,62,153949,1,0
303,115,154217,1,8
249,61,154485,1,0
304,240,155021,6,0,B|304:144,1,75
304,240,155556,2,0,B|208:240,2,75
176,112,156628,5,0
240,176,156896,2,0,B|352:288,1,150
409,218,157699,1,8
345,154,157967,2,0,B|272:80,1,75,0|8
345,154,158503,2,0,B|416:80,1,75,0|8
400,256,159306,5,8
400,176,159574,1,0
320,176,159842,1,0
320,256,160110,1,0
176,256,160646,2,0,B|176:80,1,150
320,112,161717,1,0
320,192,161985,1,0
320,192,162253,2,8,B|320:288,1,75,8|10
240,272,162788,1,8
240,192,163056,2,8,B|416:192,1,150
416,128,163860,5,0
340,128,164128,1,8
264,128,164396,1,0
210,74,164663,1,8
112,192,165199,1,0
112,192,165467,2,0,B|272:192,1,150
256,192,166271,1,8
256,192,166806,12,0,168949
