osu file format v5

[General]
AudioFilename: tenjiku2000.mp3
AudioLeadIn: 0
PreviewTime: -1
Countdown: 1
SampleSet: Normal
StackLeniency: 0.7
Mode: 0
LetterboxInBreaks: 1
EditorBookmarks: 11666,36666,38666,65333,70666,100000,115000

[Metadata]
Title:Tenjiku2000
Artist:Linda AI-CUE
Creator:crystalsuicune
Version:Normal
Source:Taiko no Tatsujin DS
Tags:taiko no tatsujin tenjiku 2000

[Difficulty]
HPDrainRate:5
CircleSize:5
OverallDifficulty:5
SliderMultiplier:1.4
SliderTickRate:2

[Events]
//Background and Video events
0,0,"taikods100_02.PNG"
//Break Periods
2,36699,37633
2,63949,69133
//Storyboard Layer 0 (Background)
//Storyboard Layer 1 (Failing)
//Storyboard Layer 2 (Passing)
//Storyboard Layer 3 (Foreground)
//Storyboard Sound Samples
//Background Colour Transformations
3,100,163,162,255

[TimingPoints]
6070,333.518621456365,4,1,0,100,1,0
11585,-100,4,1,0,100,0,1
38695,-100,4,1,0,100,0,0
121006,-100,4,1,0,100,0,1

[HitObjects]
96,64,11906,1,0
256,64,12406,1,0
352,64,12740,1,0
448,128,13073,1,0
384,288,13574,1,0
224,288,14074,1,0
64,256,14574,1,0
64,96,15075,1,0
160,96,15408,1,0
256,96,15742,1,0
352,96,16075,1,0
64,64,18743,5,0
288,64,19410,1,0
448,160,19911,1,0
448,256,20244,1,0
64,256,21411,5,2
288,256,22078,1,2
288,64,22745,1,0
160,64,23079,1,0
160,160,23412,1,0
288,160,23746,1,0
160,256,24246,5,2
224,64,24747,1,2
320,64,25080,1,2
416,64,25414,1,0
416,224,25914,1,0
256,224,26414,1,0
96,224,26914,1,0
96,64,27415,1,0
192,64,27748,1,0
288,64,28082,1,0
384,64,28415,1,0
96,64,31083,5,0
288,64,31584,1,0
480,64,32251,1,0
480,160,32584,1,0
320,288,33752,5,2
128,288,34252,1,2
128,64,34919,1,0
224,64,35252,1,0
320,64,35586,1,0
416,64,35919,1,0
96,64,38588,5,0
192,64,38921,1,0
288,64,39255,1,0
384,64,39588,1,0
448,288,40255,1,0
288,288,40755,1,0
256,160,41089,2,2,B|32:160,4,210
96,32,44091,5,2
192,32,44424,1,2
288,32,44758,1,2
384,32,45091,1,2
384,224,45591,1,2
224,224,46092,1,2
256,160,46425,2,0,B|480:160,4,210
96,64,49093,5,0
192,64,49427,1,0
288,64,49760,1,0
384,64,50094,1,0
384,160,50427,2,2,B|384:384,1,210
256,320,51261,1,2
160,192,51762,5,2
160,64,52095,1,2
256,64,52429,1,2
256,160,52762,1,2
352,96,53096,2,0,B|352:320,1,210
224,288,53929,1,0
64,64,54430,5,0
160,64,54763,1,0
256,64,55097,1,0
448,64,55764,5,2
448,160,56097,1,2
448,256,56431,1,2
256,256,56931,5,2
256,128,57265,1,2
128,128,57598,1,2
128,224,57932,1,2
224,224,58265,2,0,B|224:64,4,140
256,192,59933,12,0,61101
256,192,62101,12,0,63352
64,64,70605,5,0
160,64,70939,1,0
256,64,71272,1,0
352,64,71606,1,0
448,64,71939,2,2,B|448:288,1,210
288,288,72940,1,0
128,192,73440,5,2
224,192,73774,1,2
224,64,74107,1,2
320,64,74441,1,2
224,128,74774,2,0,B|448:128,1,210
288,192,75775,1,2
416,64,76275,6,0,B|416:288,4,210
320,64,79110,2,0,B|320:288,4,210
96,96,82112,5,0
192,96,82445,1,0
288,96,82779,1,0
384,96,83112,1,0
384,192,83446,5,0
256,192,83779,1,0
128,192,84113,1,0
128,288,84446,1,0
224,288,84780,6,2,B|448:288,2,210
288,192,86114,1,0
352,64,87281,6,2,B|352:288,4,210
256,64,89949,2,2,B|256:288,4,210
384,256,92784,1,2
256,256,93118,1,2
128,256,93451,1,2
128,128,93785,1,2
224,128,94118,5,0
320,128,94452,1,0
416,128,94785,1,0
416,224,95119,1,0
320,192,95452,2,2,B|320:384,1,175
256,192,96036,2,2,B|256:384,1,175
192,192,96620,2,0,B|192:384,1,175
128,192,97203,2,0,B|128:384,1,175
64,192,97787,2,2,B|64:384,1,175
96,64,114630,5,0
288,64,115130,1,0
384,64,115464,1,0
384,192,115964,1,2
224,192,116464,1,2
64,192,116964,1,0
64,288,117298,1,0
96,96,117798,5,2
256,96,118299,1,2
352,96,118632,1,2
352,224,119132,1,0
192,224,119633,1,0
192,64,120133,1,2
288,64,120466,1,2
32,64,121133,5,2
224,64,121800,1,2
320,64,122134,1,2
384,160,122467,1,0
224,160,122968,1,0
64,160,123468,1,0
64,320,123968,1,0
224,320,124469,1,0
320,320,124802,1,0
320,192,125136,1,0
192,192,125469,1,0
96,64,128137,5,0
320,64,128804,1,0
320,256,129471,1,2
192,256,129805,1,2
480,32,130972,1,2
480,256,131639,1,2
288,256,132140,1,0
288,128,132473,1,0
160,128,132807,1,0
160,224,133140,1,0
160,96,134641,5,2
480,96,135641,1,2
256,192,136475,12,0,139644
