osu file format v5

[General]
AudioFilename: tenjiku2000.mp3
AudioLeadIn: 0
PreviewTime: -1
Countdown: 1
SampleSet: Normal
StackLeniency: 0.7
Mode: 0
LetterboxInBreaks: 1
EditorBookmarks: 11666,36666,38666,65333,70666,100000,115000

[Metadata]
Title:Tenjiku2000
Artist:Linda AI-CUE
Creator:crystalsuicune
Version:Hard
Source:Taiko no Tatsujin DS
Tags:taiko no tatsujin tenjiku 2000

[Difficulty]
HPDrainRate:5
CircleSize:5
OverallDifficulty:5
SliderMultiplier:1.4
SliderTickRate:2

[Events]
//Background and Video events
0,0,"taikods100_02.PNG"
//Break Periods
2,36699,37633
2,63949,69133
2,98199,113633
//Storyboard Layer 0 (Background)
//Storyboard Layer 1 (Failing)
//Storyboard Layer 2 (Passing)
//Storyboard Layer 3 (Foreground)
//Storyboard Sound Samples
//Background Colour Transformations
3,100,163,162,255

[TimingPoints]
6070,333.518621456365,4,1,0,100,1,0
11592,-100,4,1,0,100,0,1
38784,-100,4,1,0,100,0,0
121238,-100,4,1,0,100,0,1

[HitObjects]
96,32,11739,1,0
160,32,11906,1,2
256,32,12240,1,0
256,96,12406,1,2
384,96,12740,1,2
448,192,13073,5,0
384,192,13240,2,2,B|384:288|384:288,1,70
384,320,13574,5,0
320,288,13740,2,2,B|224:288,1,70
192,288,14074,5,0
224,224,14241,2,2,B|224:128,1,70
160,160,14574,5,0
96,160,14741,2,2,B|96:64,1,70
160,32,15075,1,0
256,32,15408,1,0
352,32,15742,1,0
352,128,16075,1,0
448,128,16409,6,2,B|448:288,1,140
352,288,17076,2,2,B|192:288,1,140
192,192,17743,1,0
192,96,18076,2,2,B|352:96,3,140
384,192,19577,5,0
288,352,20077,1,0
160,352,20411,1,0
96,224,21578,1,2
288,224,22162,1,2
288,32,22745,1,0
160,32,23079,1,0
160,128,23412,1,0
256,128,23746,1,0
320,192,24080,5,0
320,128,24246,1,2
416,128,24580,1,0
416,192,24747,1,2
288,192,25080,1,2
288,288,25414,5,0
352,256,25580,2,2,B|352:352,1,70
288,352,25914,5,0
224,352,26081,2,2,B|134:352,1,70
160,288,26414,5,0
192,224,26581,2,2,B|96:224,1,70
128,160,26914,5,0
192,160,27081,2,2,B|288:160,1,70
256,96,27415,1,0
352,96,27748,1,0
352,192,28082,1,0
352,288,28415,1,0
256,256,28749,6,2,B|416:256,1,140
480,128,29416,2,2,B|480:288,1,140
416,224,30083,1,0
384,160,30416,2,2,B|224:160,3,140
192,224,31917,1,0
192,32,32417,1,0
288,32,32751,1,0
384,32,33752,1,2
384,256,34419,1,2
160,224,35086,1,0
160,128,35419,1,0
256,128,35753,1,0
256,224,36003,1,0
288,320,36253,1,0
224,320,36420,1,0
32,64,38754,5,0
128,64,39088,1,0
224,64,39421,1,0
320,64,39755,1,0
320,224,40255,1,0
128,224,40755,1,0
224,192,41089,2,0,B|224:352,5,140
288,256,43090,1,2
288,224,43173,1,2
288,192,43257,1,2
32,128,43924,5,0
128,128,44257,1,0
224,128,44591,1,0
352,128,44924,1,0
352,256,45591,1,0
352,352,46092,1,0
448,160,46425,2,2,B|448:320,5,140
384,256,48426,1,0
352,256,48510,1,0
320,256,48593,1,0
128,256,49093,5,0
128,128,49427,1,0
224,64,49760,1,0
320,96,50094,1,0
384,160,50427,2,0,B|384:320,2,140
320,192,51261,1,2
256,192,51428,1,2
96,192,51762,5,2
96,64,52095,1,2
192,64,52429,1,2
288,64,52762,1,2
288,160,53096,2,2,B|448:160,2,140
224,160,53929,1,0
224,224,54096,1,0
64,160,54596,5,0
64,256,54930,1,0
160,256,55263,1,0
288,96,55931,5,2
384,96,56264,1,2
384,224,56598,1,2
320,64,57265,5,0
448,64,57598,1,0
384,160,57932,1,0
384,256,58265,1,0
288,256,58599,2,2,B|128:256,3,140
256,192,59933,12,0,61017
256,192,62434,12,0,63768
128,64,70272,5,0
192,64,70439,1,0
288,96,70772,1,0
352,96,70939,1,0
352,224,71439,1,0
448,224,71773,2,0,B|448:384,4,140
352,320,73440,5,2
288,320,73607,1,2
192,288,73941,1,2
192,224,74107,1,2
128,128,74441,1,2
224,128,74774,2,2,B|384:128,4,140
256,192,76942,12,0,78193
416,128,78777,5,0
416,192,79110,1,0
256,192,79444,12,0,80695
96,256,81445,5,0
32,32,82112,1,0
128,32,82445,1,0
224,32,82779,1,0
320,32,83112,1,0
320,128,83446,1,0
192,128,83779,1,0
64,128,84113,1,0
64,224,84446,5,0
160,224,84613,1,0
224,224,84780,2,2,B|384:224,1,140
384,288,85280,1,0
320,288,85447,2,2,B|160:288,1,140
96,288,86114,1,0
256,192,87281,12,0,88531
256,64,88949,5,2
384,128,89282,1,2
256,192,89949,12,0,91200
128,352,91617,5,0
96,224,91951,1,0
224,224,92367,2,0,B|384:224,2,140
160,128,93368,1,0
256,128,93702,1,0
352,128,94035,6,2,B|352:288,2,140
128,128,95036,1,2
192,224,95286,5,0
192,160,95452,1,2
192,32,95786,1,0
256,32,95953,1,2
352,32,96286,5,2
352,96,96453,1,0
224,96,96787,1,2
224,160,96953,1,0
320,160,97287,5,2
384,160,97454,1,2
384,256,97787,1,2
320,256,97954,1,2
352,32,114797,5,0
352,96,114963,1,2
352,192,115297,1,0
352,256,115464,1,2
224,256,115797,1,0
224,160,116131,2,0,B|64:160,4,140
320,256,117798,5,0
320,192,117965,1,2
320,64,118299,1,0
384,64,118465,1,2
384,160,118799,1,2
288,160,119132,2,2,B|288:320,4,140
96,32,121133,5,0
160,32,121300,1,2
256,32,121634,1,2
320,32,121800,1,0
416,32,122134,1,2
416,128,122467,5,0
352,128,122634,2,2,B|352:224|352:224,1,70
352,256,122968,5,0
288,256,123135,2,2,B|192:256,1,70
224,192,123468,5,0
224,128,123635,2,2,B|128:128,1,70
128,192,123968,5,0
128,256,124135,2,2,B|128:352,1,70
64,256,124635,5,0
96,128,124969,1,0
160,128,125136,1,0
224,128,125302,1,0
320,96,125636,6,2,B|320:256,1,140
256,320,126303,2,2,B|96:320,1,140
128,224,126970,1,0
192,160,127304,2,2,B|352:160,3,140
416,128,128638,1,0
416,256,129138,1,0
320,320,129471,5,2
192,320,129805,1,2
128,224,130972,1,2
128,32,131639,1,2
320,32,132306,1,0
320,128,132640,1,0
192,128,132973,1,0
192,224,133307,1,0
192,96,134641,5,2
256,96,134808,1,2
320,64,135475,1,2
352,64,135558,1,2
256,192,135975,12,0,139561
