osu file format v6

[General]
AudioFilename: 1-06 Remember.mp3
AudioLeadIn: 0
PreviewTime: -1
Countdown: 2
SampleSet: Normal
StackLeniency: 0.7
Mode: 0
LetterboxInBreaks: 1

[Editor]
DistanceSpacing: 0.800000011920929
BeatDivisor: 4
GridSize: 32

[Metadata]
Title:Remember
Artist:Lin-G
Creator:noemu
Version:forget
Source:DJmax Portable Black Square
Tags:Remember DJmax

[Difficulty]
HPDrainRate:5
CircleSize:4
OverallDifficulty:5
SliderMultiplier:1.4
SliderTickRate:1

[Events]
//Background and Video events
Video,0,"Remember DJMAX PORTABLE BLACK SQUARE BGA HQ.flv"
0,0,"DJMAX_BS_WALL_026.JPG"
//Break Periods
//Storyboard Layer 0 (Background)
//Storyboard Layer 1 (Fail)
//Storyboard Layer 2 (Pass)
//Storyboard Layer 3 (Foreground)
//Storyboard Sound Samples
//Background Colour Transformations
3,100,128,128,192

[TimingPoints]
17220.4693271347,400,4,1,0,100,1,0

[Colours]
Combo1 : 153,190,65
Combo2 : 134,152,238
Combo3 : 209,146,237
Combo4 : 129,192,185

[HitObjects]
79,101,13920,5,0
128,128,14120,1,0
160,96,14520,1,0
192,128,14920,1,0
224,96,15420,1,0
259,134,15720,1,0
258,134,16020,2,2,B|317:98|367:151|367:152,1,105
419,227,17020,5,0
352,192,17320,1,0
320,224,17520,1,0
288,192,17720,1,0
256,224,18120,1,0
256,224,18520,1,0
192,224,18920,1,8
192,224,19120,1,8
192,224,19320,2,10,B|138:186|88:228,1,105
86,141,20320,5,0
128,192,20520,1,0
167,139,20720,1,0
211,191,20920,1,0
258,143,21320,1,0
337,146,21720,1,0
337,148,22120,1,0
339,149,22420,2,2,B|260:104|210:184,1,210,2|10
179,230,23320,5,0
129,192,23720,1,0
68,160,24520,5,0
97,208,24720,1,0
128,160,24920,1,0
154,208,25120,1,0
185,161,25320,1,8
214,208,25520,1,8
237,164,25720,1,8
293,166,25920,2,8,B|404:167,1,105
460,209,26720,5,0
429,148,27120,1,0
377,107,27320,2,0,B|326:66|276:109|276:110|278:112|278:112|281:114,1,105
280,107,28120,1,8
281,106,28520,1,8
213,159,29120,5,0
167,131,29320,1,0
157,174,29520,1,0
111,147,29720,1,0
83,199,30120,1,0
88,269,30520,1,0
145,237,30920,1,0
169,287,31120,1,0
169,287,31320,1,0
169,287,31720,2,0,B|237:244|219:259,1,35,4|0
250,238,32320,5,0
304,197,32720,1,0
351,247,33120,1,0
397,195,33520,1,0
397,195,33720,1,0
447,250,34120,1,0
472,185,34520,1,0
435,132,34920,1,0
386,163,35120,1,0
386,163,35520,2,2,B|303:121,1,140,2|10
196,100,36120,5,2
196,100,36520,1,2
196,100,36820,1,4
64,192,37920,5,0
96,160,38020,1,0
128,192,38120,1,0
160,160,38220,1,0
192,192,38320,1,0
224,160,38420,1,0
256,192,38520,1,0
288,160,38620,1,0
258,191,39520,5,0
258,191,40220,1,0
258,191,41120,1,0
258,191,42720,5,0
258,191,43520,1,0
258,191,44320,1,0
81,118,44920,5,0
128,96,45120,1,0
160,128,45320,1,0
224,128,45720,1,8
224,128,46120,2,8,B|286:99|331:138,1,105,8|12
96,128,46920,5,0
160,128,47120,1,0
192,160,47320,1,0
192,160,48020,2,0,B|268:137|312:174,1,105
294,162,48820,1,0
319,93,49320,5,0
386,150,49549,5,0
336,217,49920,1,0
268,199,50220,1,8
268,199,50420,1,8
202,199,50820,1,2
202,199,51020,2,0,B|156:142|209:94,1,105,0|4
255,94,51920,5,0
295,166,52320,5,0
339,122,53120,1,0
385,166,53920,1,0
384,256,54120,5,8
352,224,54320,1,8
320,256,54520,1,8
256,256,54720,1,8
219,210,55220,1,10
218,210,55320,2,10,B|169:183|135:227|154:217,1,70,10|8
147,211,55920,5,0
86,208,56320,1,0
54,104,56620,2,0,B|101:85|142:159,1,105
198,155,57320,1,0
198,155,57620,2,0,B|234:135|274:163|275:165,1,70
256,160,58320,5,0
256,160,58520,1,0
320,160,58920,1,0
384,160,59320,2,2,B|416:192,8,70,10|2|10|2|10|2|10|2|10
352,128,61320,5,0
352,128,61720,1,0
320,96,62220,1,0
288,128,62720,1,0
256,96,62920,1,0
224,128,63120,1,0
192,96,63320,1,0
160,128,63720,5,0
160,128,64120,2,2,B|96:192|192:224,1,140
256,192,65120,12,4,66020
64,128,66620,5,0
96,96,67120,1,0
128,128,67520,1,0
160,96,67920,1,0
192,128,68320,1,8
224,96,68520,1,8
256,128,68720,1,8
288,96,68920,1,0
320,128,69120,1,0
416,256,69920,5,0
384,224,70720,1,0
352,256,71520,1,0
320,224,71720,1,8
288,256,71920,1,8
256,224,72120,1,0
224,256,72320,1,4
128,128,72520,1,2
160,128,72920,1,2
192,128,73320,1,2
128,192,73920,5,0
160,160,74120,5,0
192,192,74320,1,0
224,160,74520,1,0
256,192,74720,1,0
288,160,74920,1,0
288,160,75520,1,0
352,160,75920,1,8
352,160,76120,1,8
416,160,76720,5,4
448,224,77120,5,0
416,256,77520,1,0
384,256,77720,1,8
384,256,78120,1,10
320,256,78420,2,8,B|288:224|224:256,1,70,2|8
256,192,79520,5,0
256,192,80320,1,0
256,192,81120,5,0
96,160,81920,5,0
128,128,82120,1,0
160,160,82320,1,0
192,128,82520,1,0
224,160,82920,1,8
256,128,83120,1,8
288,160,83320,1,8
320,128,83520,5,0
352,160,83720,1,0
320,192,83920,1,0
352,224,84220,1,8
320,256,84520,1,8
320,256,84720,1,8
320,256,84920,6,2,B|256:192|256:224,1,70,2|6
265,213,85420,1,2
215,210,85720,1,0
216,209,86120,1,0
160,160,86420,2,0,B|128:128,1,70
192,64,86820,2,0,B|224:32,1,70,0|8
320,64,87220,2,0,B|352:96,1,70,0|8
387,64,87820,1,4
416,160,88120,1,0
320,160,88620,1,0
320,160,88920,1,0
256,160,89920,1,0
224,128,90120,5,0
192,160,90320,1,0
160,128,90520,1,0
128,160,90720,1,0
96,128,90920,1,0
64,160,91220,2,0,B|96:224|160:256,1,105,0|12
192,224,91820,5,0
224,192,92120,1,0
256,224,92520,1,0
288,192,92920,1,0
320,224,93320,1,0
352,192,93720,1,0
384,224,94120,1,0
416,192,94520,1,0
448,224,94920,1,0
246,326,94967,1,0
448,224,95320,1,0
160,160,96220,5,0
352,160,96920,1,0
256,192,97320,1,0
256,192,97920,12,0,99320
256,192,100020,12,4,102420
