osu file format v9

[General]
AudioFilename: DJMAX - I want you.mp3
AudioLeadIn: 0
PreviewTime: 48027
Countdown: 0
SampleSet: Normal
StackLeniency: 0.7
Mode: 0
LetterboxInBreaks: 1

[Editor]
DistanceSpacing: 1.1
BeatDivisor: 6
GridSize: 8

[Metadata]
Title:I want you
Artist:Lin-G
Creator:AwesomeLemon
Version:Hard
Source:DJMAX
Tags:goodjob Starry technika clazziquai edition

[Difficulty]
HPDrainRate:6
CircleSize:4
OverallDifficulty:6
ApproachRate:7
SliderMultiplier:1.4
SliderTickRate:2

[Events]
//Background and Video events
Video,0,"DJMAX - I want you MV.flv"
0,0,"Background.jpg"
//Break Periods
2,75664,88282
//Storyboard Layer 0 (Background)
//Storyboard Layer 1 (Fail)
//Storyboard Layer 2 (Pass)
//Storyboard Layer 3 (Foreground)
//Storyboard Sound Samples
//Background Colour Transformations
3,100,163,162,255

[TimingPoints]
6873,428.693912546442,4,2,1,65,1,0
48027,-100,4,1,1,50,0,1
60888,-100,4,1,1,50,0,0
61745,-100,4,1,1,50,0,1
75464,-100,4,1,1,50,0,0
89182,-100,4,1,1,55,0,1
102900,-100,4,1,1,30,0,0

[Colours]
Combo1 : 243,236,103
Combo2 : 204,106,204
Combo3 : 47,47,255
Combo4 : 74,160,255

[HitObjects]
256,216,6872,1,0
304,168,7087,1,0
296,104,7301,1,8
208,96,7730,2,0,B|176:128|176:192|112:192,1,140,0|8
56,200,8373,1,0
96,256,8587,1,0
176,256,9016,2,0,B|200:304|264:304|296:280|304:240,1,140,8|0
384,224,9873,1,8
456,152,10302,1,0
392,104,10516,5,0
320,136,10731,1,8
264,88,10945,1,0
240,160,11159,2,0,B|272:224|192:256|160:200,1,140,0|8
128,144,11802,1,0
64,96,12017,5,4
64,192,12446,1,4
64,288,12874,1,4
160,288,13303,1,4
320,288,13732,5,0
320,288,13946,2,0,B|384:232|320:160,1,140,8|0
256,192,14589,1,0
192,128,15018,1,8
192,128,15446,2,0,B|112:160|128:256,1,140,0|8
128,244,16089,1,0
224,288,16518,1,0
224,288,16732,2,0,B|304:272|328:189,1,140,8|4
252,95,17590,5,8
167,68,18019,2,0,B|144:112|184:144,2,70,0|0|8
77,60,18662,2,0,B|40:128|96:200,1,140
144,256,19305,1,8
144,256,19519,1,0
200,200,19733,2,0,B|232:224|232:272,1,70
208,336,20162,2,0,B|312:352|320:256,1,140,8|4
373,213,21019,6,0,B|393:141|302:87,1,140,8|0
282,172,21662,1,0
282,172,21877,1,8
294,247,22091,2,0,B|238:311|166:259,1,140
192,184,22734,1,8
192,184,22949,1,0
208,112,23163,2,0,B|160:60|76:93,1,140,0|8
125,200,24020,5,4
125,200,24449,2,0,B|158:259|236:284,1,140,8|0
236,204,25092,1,0
235,204,25306,1,8
236,204,25521,2,0,B|227:143|296:100|345:132,1,140
400,157,26164,2,0,B|412:219|394:252|338:263,2,140,8|0|8
399,157,27450,1,4
400,288,27879,5,8
360,224,28307,2,0,B|328:184|280:224,1,70
312,288,28736,1,8
312,288,28950,2,0,B|232:320|192:248,1,140
192,248,29593,1,8
120,232,29808,1,0
144,168,30022,1,0
144,168,30451,2,0,B|96:136|96:96|144:48,1,140,8|0
208,120,31094,5,0
208,120,31308,1,8
280,96,31522,1,0
272,168,31737,1,0
272,168,31951,1,0
272,168,32165,1,8
312,240,32380,2,0,B|364:233|385:192,2,70
264,304,33023,5,8
168,264,33452,1,4
168,160,33880,1,4
253,101,34309,1,4
384,96,34738,5,8
384,96,34952,2,0,B|416:160|416:224|384:256,1,140
400,231,35595,1,8
400,231,35809,1,0
320,288,36238,1,0
320,288,36452,2,0,B|256:256|224:224|224:192,1,140,8|0
224,193,37095,1,0
224,193,37310,1,8
128,96,37738,5,0
128,96,37953,1,0
221,83,38167,2,0,B|256:105|296:140|307:163|320:207,1,140,8|0
399,196,38810,1,0
399,196,39025,2,0,B|369:267|329:290|278:291,1,140,8|0
302,288,39668,5,0
224,251,40096,1,0
203,171,40525,1,0
202,80,40954,2,0,B|256:59|334:85|344:133,1,140
331,108,41597,1,8
404,190,42025,5,0
404,190,42240,1,0
404,190,42454,2,0,B|408:266|317:298,1,140,8|0
326,294,43097,1,0
326,294,43311,1,8
326,294,43526,1,0
326,294,43740,2,0,B|248:300|185:251,1,140,0|8
109,185,44598,5,0
109,185,44812,1,0
190,181,45026,2,0,B|228:142|274:146,2,70,8|0|0
256,248,45669,1,0
256,248,45884,1,8
256,248,46098,2,0,B|337:246|354:159,1,140
360,68,46955,5,4
360,68,47384,2,0,B|288:70|228:123|228:123,1,140,4|0
232,119,48027,5,4
122,91,48456,1,12
163,165,48885,2,0,B|204:215|190:264|112:243|166:312,1,140,4|8
150,288,49528,1,0
150,288,49742,1,0
240,288,49956,2,0,B|285:260|280:223,2,70,0|8|0
338,301,50599,1,0
338,301,51028,2,0,B|410:256|396:184,1,140,8|0
396,184,51885,5,4
352,104,52314,2,0,B|328:56|288:48|256:64|248:96,1,140,4|8
248,96,52957,1,0
152,108,53386,1,0
112,192,53814,1,0
112,192,54029,2,0,B|88:260|125:267,3,70,8|0|8|0
184,292,54886,6,0,B|296:328|312:232,1,140,4|4
304,259,55744,1,4
428,257,56172,1,8
428,257,56387,2,0,B|356:215|470:180|392:129,1,140,0|0
310,100,57244,1,0
310,100,57458,2,0,B|256:87|212:100,3,70,8|0|8|0
305,177,58316,1,8
305,177,58530,1,0
245,258,58959,5,0
245,258,59173,2,0,B|187:286|139:236|133:170,1,140,8|0
128,130,59816,2,0,B|142:55|184:33|251:62,1,140
221,52,60459,1,0
221,52,60674,1,0
221,52,60888,1,4
256,192,61317,1,4
332,187,61745,6,0,B|344:236|300:284|223:262,1,140,4|4
246,266,62603,1,4
144,248,63031,1,0
144,248,63246,2,0,B|193:161|81:195|106:104,1,140
189,103,63889,1,0
189,103,64103,1,0
189,103,64317,2,0,B|272:113|280:164|276:201,1,140,8|0
357,193,65175,6,12,B|355:118|382:84|435:75,1,140,4|4
441,123,65818,1,0
454,168,66032,2,0,B|496:219|404:211|452:310,1,140,4|0
446,296,66675,1,0
446,296,67104,1,0
368,258,67533,6,0,B|328:281|344:321,4,70,0|8|0|0|0
352,188,68604,1,4
271,104,69033,1,4
206,190,69462,1,4
118,212,70105,6,0,B|139:143|69:145|97:79,1,140,8|0
172,71,70962,1,0
254,64,71177,2,0,B|269:102|253:145,5,70,8|0|0|0|8|0
336,134,72677,1,0
403,244,73106,1,0
324,320,73534,1,0
229,225,73963,1,0
229,225,74392,2,0,B|224:164|145:233|120:138,1,140,0|0
124,152,75464,5,4
332,124,89182,5,4
396,212,89610,1,4
304,207,90039,2,0,B|239:280|160:220,1,140,4|0
181,233,90682,1,0
83,228,91111,2,0,B|80:177|113:150,5,70,0|0|0|8|0|0
106,67,92611,5,4
211,73,93040,1,4
308,72,93469,2,0,B|262:116|363:143|323:215,1,140,4|0
329,198,94112,1,0
373,308,94540,1,0
373,308,94755,2,0,B|303:327|285:319,5,70,0|0|8|0|0|0
336,232,96041,5,4
413,237,96470,1,4
393,141,96898,2,0,B|325:167|336:88|239:83,1,140,4|0
271,88,97541,5,0
177,121,97970,1,0
132,200,98399,2,0,B|120:228|106:268,6,70,0|8|0|0|0|8|0
224,189,100113,1,0
324,192,100542,1,0
429,204,100971,2,0,B|452:160|474:107|408:69,1,140
327,87,101828,2,0,B|287:122|233:41|168:97,1,140
68,89,102900,5,4
66,195,103329,5,4
63,304,103757,5,4
