osu file format v5

[General]
AudioFilename: 15. I want you.mp3
AudioLeadIn: 1996
PreviewTime: 48256
Countdown: 1
SampleSet: Normal
StackLeniency: 0.2
Mode: 0
LetterboxInBreaks: 1
SkinPreference:Default

[Editor]
Bookmarks: 12256
DistanceSpacing: 0.800000011920929
BeatDivisor: 4
GridSize: 8

[Metadata]
Title:I Want You
Artist:Lin-G
Creator:vincerio
Version:Normal
Source:DJMAX
Tags:djmax clazziquai edition black square

[Difficulty]
HPDrainRate:5
CircleSize:5
OverallDifficulty:5
SliderMultiplier:1.7
SliderTickRate:2

[Events]
//Background and Video events
Video,0,"YouTube - I Want You - Lin-G -HD-.flv"
0,0,"i-want-you.JPG"
//Break Periods
2,21028,23635
2,34742,37499
//Storyboard Layer 0 (Background)
//Storyboard Layer 1 (Fail)
//Storyboard Layer 2 (Pass)
//Storyboard Layer 3 (Foreground)
//Storyboard Sound Samples
//Background Colour Transformations
3,100,255,255,255

[TimingPoints]
7114,428.571428571429,4,1,0,60,1,0
48042,-100,4,1,0,60,0,1
75471,-100,4,1,0,60,0,0
89399,-100,4,2,0,100,0,0
103113,-100,4,1,0,60,0,0
103114,-100,4,1,0,0,0,0
103328,-100,4,1,0,50,0,0

[Colours]
Combo1 : 0,128,255
Combo2 : 255,128,255
Combo3 : 255,0,128
Combo4 : 255,0,0

[HitObjects]
256,192,7113,1,0
256,56,7542,1,0
384,136,7971,1,0
384,272,8399,1,0
272,192,8828,1,2
216,152,9042,1,2
160,112,9256,1,2
272,192,9685,1,8
272,192,9899,1,8
272,192,10113,1,8
144,104,10971,6,2,C|144:296,4,170
144,104,13113,2,0,C|336:104,1,170
120,102,14399,6,2,C|396:103,1,255
373,165,15256,2,2,C|101:164,1,255
116,224,16113,2,2,C|381:224,1,255
371,224,16971,5,8
371,224,17185,1,8
371,224,17399,1,8
240,224,17828,1,0
104,224,18256,1,0
240,224,18685,1,0
256,192,19114,12,4,20828
152,105,24685,6,2,C|344:104,1,170
320,104,25328,2,10,C|320:280,2,170,2|8|2
320,272,26614,1,0
320,136,27042,1,0
224,40,27471,1,8
224,40,27685,1,8
216,192,28114,5,8
216,328,28542,1,8
216,192,28971,1,8
352,192,29399,1,8
488,192,29828,1,8
352,192,30256,1,8
352,328,30685,1,8
216,328,31114,5,8
216,192,31542,1,8
216,328,31971,1,8
80,328,32399,1,8
216,328,32828,1,8
216,192,33256,1,0
352,192,33685,1,0
256,96,34114,2,0,L|256:296,1,170,0|4
160,232,38399,5,0
160,232,38828,2,8,C|320:120,1,170
296,272,39685,1,0
436,175,40114,2,8,C|276:287,1,170
232,176,40971,1,2
336,88,41399,1,2
232,176,41828,6,8,C|48:176,1,170
64,104,42471,1,8
64,104,42685,1,8
66,104,42899,1,8
200,104,43328,2,10,C|312:104,3,85
424,104,44399,1,8
256,75,44828,6,10,C|256:179,1,85
256,160,45256,2,10,C|256:275,1,85
257,244,45685,2,10,C|257:362,1,85
256,192,46328,12,8,47828
176,184,48256,6,2,C|352:184,2,170
128,48,49542,5,8
192,104,49971,1,8
248,160,50399,1,8
304,216,50828,1,8
360,272,51256,1,8
224,256,51685,6,2,C|112:128,2,170
224,256,52971,5,8
320,256,53399,1,8
224,256,53828,1,8
320,168,54256,1,8
320,256,54685,1,8
432,280,55113,6,2,C|296:144,2,170
312,160,56399,2,10,C|120:160,2,170
376,160,57471,1,8
344,216,57685,1,8
384,264,57899,1,8
336,312,58113,1,8
256,312,58542,6,4,C|64:168|160:48|264:112|264:120,1,510
248,99,60256,2,4,C|332:49|440:184|237:323,1,510
257,310,61971,6,2,C|257:134,2,170
257,311,63256,1,8
256,176,63685,1,8
256,312,64113,1,8
392,312,64542,1,8
256,312,64971,1,8
120,312,65399,6,2,C|248:184,2,170
120,176,66685,1,2
256,176,67113,1,8
256,312,67542,1,2
320,312,67756,1,2
384,312,67971,1,10
448,312,68185,1,10
512,312,68399,1,10
480,168,68828,6,2,C|376:320,2,170
432,240,70113,1,8
296,240,70542,1,8
176,168,70971,1,2
240,168,71185,1,2
304,168,71399,1,8
368,168,71613,1,8
432,168,71828,1,8
256,192,72256,12,0,75042
252,187,75685,5,0
115,187,76113,1,8
216,104,76542,1,0
264,144,76756,1,0
320,104,76971,1,8
320,240,77399,5,0
184,240,77828,1,8
184,104,78256,1,0
185,174,78471,1,0
184,240,78685,1,8
128,112,79113,5,0
128,248,79542,1,8
272,248,79971,1,0
200,248,80185,1,0
128,248,80399,1,8
256,112,81685,5,0
256,184,81899,1,0
256,256,82113,1,8
184,184,83399,5,0
256,184,83613,1,0
328,184,83828,1,8
200,136,85113,5,0
256,184,85328,1,0
312,232,85542,1,8
208,152,86828,5,0
256,216,87042,1,0
304,152,87256,1,8
257,136,88113,6,4,C|256:232,4,85,4|4|4|4|8
168,184,89399,6,2,C|349:184,1,170
168,184,90256,1,0
304,184,90685,1,8
304,48,91113,1,8
304,184,91542,1,8
304,320,91971,1,8
304,184,92399,1,8
256,93,92828,6,10,C|254:269,1,170
257,92,93685,1,2
168,176,94113,2,8,C|348:176,4,170
248,242,96256,5,2
168,120,96685,1,2
338,122,97113,1,2
168,120,97542,2,8,C|344:121,1,170,8|8
392,120,98185,2,8,C|389:290,1,170
336,288,98828,2,8,C|339:110,1,170
256,208,99685,5,8
312,168,99900,1,8
368,128,100114,1,8
424,88,100328,1,8
424,208,100756,1,8
328,280,101185,1,8
192,280,101614,1,8
328,280,102042,2,8,B|328:104,1,170
216,152,103113,6,2,C|352:304,2,170,0|0|4
