osu file format v12

[General]
AudioFilename: iwantyou bgm.mp3
AudioLeadIn: 0
PreviewTime: 49714
Countdown: 0
SampleSet: Soft
StackLeniency: 0.4
Mode: 3
LetterboxInBreaks: 0
SpecialStyle: 0
WidescreenStoryboard: 0

[Editor]
DistanceSpacing: 0.8
BeatDivisor: 4
GridSize: 8

[Metadata]
Title:I Want You
TitleUnicode:I Want You
Artist:Lin-G
ArtistUnicode:Lin-G
Creator:diamdiam
Version:5K RD
Source:DJMAX
Tags:xeon clazziquai_edition black_square trilogy technika
BeatmapID:325784
BeatmapSetID:114750

[Difficulty]
HPDrainRate:8
CircleSize:5
OverallDifficulty:8
ApproachRate:7
SliderMultiplier:0.4
SliderTickRate:1

[Events]
//Background and Video events
0,0,"iwantyou rd.jpg",0,0
Video,1607,"iwantyou.avi"
//Break Periods
//Storyboard Layer 0 (Background)
//Storyboard Layer 1 (Fail)
//Storyboard Layer 2 (Pass)
//Storyboard Layer 3 (Foreground)
//Storyboard Sound Samples
Sample,1714,0,"INTRO11.ogg",50
Sample,2571,0,"INTRO11-01.ogg",50
Sample,3428,0,"INTRO11-12.ogg",50
Sample,4285,0,"INTRO11-13.ogg",50
Sample,5142,0,"INTRO11-14.ogg",50
Sample,6000,0,"INTRO11-15.ogg",50
Sample,6428,0,"INTRO11-16.ogg",50
Sample,6857,0,"INTRO11-17.ogg",50
Sample,8571,0,"CYMREVERSE04-01.ogg",50
Sample,8571,0,"HIHAT01.ogg",50
Sample,8571,0,"PIANO17.ogg",50
Sample,8785,0,"HIHAT01-01.ogg",50
Sample,8785,0,"SYNTH527-01.ogg",50
Sample,9000,0,"SNARE22.ogg",50
Sample,9000,0,"HIHAT01.ogg",50
Sample,9000,0,"SYNTH527-28.ogg",50
Sample,9214,0,"HIHAT01-01.ogg",50
Sample,9214,0,"PIANO17-01.ogg",50
Sample,9428,0,"HIHAT01.ogg",50
Sample,9428,0,"SYNTH527-01.ogg",50
Sample,9535,0,"SNARE22.ogg",50
Sample,9642,0,"HIHAT01-01.ogg",50
Sample,9857,0,"HIHAT01.ogg",50
Sample,10071,0,"PIANO17-18.ogg",50
Sample,10071,0,"HIHAT01-01.ogg",50
Sample,10285,0,"HIHAT01.ogg",50
Sample,10500,0,"HIHAT01-01.ogg",50
Sample,10500,0,"SYNTH527-01.ogg",50
Sample,10714,0,"HIHAT01.ogg",50
Sample,10714,0,"SYNTH527-28.ogg",50
Sample,10714,0,"SNARE22.ogg",50
Sample,10928,0,"HIHAT01-01.ogg",50
Sample,11142,0,"HIHAT01.ogg",50
Sample,11142,0,"SYNTH527-01.ogg",50
Sample,11357,0,"HIHAT01-01.ogg",50
Sample,11571,0,"HIHAT01.ogg",50
Sample,11571,0,"SYNTH527-28.ogg",50
Sample,11571,0,"SNARE22.ogg",50
Sample,11785,0,"HIHAT01-01.ogg",50
Sample,11785,0,"SYNTH527-30.ogg",50
Sample,11892,0,"SYNTH527-31.ogg",50
Sample,12000,0,"PIANO17-19.ogg",50
Sample,12000,0,"HIHAT01.ogg",50
Sample,12214,0,"SYNTH527-01.ogg",50
Sample,12214,0,"HIHAT01-01.ogg",50
Sample,12428,0,"SNARE22.ogg",50
Sample,12428,0,"HIHAT01.ogg",50
Sample,12428,0,"SYNTH527-28.ogg",50
Sample,12642,0,"PIANO17-20.ogg",50
Sample,12642,0,"HIHAT01-01.ogg",50
Sample,12857,0,"HIHAT01.ogg",50
Sample,12857,0,"SYNTH527-01.ogg",50
Sample,12964,0,"SNARE22.ogg",50
Sample,13071,0,"HIHAT01-01.ogg",50
Sample,13285,0,"HIHAT01.ogg",50
Sample,13500,0,"PIANO17-21.ogg",50
Sample,13500,0,"HIHAT01-01.ogg",50
Sample,13714,0,"HIHAT01.ogg",50
Sample,13928,0,"SYNTH527-01.ogg",50
Sample,13928,0,"HIHAT01-01.ogg",50
Sample,14142,0,"HIHAT01.ogg",50
Sample,14142,0,"SYNTH527-28.ogg",50
Sample,14142,0,"SNARE22.ogg",50
Sample,14357,0,"HIHAT01-01.ogg",50
Sample,14571,0,"SYNTH527-01.ogg",50
Sample,14571,0,"HIHAT01.ogg",50
Sample,14571,0,"PIANO17-22.ogg",50
Sample,14785,0,"HIHAT01-01.ogg",50
Sample,15000,0,"SNARE22.ogg",50
Sample,15000,0,"HIHAT01.ogg",50
Sample,15000,0,"PIANO17-23.ogg",50
Sample,15214,0,"PIANO17-24.ogg",50
Sample,15214,0,"HIHAT01-01.ogg",50
Sample,15214,0,"SYNTH527-30.ogg",50
Sample,15428,0,"PIANO17-25.ogg",50
Sample,15428,0,"HIHAT01.ogg",50
Sample,15642,0,"HIHAT01-01.ogg",50
Sample,15857,0,"SNARE22.ogg",50
Sample,15857,0,"HIHAT01.ogg",50
Sample,16071,0,"HIHAT01-01.ogg",50
Sample,16071,0,"PIANO17-26.ogg",50
Sample,16285,0,"HIHAT01.ogg",50
Sample,16392,0,"SNARE22.ogg",50
Sample,16500,0,"HIHAT01-01.ogg",50
Sample,16714,0,"HIHAT01.ogg",50
Sample,16928,0,"HIHAT01-01.ogg",50
Sample,16928,0,"PIANO17-27.ogg",50
Sample,17142,0,"HIHAT01.ogg",50
Sample,17357,0,"HIHAT01-01.ogg",50
Sample,17571,0,"HIHAT01.ogg",50
Sample,17571,0,"SNARE22.ogg",50
Sample,17785,0,"HIHAT01-01.ogg",50
Sample,18000,0,"HIHAT01.ogg",50
Sample,18214,0,"HIHAT01-01.ogg",50
Sample,18428,0,"SNARE22.ogg",50
Sample,18428,0,"HIHAT01.ogg",50
Sample,18428,0,"SYNTH527-28.ogg",50
Sample,18642,0,"HIHAT01-01.ogg",50
Sample,18642,0,"PIANO17-28.ogg",50
Sample,18857,0,"HIHAT01.ogg",50
Sample,18857,0,"PIANO17-29.ogg",50
Sample,19071,0,"HIHAT01-01.ogg",50
Sample,19285,0,"HIHAT01.ogg",50
Sample,19285,0,"SNARE22.ogg",50
Sample,19500,0,"PIANO17-30.ogg",50
Sample,19500,0,"HIHAT01-01.ogg",50
Sample,19714,0,"HIHAT01.ogg",50
Sample,19821,0,"SNARE22.ogg",50
Sample,19928,0,"HIHAT01-01.ogg",50
Sample,20142,0,"HIHAT01.ogg",50
Sample,20357,0,"PIANO17-31.ogg",50
Sample,20357,0,"HIHAT01-01.ogg",50
Sample,20571,0,"HIHAT01.ogg",50
Sample,20785,0,"HIHAT01-01.ogg",50
Sample,21000,0,"HIHAT01.ogg",50
Sample,21000,0,"SNARE22.ogg",50
Sample,21214,0,"HIHAT01-01.ogg",50
Sample,21428,0,"HIHAT01.ogg",50
Sample,21642,0,"HIHAT01-01.ogg",50
Sample,21857,0,"HIHAT01.ogg",50
Sample,21857,0,"BASS01.ogg",50
Sample,22071,0,"HIHAT01-01.ogg",50
Sample,22285,0,"HIHAT01-17.ogg",50
Sample,22285,0,"SYNTH628-41.ogg",50
Sample,22500,0,"HIHAT01-18.ogg",50
Sample,22500,0,"SYNTH628-40.ogg",50
Sample,22714,0,"SYNTH628-43.ogg",50
Sample,22714,0,"SNARE22.ogg",50
Sample,22714,0,"HIHAT01-19.ogg",50
Sample,22928,0,"SYNTH628-41.ogg",50
Sample,22928,0,"HIHAT01-20.ogg",50
Sample,23142,0,"HIHAT01-21.ogg",50
Sample,23250,0,"SNARE22.ogg",50
Sample,23357,0,"SYNTH628-40.ogg",50
Sample,23357,0,"HIHAT01-22.ogg",50
Sample,23571,0,"HIHAT01-23.ogg",50
Sample,23785,0,"HIHAT01-24.ogg",50
Sample,24000,0,"HIHAT01-17.ogg",50
Sample,24000,0,"SYNTH628-41.ogg",50
Sample,24214,0,"HIHAT01-18.ogg",50
Sample,24214,0,"SYNTH628-40.ogg",50
Sample,24428,0,"SNARE22.ogg",50
Sample,24428,0,"SYNTH628-43.ogg",50
Sample,24428,0,"HIHAT01-19.ogg",50
Sample,24642,0,"HIHAT01-20.ogg",50
Sample,24642,0,"SYNTH628-41.ogg",50
Sample,24857,0,"HIHAT01-21.ogg",50
Sample,25071,0,"HIHAT01-22.ogg",50
Sample,25071,0,"SYNTH628-61.ogg",50
Sample,25285,0,"HIHAT01-23.ogg",50
Sample,25285,0,"SNARE22.ogg",50
Sample,25500,0,"HIHAT01-24.ogg",50
Sample,25714,0,"HIHAT01-17.ogg",50
Sample,25714,0,"SYNTH628-41.ogg",50
Sample,25928,0,"HIHAT01-18.ogg",50
Sample,25928,0,"SYNTH628-40.ogg",50
Sample,26142,0,"HIHAT01-19.ogg",50
Sample,26142,0,"SNARE22.ogg",50
Sample,26142,0,"SYNTH628-43.ogg",50
Sample,26357,0,"HIHAT01-20.ogg",50
Sample,26357,0,"SYNTH628-41.ogg",50
Sample,26571,0,"HIHAT01-21.ogg",50
Sample,26678,0,"SNARE22.ogg",50
Sample,26785,0,"HIHAT01-22.ogg",50
Sample,26785,0,"SYNTH628-40.ogg",50
Sample,27000,0,"HIHAT01-23.ogg",50
Sample,27214,0,"HIHAT01-24.ogg",50
Sample,27428,0,"SYNTH628-41.ogg",50
Sample,27428,0,"HIHAT01-17.ogg",50
Sample,27642,0,"SYNTH628-40.ogg",50
Sample,27642,0,"HIHAT01-18.ogg",50
Sample,27857,0,"SNARE22.ogg",50
Sample,27857,0,"HIHAT01-19.ogg",50
Sample,27857,0,"SYNTH628-43.ogg",50
Sample,28071,0,"HIHAT01-20.ogg",50
Sample,28071,0,"SYNTH628-46.ogg",50
Sample,28071,0,"PIANO17-39.ogg",50
Sample,28285,0,"HIHAT01-21.ogg",50
Sample,28285,0,"PIANO17-40.ogg",50
Sample,28500,0,"HIHAT01-22.ogg",50
Sample,28500,0,"SYNTH628-48.ogg",50
Sample,28500,0,"SNARE22-01.ogg",50
Sample,28714,0,"SYNTH628-65.ogg",50
Sample,28714,0,"HIHAT01-23.ogg",50
Sample,28714,0,"SNARE22-23.ogg",50
Sample,28928,0,"PIANO17-42.ogg",50
Sample,28928,0,"HIHAT01-24.ogg",50
Sample,29142,0,"SYNTH527.ogg",50
Sample,29142,0,"HIHAT01-17.ogg",50
Sample,29142,0,"PIANO17-43.ogg",50
Sample,29357,0,"HIHAT01-18.ogg",50
Sample,29357,0,"SYNTH527-01.ogg",50
Sample,29571,0,"SNARE22.ogg",50
Sample,29571,0,"SYNTH527-28.ogg",50
Sample,29571,0,"HIHAT01-19.ogg",50
Sample,29785,0,"SYNTH527.ogg",50
Sample,29785,0,"HIHAT01-20.ogg",50
Sample,30000,0,"SYNTH527-01.ogg",50
Sample,30000,0,"HIHAT01-21.ogg",50
Sample,30000,0,"PIANO17-44.ogg",50
Sample,30107,0,"SNARE22.ogg",50
Sample,30214,0,"SYNTH527-28.ogg",50
Sample,30214,0,"HIHAT01-22.ogg",50
Sample,30428,0,"HIHAT01-23.ogg",50
Sample,30642,0,"PIANO17-45.ogg",50
Sample,30642,0,"HIHAT01-24.ogg",50
Sample,30857,0,"HIHAT01-17.ogg",50
Sample,30857,0,"SYNTH527.ogg",50
Sample,31071,0,"SYNTH527-01.ogg",50
Sample,31071,0,"HIHAT01-18.ogg",50
Sample,31285,0,"SNARE22.ogg",50
Sample,31285,0,"SYNTH527-28.ogg",50
Sample,31285,0,"HIHAT01-19.ogg",50
Sample,31500,0,"HIHAT01-20.ogg",50
Sample,31500,0,"SYNTH527.ogg",50
Sample,31714,0,"SYNTH527-01.ogg",50
Sample,31714,0,"PIANO17-46.ogg",50
Sample,31714,0,"HIHAT01-21.ogg",50
Sample,31928,0,"SYNTH527-01.ogg",50
Sample,31928,0,"HIHAT01-22.ogg",50
Sample,32142,0,"SYNTH527-28.ogg",50
Sample,32142,0,"SNARE22.ogg",50
Sample,32142,0,"HIHAT01-23.ogg",50
Sample,32142,0,"PIANO17-47.ogg",50
Sample,32357,0,"HIHAT01-24.ogg",50
Sample,32357,0,"PIANO17-48.ogg",50
Sample,32464,0,"SYNTH527-31.ogg",50
Sample,32571,0,"HIHAT01-17.ogg",50
Sample,32571,0,"SYNTH527.ogg",50
Sample,32571,0,"PIANO17-49.ogg",50
Sample,32785,0,"SYNTH527-01.ogg",50
Sample,32785,0,"HIHAT01-18.ogg",50
Sample,33000,0,"SYNTH527-28.ogg",50
Sample,33000,0,"HIHAT01-19.ogg",50
Sample,33000,0,"SNARE22.ogg",50
Sample,33214,0,"SYNTH527.ogg",50
Sample,33214,0,"HIHAT01-20.ogg",50
Sample,33428,0,"PIANO17-50.ogg",50
Sample,33428,0,"HIHAT01-21.ogg",50
Sample,33428,0,"SYNTH527-01.ogg",50
Sample,33535,0,"SNARE22.ogg",50
Sample,33642,0,"HIHAT01-22.ogg",50
Sample,33642,0,"SYNTH527-28.ogg",50
Sample,33857,0,"HIHAT01-23.ogg",50
Sample,34071,0,"HIHAT01-24.ogg",50
Sample,34071,0,"PIANO17-51.ogg",50
Sample,34285,0,"SYNTH527.ogg",50
Sample,34285,0,"HIHAT01-17.ogg",50
Sample,34500,0,"HIHAT01-18.ogg",50
Sample,34500,0,"SYNTH527-01.ogg",50
Sample,34714,0,"HIHAT01-19.ogg",50
Sample,34714,0,"SYNTH527-28.ogg",50
Sample,34714,0,"SNARE22.ogg",50
Sample,34928,0,"HIHAT01-20.ogg",50
Sample,34928,0,"SYNTH527.ogg",50
Sample,35142,0,"HIHAT01-21.ogg",50
Sample,35142,0,"SYNTH527-01.ogg",50
Sample,35357,0,"SYNTH527-01.ogg",50
Sample,35357,0,"HIHAT01-22.ogg",50
Sample,35571,0,"SYNTH527-28.ogg",50
Sample,35571,0,"HIHAT01-17.ogg",50
Sample,35625,0,"SNARE22-24.ogg",50
Sample,35678,0,"SNARE22-25.ogg",50
Sample,35732,0,"SNARE22-26.ogg",50
Sample,35785,0,"SYNTH527-30.ogg",50
Sample,35785,0,"SNARE22-27.ogg",50
Sample,36000,0,"HIHAT01-17.ogg",50
Sample,36000,0,"CYMREVERSE04-01.ogg",50
Sample,36214,0,"HIHAT01-18.ogg",50
Sample,36428,0,"HIHAT01-19.ogg",50
Sample,36642,0,"HIHAT01-20.ogg",50
Sample,36857,0,"HIHAT01-21.ogg",50
Sample,37071,0,"HIHAT01-22.ogg",50
Sample,37285,0,"HIHAT01-23.ogg",50
Sample,37500,0,"HIHAT01-24.ogg",50
Sample,37714,0,"HIHAT01-17.ogg",50
Sample,37928,0,"HIHAT01-18.ogg",50
Sample,38142,0,"HIHAT01-19.ogg",50
Sample,38357,0,"HIHAT01-20.ogg",50
Sample,38571,0,"HIHAT01-21.ogg",50
Sample,38678,0,"SYNTH527-28.ogg",50
Sample,38785,0,"HIHAT01-22.ogg",50
Sample,38785,0,"SYNTH527-01.ogg",50
Sample,39000,0,"HIHAT01-23.ogg",50
Sample,39214,0,"HIHAT01-24.ogg",50
Sample,39428,0,"HIHAT01-17.ogg",50
Sample,39642,0,"HIHAT01-18.ogg",50
Sample,39857,0,"HIHAT01-19.ogg",50
Sample,40071,0,"HIHAT01-20.ogg",50
Sample,40285,0,"HIHAT01-21.ogg",50
Sample,40500,0,"HIHAT01-22.ogg",50
Sample,40714,0,"HIHAT01-23.ogg",50
Sample,40928,0,"HIHAT01-24.ogg",50
Sample,41142,0,"HIHAT01-17.ogg",50
Sample,41357,0,"HIHAT01-18.ogg",50
Sample,41571,0,"HIHAT01-19.ogg",50
Sample,41785,0,"HIHAT01-20.ogg",50
Sample,42000,0,"HIHAT01-21.ogg",50
Sample,42214,0,"HIHAT01-22.ogg",50
Sample,42428,0,"HIHAT01-23.ogg",50
Sample,42642,0,"HIHAT01-24.ogg",50
Sample,42857,0,"HIHAT01-17.ogg",50
Sample,42857,0,"SYNTH527.ogg",50
Sample,43071,0,"SYNTH527-01.ogg",50
Sample,43071,0,"HIHAT01-18.ogg",50
Sample,43285,0,"SYNTH527-28.ogg",50
Sample,43285,0,"SNARE22-01.ogg",50
Sample,43285,0,"HIHAT01-19.ogg",50
Sample,43500,0,"HIHAT01-20.ogg",50
Sample,43714,0,"HIHAT01-21.ogg",50
Sample,43714,0,"SYNTH527-01.ogg",50
Sample,43821,0,"SYNTH527.ogg",50
Sample,43928,0,"SYNTH527.ogg",50
Sample,43928,0,"HIHAT01-22.ogg",50
Sample,44142,0,"HIHAT01-23.ogg",50
Sample,44142,0,"SNARE22-01.ogg",50
Sample,44142,0,"SYNTH527-28.ogg",50
Sample,44357,0,"HIHAT01-24.ogg",50
Sample,44357,0,"SYNTH527-01.ogg",50
Sample,44571,0,"HIHAT01-17.ogg",50
Sample,44678,0,"SYNTH527.ogg",50
Sample,44785,0,"SYNTH527.ogg",50
Sample,44785,0,"HIHAT01-18.ogg",50
Sample,45000,0,"SYNTH527-28.ogg",50
Sample,45000,0,"SNARE22-01.ogg",50
Sample,45000,0,"HIHAT01-19.ogg",50
Sample,45214,0,"HIHAT01-20.ogg",50
Sample,45214,0,"SYNTH527-01.ogg",50
Sample,45321,0,"SYNTH527.ogg",50
Sample,45428,0,"HIHAT01-21.ogg",50
Sample,45535,0,"SYNTH527-28.ogg",50
Sample,45535,0,"SNARE22-01.ogg",50
Sample,45642,0,"SYNTH527-01.ogg",50
Sample,45642,0,"SYNTH527.ogg",50
Sample,45642,0,"HIHAT01-22.ogg",50
Sample,45857,0,"HIHAT01-23.ogg",50
Sample,45857,0,"SNARE22-01.ogg",50
Sample,45857,0,"SYNTH527-28.ogg",50
Sample,46071,0,"HIHAT01-24.ogg",50
Sample,46071,0,"SYNTH527-30.ogg",50
Sample,46285,0,"HIHAT01-17.ogg",50
Sample,46285,0,"SYNTH527.ogg",50
Sample,46500,0,"SYNTH527-01.ogg",50
Sample,46500,0,"HIHAT01-18.ogg",50
Sample,46714,0,"HIHAT01-19.ogg",50
Sample,46714,0,"SNARE22-01.ogg",50
Sample,46714,0,"SYNTH527-28.ogg",50
Sample,46928,0,"HIHAT01-20.ogg",50
Sample,47142,0,"SYNTH527-01.ogg",50
Sample,47142,0,"HIHAT01-21.ogg",50
Sample,47250,0,"SYNTH527.ogg",50
Sample,47357,0,"SYNTH527.ogg",50
Sample,47357,0,"HIHAT01-22.ogg",50
Sample,47571,0,"SYNTH527-01.ogg",50
Sample,47571,0,"HIHAT01-23.ogg",50
Sample,47571,0,"SNARE22-01.ogg",50
Sample,47571,0,"SYNTH527-28.ogg",50
Sample,47678,0,"SYNTH527-28.ogg",50
Sample,47785,0,"HIHAT01-24.ogg",50
Sample,47785,0,"SYNTH527-01.ogg",50
Sample,48000,0,"HIHAT01-17.ogg",50
Sample,48000,0,"SYNTH527.ogg",50
Sample,48214,0,"HIHAT01-18.ogg",50
Sample,48321,0,"SNARE22-01.ogg",50
Sample,48321,0,"SYNTH527-28.ogg",50
Sample,48428,0,"HIHAT01-19.ogg",50
Sample,48428,0,"SYNTH527.ogg",50
Sample,48642,0,"HIHAT01-20.ogg",50
Sample,48750,0,"SNARE22-01.ogg",50
Sample,48750,0,"SYNTH527-28.ogg",50
Sample,48857,0,"HIHAT01-21.ogg",50
Sample,48857,0,"SYNTH527.ogg",50
Sample,49071,0,"SNARE22-01.ogg",50
Sample,49142,0,"SNARE22-01.ogg",50
Sample,49214,0,"SNARE22-01.ogg",50
Sample,49285,0,"HIHAT01-23.ogg",50
Sample,49285,0,"SYNTH527-28.ogg",50
Sample,49285,0,"SYNTH527.ogg",50
Sample,49285,0,"SNARE22-01.ogg",50
Sample,49392,0,"SNARE22-01.ogg",50
Sample,49500,0,"SNARE22-01.ogg",50
Sample,49500,0,"HIHAT01-24.ogg",50
Sample,49500,0,"SYNTH527-28.ogg",50
Sample,49607,0,"SYNTH527-28.ogg",50
Sample,49607,0,"SNARE22-01.ogg",50
Sample,49714,0,"HIHAT01-03.ogg",50
Sample,49714,0,"SYNTH123-56.ogg",50
Sample,49821,0,"HIHAT01-04.ogg",50
Sample,49928,0,"HIHAT01-05.ogg",50
Sample,49928,0,"SYNTH123-57.ogg",50
Sample,50035,0,"HIHAT01-06.ogg",50
Sample,50142,0,"HIHAT01-07.ogg",50
Sample,50142,0,"SYNTH123-58.ogg",50
Sample,50357,0,"HIHAT01-08.ogg",50
Sample,50357,0,"SYNTH123-59.ogg",50
Sample,50464,0,"HIHAT01-09.ogg",50
Sample,50571,0,"SYNTH123-60.ogg",50
Sample,50571,0,"HIHAT01-10.ogg",50
Sample,50678,0,"HIHAT01-11.ogg",50
Sample,50785,0,"HIHAT01-12.ogg",50
Sample,50785,0,"SYNTH123-61.ogg",50
Sample,50892,0,"HIHAT01-13.ogg",50
Sample,51000,0,"HIHAT01-14.ogg",50
Sample,51214,0,"SYNTH123-62.ogg",50
Sample,51214,0,"HIHAT01-15.ogg",50
Sample,51321,0,"HIHAT01-16.ogg",50
Sample,51428,0,"SYNTH123-63.ogg",50
Sample,51428,0,"HIHAT01-03.ogg",50
Sample,51535,0,"HIHAT01-04.ogg",50
Sample,51642,0,"HIHAT01-05.ogg",50
Sample,51642,0,"SYNTH123-64.ogg",50
Sample,51750,0,"HIHAT01-06.ogg",50
Sample,51857,0,"HIHAT01-07.ogg",50
Sample,51857,0,"SYNTH123-65.ogg",50
Sample,52071,0,"HIHAT01-08.ogg",50
Sample,52071,0,"SYNTH123-66.ogg",50
Sample,52178,0,"HIHAT01-09.ogg",50
Sample,52285,0,"HIHAT01-10.ogg",50
Sample,52285,0,"SYNTH123-67.ogg",50
Sample,52392,0,"HIHAT01-11.ogg",50
Sample,52500,0,"SYNTH123-68.ogg",50
Sample,52500,0,"HIHAT01-12.ogg",50
Sample,52607,0,"HIHAT01-13.ogg",50
Sample,52714,0,"HIHAT01-14.ogg",50
Sample,52714,0,"SYNTH123-69.ogg",50
Sample,52928,0,"HIHAT01-15.ogg",50
Sample,52928,0,"SYNTH123-70.ogg",50
Sample,53035,0,"HIHAT01-16.ogg",50
Sample,53142,0,"SYNTH123-71.ogg",50
Sample,53142,0,"HIHAT01-03.ogg",50
Sample,53250,0,"HIHAT01-04.ogg",50
Sample,53357,0,"SYNTH123-72.ogg",50
Sample,53357,0,"HIHAT01-05.ogg",50
Sample,53464,0,"HIHAT01-06.ogg",50
Sample,53571,0,"SYNTH123-73.ogg",50
Sample,53571,0,"HIHAT01-07.ogg",50
Sample,53785,0,"SYNTH123-74.ogg",50
Sample,53785,0,"HIHAT01-08.ogg",50
Sample,53892,0,"HIHAT01-09.ogg",50
Sample,54000,0,"HIHAT01-10.ogg",50
Sample,54000,0,"SYNTH123-75.ogg",50
Sample,54107,0,"HIHAT01-11.ogg",50
Sample,54214,0,"SYNTH123-76.ogg",50
Sample,54214,0,"HIHAT01-12.ogg",50
Sample,54321,0,"HIHAT01-13.ogg",50
Sample,54428,0,"HIHAT01-14.ogg",50
Sample,54428,0,"SYNTH123-77.ogg",50
Sample,54642,0,"SYNTH123-78.ogg",50
Sample,54642,0,"HIHAT01-15.ogg",50
Sample,54750,0,"HIHAT01-16.ogg",50
Sample,54857,0,"SYNTH123-79.ogg",50
Sample,54857,0,"HIHAT01-03.ogg",50
Sample,54964,0,"HIHAT01-04.ogg",50
Sample,55071,0,"SYNTH123-80.ogg",50
Sample,55071,0,"HIHAT01-05.ogg",50
Sample,55178,0,"HIHAT01-06.ogg",50
Sample,55285,0,"SYNTH123-81.ogg",50
Sample,55285,0,"HIHAT01-07.ogg",50
Sample,55500,0,"SYNTH123-82.ogg",50
Sample,55500,0,"HIHAT01-08.ogg",50
Sample,55607,0,"HIHAT01-09.ogg",50
Sample,55714,0,"SYNTH123-83.ogg",50
Sample,55714,0,"HIHAT01-10.ogg",50
Sample,55821,0,"HIHAT01-11.ogg",50
Sample,55928,0,"SYNTH123-84.ogg",50
Sample,55928,0,"HIHAT01-12.ogg",50
Sample,56035,0,"HIHAT01-13.ogg",50
Sample,56142,0,"HIHAT01-14.ogg",50
Sample,56142,0,"SYNTH123-85.ogg",50
Sample,56357,0,"SYNTH123-86.ogg",50
Sample,56357,0,"HIHAT01-15.ogg",50
Sample,56464,0,"SYNTH527-31.ogg",50
Sample,56464,0,"HIHAT01-16.ogg",50
Sample,56571,0,"HIHAT01-03.ogg",50
Sample,56678,0,"HIHAT01-04.ogg",50
Sample,56785,0,"HIHAT01-05.ogg",50
Sample,56785,0,"SYNTH527-01.ogg",50
Sample,56892,0,"HIHAT01-06.ogg",50
Sample,56892,0,"SYNTH527-28.ogg",50
Sample,57000,0,"HIHAT01-07.ogg",50
Sample,57214,0,"HIHAT01-08.ogg",50
Sample,57214,0,"SYNTH527-30.ogg",50
Sample,57321,0,"SYNTH527-31.ogg",50
Sample,57321,0,"HIHAT01-09.ogg",50
Sample,57428,0,"HIHAT01-10.ogg",50
Sample,57535,0,"HIHAT01-11.ogg",50
Sample,57642,0,"HIHAT01-12.ogg",50
Sample,57642,0,"SYNTH527-01.ogg",50
Sample,57750,0,"HIHAT01-13.ogg",50
Sample,57750,0,"SYNTH527-28.ogg",50
Sample,57857,0,"HIHAT01-14.ogg",50
Sample,58071,0,"HIHAT01-15.ogg",50
Sample,58071,0,"SYNTH527-30.ogg",50
Sample,58178,0,"SYNTH527-31.ogg",50
Sample,58178,0,"HIHAT01-16.ogg",50
Sample,58285,0,"HIHAT01-03.ogg",50
Sample,58392,0,"HIHAT01-04.ogg",50
Sample,58500,0,"HIHAT01-05.ogg",50
Sample,58500,0,"SYNTH527-01.ogg",50
Sample,58607,0,"HIHAT01-06.ogg",50
Sample,58607,0,"SYNTH527-28.ogg",50
Sample,58714,0,"HIHAT01-07.ogg",50
Sample,58928,0,"SYNTH527-30.ogg",50
Sample,58928,0,"HIHAT01-08.ogg",50
Sample,59035,0,"HIHAT01-09.ogg",50
Sample,59035,0,"SYNTH527-31.ogg",50
Sample,59142,0,"HIHAT01-10.ogg",50
Sample,59250,0,"HIHAT01-11.ogg",50
Sample,59357,0,"HIHAT01-12.ogg",50
Sample,59357,0,"SYNTH527-01.ogg",50
Sample,59464,0,"SYNTH527-28.ogg",50
Sample,59464,0,"HIHAT01-13.ogg",50
Sample,59571,0,"HIHAT01-14.ogg",50
Sample,59785,0,"HIHAT01-15.ogg",50
Sample,59785,0,"SYNTH527-30.ogg",50
Sample,59892,0,"SYNTH527-31.ogg",50
Sample,59892,0,"HIHAT01-16.ogg",50
Sample,60000,0,"HIHAT01-03.ogg",50
Sample,60107,0,"HIHAT01-04.ogg",50
Sample,60214,0,"HIHAT01-05.ogg",50
Sample,60214,0,"SYNTH527-01.ogg",50
Sample,60321,0,"HIHAT01-06.ogg",50
Sample,60321,0,"SYNTH527-28.ogg",50
Sample,60428,0,"HIHAT01-07.ogg",50
Sample,60642,0,"SYNTH527-30.ogg",50
Sample,60642,0,"HIHAT01-08.ogg",50
Sample,60750,0,"HIHAT01-09.ogg",50
Sample,60750,0,"SYNTH527-31.ogg",50
Sample,60857,0,"HIHAT01-10.ogg",50
Sample,60964,0,"HIHAT01-11.ogg",50
Sample,61071,0,"SYNTH527-01.ogg",50
Sample,61071,0,"HIHAT01-12.ogg",50
Sample,61178,0,"SYNTH527-28.ogg",50
Sample,61178,0,"HIHAT01-13.ogg",50
Sample,61285,0,"HIHAT01-14.ogg",50
Sample,61500,0,"HIHAT01-15.ogg",50
Sample,61500,0,"SYNTH527-30.ogg",50
Sample,61607,0,"SYNTH527-31.ogg",50
Sample,61607,0,"HIHAT01-16.ogg",50
Sample,61714,0,"HIHAT01-03.ogg",50
Sample,61821,0,"HIHAT01-04.ogg",50
Sample,61928,0,"HIHAT01-05.ogg",50
Sample,61928,0,"SYNTH527-01.ogg",50
Sample,62035,0,"HIHAT01-06.ogg",50
Sample,62035,0,"SYNTH527-28.ogg",50
Sample,62142,0,"HIHAT01-07.ogg",50
Sample,62357,0,"SYNTH527-30.ogg",50
Sample,62357,0,"HIHAT01-08.ogg",50
Sample,62464,0,"HIHAT01-09.ogg",50
Sample,62464,0,"SYNTH527-31.ogg",50
Sample,62571,0,"HIHAT01-10.ogg",50
Sample,62571,0,"SNARE22-01.ogg",50
Sample,62571,0,"SYNTH628-01.ogg",50
Sample,62678,0,"SYNTH628-29.ogg",50
Sample,62678,0,"SNARE22-01.ogg",50
Sample,62678,0,"HIHAT01-11.ogg",50
Sample,62785,0,"SYNTH527-01.ogg",50
Sample,62892,0,"HIHAT01-13.ogg",50
Sample,62892,0,"SNARE22-01.ogg",50
Sample,62892,0,"SYNTH628-30.ogg",50
Sample,62892,0,"SYNTH527-28.ogg",50
Sample,63000,0,"SYNTH123-116.ogg",50
Sample,63000,0,"SNARE22-01.ogg",50
Sample,63107,0,"SNARE22-01.ogg",50
Sample,63107,0,"SYNTH628-31.ogg",50
Sample,63214,0,"SYNTH527-01.ogg",50
Sample,63214,0,"SYNTH123-117.ogg",50
Sample,63214,0,"SNARE22-01.ogg",50
Sample,63321,0,"SYNTH628-32.ogg",50
Sample,63321,0,"HIHAT01-16.ogg",50
Sample,63428,0,"HIHAT01-03.ogg",50
Sample,63428,0,"SYNTH123.ogg",50
Sample,63535,0,"HIHAT01-04.ogg",50
Sample,63642,0,"SYNTH527-01.ogg",50
Sample,63642,0,"HIHAT01-05.ogg",50
Sample,63750,0,"SYNTH527-28.ogg",50
Sample,63750,0,"HIHAT01-06.ogg",50
Sample,63857,0,"SYNTH123-01.ogg",50
Sample,63857,0,"SNARE22-01.ogg",50
Sample,63857,0,"SYNTH527.ogg",50
Sample,63857,0,"HIHAT01-07.ogg",50
Sample,64071,0,"SYNTH527-30.ogg",50
Sample,64071,0,"HIHAT01-08.ogg",50
Sample,64178,0,"SYNTH527-31.ogg",50
Sample,64178,0,"HIHAT01-09.ogg",50
Sample,64285,0,"SYNTH123-24.ogg",50
Sample,64285,0,"HIHAT01-10.ogg",50
Sample,64285,0,"SYNTH527.ogg",50
Sample,64392,0,"HIHAT01-11.ogg",50
Sample,64500,0,"HIHAT01-12.ogg",50
Sample,64500,0,"SYNTH527-01.ogg",50
Sample,64607,0,"SYNTH527-28.ogg",50
Sample,64607,0,"HIHAT01-13.ogg",50
Sample,64714,0,"SNARE22-01.ogg",50
Sample,64714,0,"SYNTH527.ogg",50
Sample,64714,0,"HIHAT01-14.ogg",50
Sample,64928,0,"HIHAT01-15.ogg",50
Sample,64928,0,"SYNTH123-25.ogg",50
Sample,64928,0,"SYNTH527-30.ogg",50
Sample,65035,0,"SYNTH527-31.ogg",50
Sample,65035,0,"HIHAT01-16.ogg",50
Sample,65142,0,"HIHAT01-03.ogg",50
Sample,65142,0,"SYNTH527.ogg",50
Sample,65250,0,"HIHAT01-04.ogg",50
Sample,65357,0,"SYNTH527-01.ogg",50
Sample,65357,0,"HIHAT01-05.ogg",50
Sample,65357,0,"SYNTH123-26.ogg",50
Sample,65464,0,"SYNTH527-28.ogg",50
Sample,65464,0,"HIHAT01-06.ogg",50
Sample,65571,0,"SNARE22-01.ogg",50
Sample,65571,0,"SYNTH527.ogg",50
Sample,65571,0,"HIHAT01-07.ogg",50
Sample,65785,0,"HIHAT01-08.ogg",50
Sample,65785,0,"SYNTH527-30.ogg",50
Sample,65892,0,"HIHAT01-09.ogg",50
Sample,65892,0,"SYNTH527-31.ogg",50
Sample,66000,0,"SYNTH527.ogg",50
Sample,66000,0,"HIHAT01-10.ogg",50
Sample,66000,0,"SYNTH123-27.ogg",50
Sample,66107,0,"SNARE22-01.ogg",50
Sample,66107,0,"HIHAT01-11.ogg",50
Sample,66214,0,"HIHAT01-12.ogg",50
Sample,66214,0,"SYNTH527-01.ogg",50
Sample,66321,0,"SYNTH527-28.ogg",50
Sample,66321,0,"HIHAT01-13.ogg",50
Sample,66428,0,"SNARE22-01.ogg",50
Sample,66428,0,"SYNTH123-28.ogg",50
Sample,66428,0,"HIHAT01-14.ogg",50
Sample,66428,0,"SYNTH527.ogg",50
Sample,66642,0,"HIHAT01-15.ogg",50
Sample,66642,0,"SYNTH527-30.ogg",50
Sample,66642,0,"SYNTH123-29.ogg",50
Sample,66750,0,"SYNTH527-31.ogg",50
Sample,66750,0,"HIHAT01-16.ogg",50
Sample,66857,0,"HIHAT01-03.ogg",50
Sample,66857,0,"SYNTH527.ogg",50
Sample,66857,0,"SYNTH123-30.ogg",50
Sample,66964,0,"HIHAT01-04.ogg",50
Sample,67071,0,"SYNTH527-01.ogg",50
Sample,67071,0,"HIHAT01-05.ogg",50
Sample,67178,0,"SYNTH527-28.ogg",50
Sample,67178,0,"HIHAT01-06.ogg",50
Sample,67285,0,"HIHAT01-07.ogg",50
Sample,67285,0,"SYNTH123-31.ogg",50
Sample,67285,0,"SNARE22-01.ogg",50
Sample,67285,0,"SYNTH527.ogg",50
Sample,67500,0,"SYNTH527-30.ogg",50
Sample,67500,0,"HIHAT01-08.ogg",50
Sample,67607,0,"HIHAT01-09.ogg",50
Sample,67607,0,"SYNTH527-31.ogg",50
Sample,67714,0,"SYNTH123-32.ogg",50
Sample,67714,0,"HIHAT01-10.ogg",50
Sample,67714,0,"SYNTH527.ogg",50
Sample,67821,0,"HIHAT01-11.ogg",50
Sample,67928,0,"HIHAT01-12.ogg",50
Sample,67928,0,"SYNTH527-01.ogg",50
Sample,68035,0,"HIHAT01-13.ogg",50
Sample,68035,0,"SYNTH527-28.ogg",50
Sample,68142,0,"HIHAT01-14.ogg",50
Sample,68142,0,"SYNTH527.ogg",50
Sample,68142,0,"SNARE22-01.ogg",50
Sample,68357,0,"HIHAT01-15.ogg",50
Sample,68357,0,"SYNTH527-30.ogg",50
Sample,68357,0,"SYNTH123-33.ogg",50
Sample,68464,0,"HIHAT01-16.ogg",50
Sample,68464,0,"SYNTH527-31.ogg",50
Sample,68571,0,"HIHAT01-03.ogg",50
Sample,68571,0,"SYNTH527.ogg",50
Sample,68678,0,"HIHAT01-04.ogg",50
Sample,68785,0,"HIHAT01-05.ogg",50
Sample,68785,0,"SYNTH527-01.ogg",50
Sample,68785,0,"SYNTH123-34.ogg",50
Sample,68892,0,"SYNTH527-28.ogg",50
Sample,68892,0,"HIHAT01-06.ogg",50
Sample,69000,0,"SNARE22-01.ogg",50
Sample,69000,0,"SYNTH527.ogg",50
Sample,69000,0,"HIHAT01-07.ogg",50
Sample,69214,0,"SYNTH123-35.ogg",50
Sample,69214,0,"HIHAT01-08.ogg",50
Sample,69214,0,"SYNTH527-30.ogg",50
Sample,69321,0,"HIHAT01-09.ogg",50
Sample,69321,0,"SYNTH527-31.ogg",50
Sample,69428,0,"SYNTH527.ogg",50
Sample,69428,0,"HIHAT01-10.ogg",50
Sample,69428,0,"SYNTH123-36.ogg",50
Sample,69535,0,"HIHAT01-11.ogg",50
Sample,69535,0,"SNARE22-01.ogg",50
Sample,69642,0,"SYNTH527-01.ogg",50
Sample,69642,0,"SYNTH123-37.ogg",50
Sample,69642,0,"HIHAT01-12.ogg",50
Sample,69750,0,"HIHAT01-13.ogg",50
Sample,69750,0,"SYNTH123-38.ogg",50
Sample,69750,0,"SYNTH527-28.ogg",50
Sample,69857,0,"HIHAT01-14.ogg",50
Sample,69857,0,"SYNTH527.ogg",50
Sample,69857,0,"SNARE22-01.ogg",50
Sample,70071,0,"SYNTH123-39.ogg",50
Sample,70071,0,"SYNTH527-30.ogg",50
Sample,70071,0,"HIHAT01-15.ogg",50
Sample,70178,0,"SYNTH527-31.ogg",50
Sample,70178,0,"SNARE22-01.ogg",50
Sample,70178,0,"HIHAT01-16.ogg",50
Sample,70285,0,"HIHAT01-03.ogg",50
Sample,70285,0,"SYNTH527.ogg",50
Sample,70285,0,"SYNTH123-40.ogg",50
Sample,70285,0,"CYMREVERSE04.ogg",50
Sample,70392,0,"HIHAT01-04.ogg",50
Sample,70500,0,"HIHAT01-05.ogg",50
Sample,70500,0,"SYNTH527-01.ogg",50
Sample,70607,0,"HIHAT01-06.ogg",50
Sample,70607,0,"SYNTH527-28.ogg",50
Sample,70714,0,"SYNTH527.ogg",50
Sample,70714,0,"HIHAT01-07.ogg",50
Sample,70714,0,"SYNTH123-41.ogg",50
Sample,70714,0,"SNARE22-01.ogg",50
Sample,70928,0,"HIHAT01-08.ogg",50
Sample,70928,0,"SYNTH527-30.ogg",50
Sample,71035,0,"SYNTH527-31.ogg",50
Sample,71035,0,"HIHAT01-09.ogg",50
Sample,71142,0,"HIHAT01-10.ogg",50
Sample,71142,0,"SYNTH123-42.ogg",50
Sample,71142,0,"SYNTH527.ogg",50
Sample,71250,0,"HIHAT01-11.ogg",50
Sample,71357,0,"SYNTH527-01.ogg",50
Sample,71357,0,"HIHAT01-12.ogg",50
Sample,71464,0,"SYNTH527-28.ogg",50
Sample,71464,0,"HIHAT01-13.ogg",50
Sample,71464,0,"SYNTH628-80.ogg",50
Sample,71571,0,"HIHAT01-14.ogg",50
Sample,71571,0,"SYNTH527.ogg",50
Sample,71571,0,"SNARE22-01.ogg",50
Sample,71785,0,"HIHAT01-15.ogg",50
Sample,71785,0,"SYNTH527-30.ogg",50
Sample,71785,0,"SYNTH123-43.ogg",50
Sample,71892,0,"HIHAT01-16.ogg",50
Sample,71892,0,"SYNTH527-31.ogg",50
Sample,72000,0,"HIHAT01-03.ogg",50
Sample,72000,0,"SYNTH527.ogg",50
Sample,72107,0,"SYNTH628-86.ogg",50
Sample,72107,0,"HIHAT01-04.ogg",50
Sample,72214,0,"HIHAT01-05.ogg",50
Sample,72214,0,"SYNTH123-44.ogg",50
Sample,72214,0,"SYNTH527-01.ogg",50
Sample,72321,0,"SYNTH527-28.ogg",50
Sample,72321,0,"HIHAT01-06.ogg",50
Sample,72428,0,"SNARE22-01.ogg",50
Sample,72428,0,"HIHAT01-07.ogg",50
Sample,72428,0,"SYNTH527.ogg",50
Sample,72642,0,"SYNTH123-45.ogg",50
Sample,72642,0,"SYNTH527-30.ogg",50
Sample,72642,0,"HIHAT01-08.ogg",50
Sample,72750,0,"SYNTH527-31.ogg",50
Sample,72750,0,"SYNTH628-92.ogg",50
Sample,72750,0,"HIHAT01-09.ogg",50
Sample,72857,0,"SYNTH527.ogg",50
Sample,72857,0,"HIHAT01-10.ogg",50
Sample,72964,0,"SNARE22-01.ogg",50
Sample,72964,0,"HIHAT01-11.ogg",50
Sample,73071,0,"SYNTH527-01.ogg",50
Sample,73071,0,"HIHAT01-12.ogg",50
Sample,73071,0,"SYNTH123-46.ogg",50
Sample,73178,0,"HIHAT01-13.ogg",50
Sample,73178,0,"SYNTH527-28.ogg",50
Sample,73285,0,"SNARE22-01.ogg",50
Sample,73285,0,"HIHAT01-14.ogg",50
Sample,73285,0,"SYNTH527.ogg",50
Sample,73285,0,"SYNTH123-47.ogg",50
Sample,73500,0,"SYNTH527-30.ogg",50
Sample,73500,0,"HIHAT01-15.ogg",50
Sample,73500,0,"SYNTH123-48.ogg",50
Sample,73607,0,"HIHAT01-16.ogg",50
Sample,73607,0,"SYNTH527-31.ogg",50
Sample,73714,0,"SYNTH527.ogg",50
Sample,73714,0,"HIHAT01-03.ogg",50
Sample,73714,0,"SYNTH123-49.ogg",50
Sample,73821,0,"HIHAT01-04.ogg",50
Sample,73928,0,"SYNTH527-01.ogg",50
Sample,73928,0,"HIHAT01-05.ogg",50
Sample,74035,0,"HIHAT01-06.ogg",50
Sample,74035,0,"SYNTH527-28.ogg",50
Sample,74142,0,"SNARE22-01.ogg",50
Sample,74142,0,"SYNTH123-50.ogg",50
Sample,74142,0,"SYNTH527.ogg",50
Sample,74142,0,"HIHAT01-07.ogg",50
Sample,74357,0,"HIHAT01-08.ogg",50
Sample,74357,0,"SYNTH527-30.ogg",50
Sample,74464,0,"HIHAT01-09.ogg",50
Sample,74464,0,"SYNTH527-31.ogg",50
Sample,74571,0,"SYNTH123-51.ogg",50
Sample,74571,0,"HIHAT01-10.ogg",50
Sample,74571,0,"SYNTH527.ogg",50
Sample,74678,0,"HIHAT01-11.ogg",50
Sample,74785,0,"HIHAT01-12.ogg",50
Sample,74785,0,"SYNTH527-01.ogg",50
Sample,74892,0,"SYNTH527-28.ogg",50
Sample,74892,0,"HIHAT01-13.ogg",50
Sample,75000,0,"SYNTH527.ogg",50
Sample,75000,0,"HIHAT01-14.ogg",50
Sample,75000,0,"SNARE22-01.ogg",50
Sample,75214,0,"HIHAT01-15.ogg",50
Sample,75214,0,"SYNTH123-52.ogg",50
Sample,75214,0,"SYNTH527-30.ogg",50
Sample,75321,0,"SYNTH527-31.ogg",50
Sample,75321,0,"HIHAT01-16.ogg",50
Sample,75428,0,"HIHAT01-03.ogg",50
Sample,75428,0,"SYNTH527.ogg",50
Sample,75535,0,"HIHAT01-04.ogg",50
Sample,75642,0,"SYNTH123-53.ogg",50
Sample,75642,0,"HIHAT01-05.ogg",50
Sample,75642,0,"SYNTH527-01.ogg",50
Sample,75750,0,"SNARE22-01.ogg",50
Sample,75750,0,"SYNTH527-28.ogg",50
Sample,75750,0,"HIHAT01-06.ogg",50
Sample,75857,0,"HIHAT01-07.ogg",50
Sample,75857,0,"SYNTH527.ogg",50
Sample,75857,0,"SYNTH123-54.ogg",50
Sample,76071,0,"HIHAT01-08.ogg",50
Sample,76071,0,"SYNTH527-30.ogg",50
Sample,76071,0,"SYNTH123-55.ogg",50
Sample,76178,0,"HIHAT01-09.ogg",50
Sample,76178,0,"SYNTH527-31.ogg",50
Sample,76178,0,"SNARE22-01.ogg",50
Sample,76285,0,"HIHAT01-10.ogg",50
Sample,76285,0,"SYNTH527.ogg",50
Sample,76392,0,"HIHAT01-11.ogg",50
Sample,76500,0,"SNARE22-01.ogg",50
Sample,76500,0,"SYNTH527-01.ogg",50
Sample,76500,0,"HIHAT01-12.ogg",50
Sample,76607,0,"SYNTH527.ogg",50
Sample,76607,0,"HIHAT01-13.ogg",50
Sample,76607,0,"SYNTH527-28.ogg",50
Sample,76714,0,"SNARE22-01.ogg",50
Sample,76714,0,"HIHAT01-14.ogg",50
Sample,76928,0,"HIHAT01-15.ogg",50
Sample,76928,0,"SNARE22-01.ogg",50
Sample,76928,0,"SYNTH527.ogg",50
Sample,76928,0,"SYNTH527-30.ogg",50
Sample,77035,0,"SNARE22-01.ogg",50
Sample,77035,0,"HIHAT01-16.ogg",50
Sample,77142,0,"SYNTH325.ogg",50
Sample,77142,0,"CYMREVERSE04-01.ogg",50
Sample,77250,0,"SYNTH325-01.ogg",50
Sample,77464,0,"SYNTH325-26.ogg",50
Sample,77571,0,"SYNTH325-27.ogg",50
Sample,77892,0,"SYNTH325-28.ogg",50
Sample,78214,0,"SYNTH325-29.ogg",50
Sample,78428,0,"SYNTH325-30.ogg",50
Sample,78535,0,"SYNTH325-31.ogg",50
Sample,78642,0,"SYNTH325-32.ogg",50
Sample,78857,0,"SYNTH325.ogg",50
Sample,78964,0,"SYNTH325-01.ogg",50
Sample,79178,0,"SYNTH325-26.ogg",50
Sample,79285,0,"SYNTH325-27.ogg",50
Sample,79607,0,"SYNTH325-28.ogg",50
Sample,79928,0,"SYNTH325-29.ogg",50
Sample,80571,0,"SYNTH325.ogg",50
Sample,80678,0,"SYNTH325-01.ogg",50
Sample,80892,0,"SYNTH325-26.ogg",50
Sample,81000,0,"SYNTH325-27.ogg",50
Sample,81321,0,"SYNTH325-28.ogg",50
Sample,81642,0,"SYNTH325-29.ogg",50
Sample,81857,0,"SYNTH325-30.ogg",50
Sample,81964,0,"SYNTH325-31.ogg",50
Sample,82071,0,"SYNTH325-32.ogg",50
Sample,82285,0,"SYNTH325.ogg",50
Sample,82392,0,"SYNTH325-01.ogg",50
Sample,82607,0,"SYNTH325-26.ogg",50
Sample,82714,0,"SYNTH325-27.ogg",50
Sample,83035,0,"SYNTH325-28.ogg",50
Sample,83357,0,"SYNTH325-29.ogg",50
Sample,83678,0,"BASS01.ogg",50
Sample,84000,0,"SYNTH527.ogg",50
Sample,84000,0,"SYNTH426.ogg",50
Sample,84000,0,"CYMREVERSE04.ogg",50
Sample,84214,0,"SYNTH527-01.ogg",50
Sample,84214,0,"SYNTH426-01.ogg",50
Sample,84428,0,"SYNTH527-28.ogg",50
Sample,84535,0,"SYNTH426-27.ogg",50
Sample,84642,0,"SYNTH527.ogg",50
Sample,84642,0,"SYNTH426-28.ogg",50
Sample,84750,0,"SYNTH426-29.ogg",50
Sample,84857,0,"SYNTH426-30.ogg",50
Sample,84857,0,"SYNTH527-01.ogg",50
Sample,84964,0,"SYNTH426-31.ogg",50
Sample,85071,0,"SYNTH527-28.ogg",50
Sample,85071,0,"SYNTH426-32.ogg",50
Sample,85392,0,"SYNTH426-33.ogg",50
Sample,85607,0,"SYNTH426-34.ogg",50
Sample,85714,0,"SYNTH527.ogg",50
Sample,85714,0,"SYNTH426.ogg",50
Sample,85928,0,"SYNTH527-01.ogg",50
Sample,85928,0,"SYNTH426-01.ogg",50
Sample,86142,0,"SYNTH527-28.ogg",50
Sample,86250,0,"SYNTH426-27.ogg",50
Sample,86357,0,"SYNTH527.ogg",50
Sample,86357,0,"SYNTH426-28.ogg",50
Sample,86464,0,"SYNTH426-29.ogg",50
Sample,86571,0,"SYNTH527-01.ogg",50
Sample,86571,0,"SYNTH426-30.ogg",50
Sample,86678,0,"SYNTH426-31.ogg",50
Sample,86785,0,"SYNTH527-01.ogg",50
Sample,86785,0,"SYNTH426-32.ogg",50
Sample,87000,0,"SYNTH527-28.ogg",50
Sample,87107,0,"SYNTH426-33.ogg",50
Sample,87214,0,"SYNTH527-30.ogg",50
Sample,87321,0,"SYNTH426-34.ogg",50
Sample,87321,0,"SYNTH527-31.ogg",50
Sample,87428,0,"SYNTH426.ogg",50
Sample,87428,0,"SYNTH527.ogg",50
Sample,87642,0,"SYNTH527-01.ogg",50
Sample,87642,0,"SYNTH426-01.ogg",50
Sample,87857,0,"SYNTH527-28.ogg",50
Sample,87964,0,"SYNTH426-27.ogg",50
Sample,88071,0,"SYNTH527.ogg",50
Sample,88071,0,"SYNTH426-28.ogg",50
Sample,88178,0,"SYNTH426-29.ogg",50
Sample,88285,0,"SYNTH527-01.ogg",50
Sample,88285,0,"SYNTH426-30.ogg",50
Sample,88392,0,"SYNTH426-31.ogg",50
Sample,88500,0,"SYNTH426-32.ogg",50
Sample,88500,0,"SYNTH527-28.ogg",50
Sample,88821,0,"SYNTH426-33.ogg",50
Sample,89035,0,"SYNTH426-34.ogg",50
Sample,89142,0,"SYNTH426.ogg",50
Sample,89142,0,"SYNTH527.ogg",50
Sample,89142,0,"SNARE22-01.ogg",50
Sample,89250,0,"SNARE22-01.ogg",50
Sample,89357,0,"SYNTH426-01.ogg",50
Sample,89357,0,"SNARE22-01.ogg",50
Sample,89357,0,"SYNTH527-01.ogg",50
Sample,89464,0,"SNARE22-01.ogg",50
Sample,89571,0,"SNARE22-01.ogg",50
Sample,89571,0,"SYNTH527-28.ogg",50
Sample,89678,0,"SNARE22-01.ogg",50
Sample,89678,0,"SYNTH426-27.ogg",50
Sample,89785,0,"SYNTH527.ogg",50
Sample,89785,0,"SNARE22-01.ogg",50
Sample,89785,0,"SYNTH426-28.ogg",50
Sample,89892,0,"SYNTH426-29.ogg",50
Sample,89892,0,"SNARE22-01.ogg",50
Sample,90000,0,"SNARE22-01.ogg",50
Sample,90000,0,"SYNTH426-30.ogg",50
Sample,90000,0,"SYNTH527-01.ogg",50
Sample,90107,0,"SYNTH426-31.ogg",50
Sample,90107,0,"SNARE22-01.ogg",50
Sample,90214,0,"SNARE22-01.ogg",50
Sample,90214,0,"SYNTH527-01.ogg",50
Sample,90214,0,"SYNTH426-32.ogg",50
Sample,90285,0,"SNARE22-01.ogg",50
Sample,90357,0,"SNARE22-01.ogg",50
Sample,90428,0,"SYNTH527-28.ogg",50
Sample,90428,0,"SNARE22-01.ogg",50
Sample,90499,0,"SNARE22-01.ogg",50
Sample,90535,0,"SYNTH426-33.ogg",50
Sample,90571,0,"SNARE22-01.ogg",50
Sample,90642,0,"SYNTH527-30.ogg",50
Sample,90642,0,"SNARE22-01.ogg",50
Sample,90714,0,"SNARE22-01.ogg",50
Sample,90750,0,"SYNTH426-34.ogg",50
Sample,90785,0,"SNARE22-01.ogg",50
Sample,90857,0,"HIHAT01-03.ogg",50
Sample,90857,0,"SYNTH123.ogg",50
Sample,90964,0,"HIHAT01-04.ogg",50
Sample,91071,0,"SYNTH527-01.ogg",50
Sample,91071,0,"HIHAT01-05.ogg",50
Sample,91178,0,"HIHAT01-06.ogg",50
Sample,91178,0,"SYNTH527-28.ogg",50
Sample,91285,0,"SYNTH123-01.ogg",50
Sample,91285,0,"SNARE22-01.ogg",50
Sample,91285,0,"HIHAT01-07.ogg",50
Sample,91500,0,"HIHAT01-08.ogg",50
Sample,91500,0,"SYNTH527-30.ogg",50
Sample,91607,0,"SYNTH527-31.ogg",50
Sample,91607,0,"HIHAT01-09.ogg",50
Sample,91714,0,"SYNTH123-24.ogg",50
Sample,91714,0,"HIHAT01-10.ogg",50
Sample,91821,0,"HIHAT01-11.ogg",50
Sample,91928,0,"SYNTH527-01.ogg",50
Sample,91928,0,"HIHAT01-12.ogg",50
Sample,92035,0,"HIHAT01-13.ogg",50
Sample,92035,0,"SYNTH527-28.ogg",50
Sample,92142,0,"HIHAT01-14.ogg",50
Sample,92142,0,"SNARE22-01.ogg",50
Sample,92357,0,"SYNTH527-30.ogg",50
Sample,92357,0,"SYNTH123-25.ogg",50
Sample,92357,0,"HIHAT01-15.ogg",50
Sample,92464,0,"HIHAT01-16.ogg",50
Sample,92464,0,"SYNTH527-31.ogg",50
Sample,92571,0,"HIHAT01-03.ogg",50
Sample,92678,0,"HIHAT01-04.ogg",50
Sample,92785,0,"SYNTH123-26.ogg",50
Sample,92785,0,"HIHAT01-05.ogg",50
Sample,92785,0,"SYNTH527-01.ogg",50
Sample,92892,0,"HIHAT01-06.ogg",50
Sample,92892,0,"SYNTH527-28.ogg",50
Sample,93000,0,"SNARE22-01.ogg",50
Sample,93000,0,"HIHAT01-07.ogg",50
Sample,93214,0,"HIHAT01-08.ogg",50
Sample,93214,0,"SYNTH527-30.ogg",50
Sample,93321,0,"HIHAT01-09.ogg",50
Sample,93321,0,"SYNTH527-31.ogg",50
Sample,93428,0,"HIHAT01-10.ogg",50
Sample,93428,0,"SYNTH123-27.ogg",50
Sample,93535,0,"SNARE22-01.ogg",50
Sample,93535,0,"HIHAT01-11.ogg",50
Sample,93642,0,"HIHAT01-12.ogg",50
Sample,93642,0,"SYNTH527-01.ogg",50
Sample,93750,0,"HIHAT01-13.ogg",50
Sample,93750,0,"SYNTH527-28.ogg",50
Sample,93857,0,"SYNTH123-28.ogg",50
Sample,93857,0,"HIHAT01-14.ogg",50
Sample,93857,0,"SNARE22-01.ogg",50
Sample,94071,0,"SYNTH123-29.ogg",50
Sample,94071,0,"SYNTH527-30.ogg",50
Sample,94071,0,"HIHAT01-15.ogg",50
Sample,94178,0,"SYNTH527-31.ogg",50
Sample,94178,0,"HIHAT01-16.ogg",50
Sample,94285,0,"SYNTH123-30.ogg",50
Sample,94285,0,"HIHAT01-03.ogg",50
Sample,94392,0,"HIHAT01-04.ogg",50
Sample,94500,0,"SYNTH527-01.ogg",50
Sample,94500,0,"HIHAT01-05.ogg",50
Sample,94607,0,"HIHAT01-06.ogg",50
Sample,94607,0,"SYNTH527-28.ogg",50
Sample,94714,0,"HIHAT01-07.ogg",50
Sample,94714,0,"SYNTH123-31.ogg",50
Sample,94714,0,"SNARE22-01.ogg",50
Sample,94928,0,"HIHAT01-08.ogg",50
Sample,94928,0,"SYNTH527-30.ogg",50
Sample,95035,0,"HIHAT01-09.ogg",50
Sample,95035,0,"SYNTH527-31.ogg",50
Sample,95142,0,"HIHAT01-10.ogg",50
Sample,95142,0,"SYNTH123-32.ogg",50
Sample,95250,0,"HIHAT01-11.ogg",50
Sample,95357,0,"SYNTH527-01.ogg",50
Sample,95357,0,"HIHAT01-12.ogg",50
Sample,95464,0,"HIHAT01-13.ogg",50
Sample,95464,0,"SYNTH527-28.ogg",50
Sample,95571,0,"HIHAT01-14.ogg",50
Sample,95571,0,"SNARE22-01.ogg",50
Sample,95785,0,"HIHAT01-15.ogg",50
Sample,95785,0,"SYNTH123-33.ogg",50
Sample,95785,0,"SYNTH527-30.ogg",50
Sample,95892,0,"SYNTH527-31.ogg",50
Sample,95892,0,"HIHAT01-16.ogg",50
Sample,96000,0,"HIHAT01-03.ogg",50
Sample,96107,0,"HIHAT01-04.ogg",50
Sample,96214,0,"SYNTH123-34.ogg",50
Sample,96214,0,"SYNTH527-01.ogg",50
Sample,96214,0,"HIHAT01-05.ogg",50
Sample,96321,0,"SYNTH527-28.ogg",50
Sample,96321,0,"HIHAT01-06.ogg",50
Sample,96428,0,"SNARE22-01.ogg",50
Sample,96428,0,"HIHAT01-07.ogg",50
Sample,96642,0,"SYNTH527-30.ogg",50
Sample,96642,0,"SYNTH123-35.ogg",50
Sample,96642,0,"HIHAT01-08.ogg",50
Sample,96750,0,"HIHAT01-09.ogg",50
Sample,96750,0,"SYNTH527-31.ogg",50
Sample,96857,0,"HIHAT01-10.ogg",50
Sample,96857,0,"SYNTH123-36.ogg",50
Sample,96964,0,"HIHAT01-11.ogg",50
Sample,96964,0,"SNARE22-01.ogg",50
Sample,97071,0,"SYNTH527-01.ogg",50
Sample,97071,0,"HIHAT01-12.ogg",50
Sample,97071,0,"SYNTH123-37.ogg",50
Sample,97178,0,"SYNTH123-38.ogg",50
Sample,97178,0,"HIHAT01-13.ogg",50
Sample,97178,0,"SYNTH527-28.ogg",50
Sample,97285,0,"HIHAT01-14.ogg",50
Sample,97285,0,"SNARE22-01.ogg",50
Sample,97500,0,"SYNTH527-30.ogg",50
Sample,97500,0,"HIHAT01-15.ogg",50
Sample,97500,0,"SNARE22-01.ogg",50
Sample,97500,0,"SYNTH123-39.ogg",50
Sample,97607,0,"SNARE22-01.ogg",50
Sample,97607,0,"HIHAT01-16.ogg",50
Sample,97607,0,"SYNTH527-31.ogg",50
Sample,97714,0,"HIHAT01-03.ogg",50
Sample,97714,0,"CYMREVERSE04.ogg",50
Sample,97714,0,"SYNTH123-40.ogg",50
Sample,97821,0,"HIHAT01-04.ogg",50
Sample,97928,0,"HIHAT01-05.ogg",50
Sample,97928,0,"SYNTH527-01.ogg",50
Sample,98035,0,"HIHAT01-06.ogg",50
Sample,98035,0,"SYNTH527-28.ogg",50
Sample,98142,0,"SYNTH123-41.ogg",50
Sample,98142,0,"HIHAT01-07.ogg",50
Sample,98142,0,"SNARE22-01.ogg",50
Sample,98357,0,"HIHAT01-08.ogg",50
Sample,98357,0,"SYNTH527-30.ogg",50
Sample,98464,0,"HIHAT01-09.ogg",50
Sample,98464,0,"SYNTH527-31.ogg",50
Sample,98571,0,"SYNTH123-42.ogg",50
Sample,98571,0,"HIHAT01-10.ogg",50
Sample,98678,0,"HIHAT01-11.ogg",50
Sample,98785,0,"SYNTH527-01.ogg",50
Sample,98785,0,"HIHAT01-12.ogg",50
Sample,98892,0,"HIHAT01-13.ogg",50
Sample,98892,0,"SYNTH628-80.ogg",50
Sample,98892,0,"SYNTH527-28.ogg",50
Sample,99000,0,"HIHAT01-14.ogg",50
Sample,99000,0,"SNARE22-01.ogg",50
Sample,99214,0,"SYNTH527-30.ogg",50
Sample,99214,0,"HIHAT01-15.ogg",50
Sample,99214,0,"SYNTH123-43.ogg",50
Sample,99321,0,"HIHAT01-16.ogg",50
Sample,99321,0,"SYNTH527-31.ogg",50
Sample,99428,0,"HIHAT01-03.ogg",50
Sample,99535,0,"HIHAT01-04.ogg",50
Sample,99535,0,"SYNTH628-86.ogg",50
Sample,99642,0,"HIHAT01-05.ogg",50
Sample,99642,0,"SYNTH123-44.ogg",50
Sample,99642,0,"SYNTH527-01.ogg",50
Sample,99750,0,"HIHAT01-06.ogg",50
Sample,99750,0,"SYNTH527-28.ogg",50
Sample,99857,0,"HIHAT01-07.ogg",50
Sample,99857,0,"SNARE22-01.ogg",50
Sample,100071,0,"SYNTH527-30.ogg",50
Sample,100071,0,"HIHAT01-08.ogg",50
Sample,100071,0,"SYNTH123-45.ogg",50
Sample,100178,0,"HIHAT01-09.ogg",50
Sample,100178,0,"SYNTH628-92.ogg",50
Sample,100178,0,"SYNTH527-31.ogg",50
Sample,100285,0,"HIHAT01-10.ogg",50
Sample,100392,0,"HIHAT01-11.ogg",50
Sample,100392,0,"SNARE22-01.ogg",50
Sample,100500,0,"HIHAT01-12.ogg",50
Sample,100500,0,"SYNTH527-01.ogg",50
Sample,100500,0,"SYNTH123-46.ogg",50
Sample,100607,0,"HIHAT01-13.ogg",50
Sample,100607,0,"SYNTH527-28.ogg",50
Sample,100714,0,"SNARE22-01.ogg",50
Sample,100714,0,"SYNTH123-47.ogg",50
Sample,100714,0,"HIHAT01-14.ogg",50
Sample,100928,0,"SYNTH123-48.ogg",50
Sample,100928,0,"SYNTH527-30.ogg",50
Sample,100928,0,"HIHAT01-15.ogg",50
Sample,101035,0,"HIHAT01-16.ogg",50
Sample,101035,0,"SYNTH527-31.ogg",50
Sample,101142,0,"SYNTH123-49.ogg",50
Sample,101142,0,"HIHAT01-03.ogg",50
Sample,101250,0,"HIHAT01-04.ogg",50
Sample,101357,0,"HIHAT01-05.ogg",50
Sample,101357,0,"SYNTH527-01.ogg",50
Sample,101464,0,"HIHAT01-06.ogg",50
Sample,101464,0,"SYNTH527-28.ogg",50
Sample,101571,0,"SYNTH123-50.ogg",50
Sample,101571,0,"HIHAT01-07.ogg",50
Sample,101571,0,"SNARE22-01.ogg",50
Sample,101785,0,"HIHAT01-08.ogg",50
Sample,101785,0,"SYNTH527-30.ogg",50
Sample,101892,0,"HIHAT01-09.ogg",50
Sample,101892,0,"SYNTH527-31.ogg",50
Sample,102000,0,"HIHAT01-10.ogg",50
Sample,102000,0,"SYNTH123-51.ogg",50
Sample,102107,0,"HIHAT01-11.ogg",50
Sample,102214,0,"HIHAT01-12.ogg",50
Sample,102214,0,"SYNTH527-01.ogg",50
Sample,102321,0,"SYNTH527-28.ogg",50
Sample,102321,0,"HIHAT01-13.ogg",50
Sample,102428,0,"HIHAT01-14.ogg",50
Sample,102428,0,"SNARE22-01.ogg",50
Sample,102642,0,"SYNTH123-52.ogg",50
Sample,102642,0,"HIHAT01-15.ogg",50
Sample,102642,0,"SYNTH527-30.ogg",50
Sample,102750,0,"SYNTH527-31.ogg",50
Sample,102750,0,"HIHAT01-16.ogg",50
Sample,102857,0,"HIHAT01-03.ogg",50
Sample,102964,0,"HIHAT01-04.ogg",50
Sample,103071,0,"HIHAT01-05.ogg",50
Sample,103071,0,"SYNTH123-53.ogg",50
Sample,103071,0,"SYNTH527-01.ogg",50
Sample,103178,0,"SNARE22-01.ogg",50
Sample,103178,0,"HIHAT01-06.ogg",50
Sample,103178,0,"SYNTH527-28.ogg",50
Sample,103285,0,"HIHAT01-07.ogg",50
Sample,103285,0,"SYNTH123-54.ogg",50
Sample,103500,0,"SYNTH527-30.ogg",50
Sample,103500,0,"SYNTH123-55.ogg",50
Sample,103500,0,"HIHAT01-08.ogg",50
Sample,103607,0,"HIHAT01-09.ogg",50
Sample,103607,0,"SNARE22-01.ogg",50
Sample,103607,0,"SYNTH527-31.ogg",50
Sample,103714,0,"HIHAT01-10.ogg",50
Sample,103821,0,"HIHAT01-11.ogg",50
Sample,103928,0,"HIHAT01-12.ogg",50
Sample,103928,0,"SYNTH527-01.ogg",50
Sample,103928,0,"SNARE22-01.ogg",50
Sample,103982,0,"SNARE22-01.ogg",50
Sample,104035,0,"HIHAT01-13.ogg",50
Sample,104035,0,"SYNTH527-28.ogg",50
Sample,104035,0,"SNARE22-01.ogg",50
Sample,104142,0,"SNARE22-01.ogg",50
Sample,104142,0,"HIHAT01-14.ogg",50
Sample,104250,0,"SNARE22-01.ogg",50
Sample,104357,0,"SYNTH527-30.ogg",50
Sample,104357,0,"HIHAT01-15.ogg",50
Sample,104357,0,"SNARE22-01.ogg",50
Sample,104464,0,"SNARE22-01.ogg",50
Sample,104464,0,"HIHAT01-16.ogg",50
//Background Colour Transformations
3,100,163,162,255

[TimingPoints]
0,428.571428571429,4,2,0,100,1,0
49714,-100,4,2,0,100,0,1
63214,-100,4,2,0,100,0,0
63428,-100,4,2,0,100,0,1
77142,-100,4,2,0,100,0,0
90857,-100,4,2,0,100,0,1
104571,-100,4,2,0,100,0,0

[HitObjects]
51,192,1714,1,0,0:0:0:100:RHYTHM421.ogg
256,192,1928,1,0,0:0:0:100:RHYTHM421-01.ogg
460,192,2142,1,0,0:0:0:100:RHYTHM421-22.ogg
256,192,2357,1,0,0:0:0:100:RHYTHM421-23.ogg
51,192,2571,1,0,0:0:0:100:RHYTHM421-24.ogg
256,192,2785,1,0,0:0:0:100:RHYTHM421-25.ogg
460,192,3000,1,0,0:0:0:100:RHYTHM421-26.ogg
256,192,3214,1,0,0:0:0:100:RHYTHM421-27.ogg
51,192,3428,1,0,0:0:0:100:RHYTHM421-28.ogg
256,192,3642,1,0,0:0:0:100:RHYTHM421-29.ogg
460,192,3857,1,0,0:0:0:100:RHYTHM421-30.ogg
460,192,4071,1,0,0:0:0:100:RHYTHM421-31.ogg
256,192,4178,1,0,0:0:0:100:RHYTHM421-32.ogg
51,192,4285,1,0,0:0:0:100:RHYTHM421-33.ogg
51,192,4500,1,0,0:0:0:100:RHYTHM421-34.ogg
460,192,4714,1,0,0:0:0:100:RHYTHM421-35.ogg
51,192,4928,1,0,0:0:0:100:RHYTHM421-36.ogg
51,192,5142,1,0,0:0:0:100:RHYTHM421.ogg
256,192,5357,1,0,0:0:0:100:RHYTHM421-01.ogg
460,192,5571,1,0,0:0:0:100:RHYTHM421-22.ogg
256,192,5785,1,0,0:0:0:100:RHYTHM421-23.ogg
51,192,6000,1,0,0:0:0:100:RHYTHM421-24.ogg
256,192,6214,1,0,0:0:0:100:RHYTHM421-25.ogg
460,192,6428,1,0,0:0:0:100:RHYTHM421-26.ogg
256,192,6642,1,0,0:0:0:100:RHYTHM421-27.ogg
460,192,6821,1,0,0:0:0:100:ENDING CHO 1 05.ogg
51,192,6857,1,0,0:0:0:100:RHYTHM421-28.ogg
256,192,7285,1,0,0:0:0:100:ENDING CHO 1 05-01.ogg
51,192,7678,1,0,0:0:0:100:ENDING CHO 1 05-02.ogg
256,192,8142,1,0,0:0:0:100:BASS01.ogg
51,192,8571,1,0,0:0:0:100:SYNTH628-41.ogg
460,192,8571,1,0,0:0:0:100:SYNTH527.ogg
256,192,8785,1,0,0:0:0:100:SYNTH628-40.ogg
256,192,9000,1,0,0:0:0:100:SYNTH628-43.ogg
51,192,9214,1,0,0:0:0:100:SYNTH628-41.ogg
460,192,9214,1,0,0:0:0:100:SYNTH527.ogg
153,192,9642,1,0,0:0:0:100:SYNTH628-40.ogg
358,192,9642,1,0,0:0:0:100:SYNTH527-28.ogg
51,192,10285,1,0,0:0:0:100:SYNTH527.ogg
460,192,10285,1,0,0:0:0:100:SYNTH628-41.ogg
256,192,10500,1,0,0:0:0:100:SYNTH628-40.ogg
256,192,10714,1,0,0:0:0:100:SYNTH628-43.ogg
153,192,10928,1,0,0:0:0:100:SYNTH527.ogg
358,192,10928,1,0,0:0:0:100:SYNTH628-41.ogg
51,192,11357,1,0,0:0:0:100:SYNTH628-61.ogg
460,192,11357,1,0,0:0:0:100:SYNTH527-01.ogg
51,192,12000,1,0,0:0:0:100:SYNTH527.ogg
460,192,12000,1,0,0:0:0:100:SYNTH628-41.ogg
153,192,12214,1,0,0:0:0:100:SYNTH628-40.ogg
358,192,12428,1,0,0:0:0:100:SYNTH628-43.ogg
51,192,12642,1,0,0:0:0:100:SYNTH527.ogg
460,192,12642,1,0,0:0:0:100:SYNTH628-41.ogg
153,192,13071,1,0,0:0:0:100:SYNTH527-28.ogg
358,192,13071,1,0,0:0:0:100:SYNTH628-40.ogg
51,192,13714,1,0,0:0:0:100:SYNTH527.ogg
460,192,13714,1,0,0:0:0:100:SYNTH628-41.ogg
358,192,13928,1,0,0:0:0:100:SYNTH628-40.ogg
153,192,14142,1,0,0:0:0:100:SYNTH628-43.ogg
51,192,14357,1,0,0:0:0:100:SYNTH527.ogg
460,192,14357,1,0,0:0:0:100:SYNTH628-46.ogg
153,192,14785,1,0,0:0:0:100:SYNTH527-01.ogg
358,192,14785,1,0,0:0:0:100:SYNTH628-48.ogg
51,192,15000,1,0,0:0:0:100:SYNTH527-28.ogg
460,192,15000,1,0,0:0:0:100:SYNTH628-65.ogg
51,192,15428,1,0,0:0:0:100:SYNTH527.ogg
460,192,15428,1,0,0:0:0:100:SYNTH628-41.ogg
153,192,15642,1,0,0:0:0:100:SYNTH527-01.ogg
358,192,15642,1,0,0:0:0:100:SYNTH628-40.ogg
153,192,15857,1,0,0:0:0:100:SYNTH527-28.ogg
358,192,15857,1,0,0:0:0:100:SYNTH628-43.ogg
51,192,16071,1,0,0:0:0:100:SYNTH527.ogg
460,192,16071,1,0,0:0:0:100:SYNTH628-41.ogg
256,192,16285,1,0,0:0:0:100:SYNTH527-01.ogg
153,192,16500,1,0,0:0:0:100:SYNTH527-28.ogg
358,192,16500,1,0,0:0:0:100:SYNTH628-40.ogg
51,192,17142,1,0,0:0:0:100:SYNTH527.ogg
460,192,17142,1,0,0:0:0:100:SYNTH628-41.ogg
153,192,17357,1,0,0:0:0:100:SYNTH527-01.ogg
358,192,17357,1,0,0:0:0:100:SYNTH628-40.ogg
51,192,17571,1,0,0:0:0:100:SYNTH527-28.ogg
460,192,17571,1,0,0:0:0:100:SYNTH628-43.ogg
153,192,17785,1,0,0:0:0:100:SYNTH527.ogg
358,192,17785,1,0,0:0:0:100:SYNTH628-41.ogg
256,192,18000,1,0,0:0:0:100:SYNTH527-01.ogg
51,192,18214,1,0,0:0:0:100:SYNTH527-01.ogg
460,192,18214,1,0,0:0:0:100:SYNTH628-61.ogg
153,192,18642,1,0,0:0:0:100:SYNTH527-30.ogg
358,192,18750,1,0,0:0:0:100:SYNTH527-31.ogg
51,192,18857,1,0,0:0:0:100:SYNTH628-41.ogg
460,192,18857,1,0,0:0:0:100:SYNTH527.ogg
153,192,19071,1,0,0:0:0:100:SYNTH628-40.ogg
358,192,19071,1,0,0:0:0:100:SYNTH527-01.ogg
153,192,19285,1,0,0:0:0:100:SYNTH628-43.ogg
358,192,19285,1,0,0:0:0:100:SYNTH527-28.ogg
51,192,19500,1,0,0:0:0:100:SYNTH628-41.ogg
460,192,19500,1,0,0:0:0:100:SYNTH527.ogg
256,192,19714,1,0,0:0:0:100:SYNTH527-01.ogg
153,192,19928,1,0,0:0:0:100:SYNTH527-28.ogg
358,192,19928,1,0,0:0:0:100:SYNTH628-40.ogg
51,192,20571,1,0,0:0:0:100:SYNTH628-44.ogg
460,192,20571,1,0,0:0:0:100:SYNTH527.ogg
153,192,20785,1,0,0:0:0:100:SYNTH628-43.ogg
358,192,20785,1,0,0:0:0:100:SYNTH527-01.ogg
153,192,21000,1,0,0:0:0:100:SYNTH628-47.ogg
358,192,21000,1,0,0:0:0:100:SYNTH527-28.ogg
51,192,21214,1,0,0:0:0:100:SYNTH628-44.ogg
460,192,21214,1,0,0:0:0:100:SYNTH527.ogg
256,192,21428,1,0,0:0:0:100:SYNTH527-01.ogg
256,192,21642,1,0,0:0:0:100:SYNTH527-01.ogg
153,192,21857,1,0,0:0:0:100:SYNTH527-28.ogg
358,192,21857,1,0,0:0:0:100:SNARE22.ogg
256,192,22071,1,0,0:0:0:100:SYNTH527-30.ogg
51,192,22285,128,0,22928:0:0:0:100:PIANO17-32.ogg
358,192,22285,1,0,0:0:0:100:SYNTH527.ogg
256,192,22500,1,0,0:0:0:100:SYNTH527-01.ogg
460,192,22714,1,0,0:0:0:100:SYNTH527-28.ogg
358,192,22928,1,0,0:0:0:100:SYNTH527.ogg
153,192,23142,128,0,23571:0:0:0:100:PIANO17-33.ogg
256,192,23142,1,0,0:0:0:100:SYNTH527-01.ogg
460,192,23357,1,0,0:0:0:100:SYNTH527-28.ogg
358,192,23785,128,0,25071:0:0:0:100:PIANO17-34.ogg
256,192,24000,1,0,0:0:0:100:SYNTH527.ogg
153,192,24214,1,0,0:0:0:100:SYNTH527-01.ogg
51,192,24428,1,0,0:0:0:100:SYNTH527-28.ogg
256,192,24642,1,0,0:0:0:100:SYNTH527.ogg
153,192,24857,1,0,0:0:0:100:SYNTH527-01.ogg
153,192,25071,1,0,0:0:0:100:SYNTH527-01.ogg
51,192,25285,1,0,0:0:0:100:SYNTH527-28.ogg
460,192,25285,128,0,25714:0:0:0:100:PIANO17-35.ogg
51,192,25500,1,0,0:0:0:100:SYNTH527-30.ogg
153,192,25607,1,0,0:0:0:100:SYNTH527-31.ogg
256,192,25714,1,0,0:0:0:100:SYNTH527.ogg
358,192,25714,128,0,26357:0:0:0:100:PIANO17-36.ogg
153,192,25928,1,0,0:0:0:100:SYNTH527-01.ogg
51,192,26142,1,0,0:0:0:100:SYNTH527-28.ogg
256,192,26357,1,0,0:0:0:100:SYNTH527.ogg
153,192,26571,1,0,0:0:0:100:SYNTH527-01.ogg
460,192,26571,128,0,27214:0:0:0:100:PIANO17-37.ogg
51,192,26785,1,0,0:0:0:100:SYNTH527-28.ogg
51,192,27214,128,0,27857:0:0:0:100:PIANO17-38.ogg
153,192,27428,1,0,0:0:0:100:SYNTH527.ogg
256,192,27642,1,0,0:0:0:100:SYNTH527-01.ogg
358,192,27857,1,0,0:0:0:100:SYNTH527-28.ogg
256,192,28071,1,0,0:0:0:100:SYNTH527.ogg
460,192,28285,1,0,0:0:0:100:SYNTH527-01.ogg
51,192,28500,128,0,28928:0:0:0:100:PIANO17-41.ogg
460,192,28500,1,0,0:0:0:100:SYNTH527-01.ogg
256,192,28714,1,0,0:0:0:100:SYNTH527-28.ogg
460,192,28928,1,0,0:0:0:100:SYNTH527-30.ogg
51,192,29142,1,0,0:0:0:100:SYNTH628-41.ogg
256,192,29357,1,0,0:0:0:100:SYNTH628-40.ogg
256,192,29571,1,0,0:0:0:100:SYNTH628-43.ogg
460,192,29785,1,0,0:0:0:100:SYNTH628-41.ogg
153,192,30214,1,0,0:0:0:100:SYNTH628-40.ogg
460,192,30857,1,0,0:0:0:100:SYNTH628-41.ogg
256,192,31071,1,0,0:0:0:100:SYNTH628-40.ogg
256,192,31285,1,0,0:0:0:100:SYNTH628-43.ogg
153,192,31500,1,0,0:0:0:100:SYNTH628-41.ogg
51,192,31928,1,0,0:0:0:100:SYNTH628-61.ogg
51,192,32571,1,0,0:0:0:100:SYNTH628-41.ogg
153,192,32785,1,0,0:0:0:100:SYNTH628-40.ogg
358,192,33000,1,0,0:0:0:100:SYNTH628-43.ogg
460,192,33214,1,0,0:0:0:100:SYNTH628-41.ogg
256,192,33642,1,0,0:0:0:100:SYNTH628-40.ogg
51,192,34285,1,0,0:0:0:100:SYNTH628-44.ogg
256,192,34500,1,0,0:0:0:100:SYNTH628-43.ogg
256,192,34714,1,0,0:0:0:100:SYNTH628-47.ogg
460,192,34928,1,0,0:0:0:100:SYNTH628-44.ogg
256,192,35571,128,0,35785:0:0:0:100:SNARE22-23.ogg
256,192,35892,1,0,0:0:0:100:SNARE22-28.ogg
51,192,36000,1,0,0:0:0:100:SYNTH527.ogg
460,192,36000,1,0,0:0:0:100:KICK12.ogg
256,192,36214,1,0,0:0:0:100:SYNTH527-01.ogg
153,192,36428,1,0,0:0:0:100:SNARE22-01.ogg
358,192,36428,1,0,0:0:0:100:SYNTH527-28.ogg
256,192,36857,1,0,0:0:0:100:SYNTH527-01.ogg
51,192,36964,1,0,0:0:0:100:SYNTH527.ogg
460,192,37071,1,0,0:0:0:100:SYNTH527.ogg
153,192,37285,1,0,0:0:0:100:SNARE22-01.ogg
358,192,37285,1,0,0:0:0:100:SYNTH527-28.ogg
256,192,37500,1,0,0:0:0:100:SYNTH527-01.ogg
51,192,37821,1,0,0:0:0:100:SYNTH527.ogg
460,192,37928,1,0,0:0:0:100:SYNTH527.ogg
153,192,38142,1,0,0:0:0:100:SNARE22-01.ogg
358,192,38142,1,0,0:0:0:100:SYNTH527-28.ogg
460,192,38357,1,0,0:0:0:100:SYNTH527-01.ogg
51,192,38464,1,0,0:0:0:100:SYNTH527.ogg
460,192,38678,1,0,0:0:0:100:SNARE22-01.ogg
51,192,38785,1,0,0:0:0:100:SYNTH527.ogg
153,192,39000,1,0,0:0:0:100:SNARE22-01.ogg
358,192,39000,1,0,0:0:0:100:SYNTH527-28.ogg
256,192,39214,1,0,0:0:0:100:SYNTH527-30.ogg
51,192,39428,1,0,0:0:0:100:SYNTH527.ogg
256,192,39642,1,0,0:0:0:100:SYNTH527-01.ogg
153,192,39857,1,0,0:0:0:100:SNARE22-01.ogg
358,192,39857,1,0,0:0:0:100:SYNTH527-28.ogg
256,192,40178,1,0,0:0:0:100:SYNTH527-01.ogg
51,192,40392,1,0,0:0:0:100:SYNTH527.ogg
460,192,40500,1,0,0:0:0:100:SYNTH527.ogg
153,192,40714,1,0,0:0:0:100:SNARE22-01.ogg
358,192,40714,1,0,0:0:0:100:SYNTH527-28.ogg
256,192,40928,1,0,0:0:0:100:SYNTH527-01.ogg
51,192,41250,1,0,0:0:0:100:SYNTH527.ogg
460,192,41357,1,0,0:0:0:100:SYNTH527.ogg
153,192,41571,1,0,0:0:0:100:SNARE22-01.ogg
358,192,41571,1,0,0:0:0:100:SYNTH527-28.ogg
256,192,41785,1,0,0:0:0:100:SYNTH527-01.ogg
51,192,41892,1,0,0:0:0:100:SYNTH527.ogg
153,192,42107,1,0,0:0:0:100:SNARE22-01.ogg
358,192,42107,1,0,0:0:0:100:SYNTH527-28.ogg
51,192,42214,1,0,0:0:0:100:SYNTH527.ogg
153,192,42428,1,0,0:0:0:100:SNARE22-01.ogg
358,192,42428,1,0,0:0:0:100:SYNTH527-01.ogg
153,192,42642,1,0,0:0:0:100:SNARE22-01.ogg
358,192,42642,1,0,0:0:0:100:SYNTH527-30.ogg
51,192,42857,1,0,0:0:0:100:SYNTH123-103.ogg
256,192,43071,1,0,0:0:0:100:SYNTH123-104.ogg
460,192,43285,1,0,0:0:0:100:SYNTH123-105.ogg
51,192,43500,1,0,0:0:0:100:SYNTH123-103.ogg
256,192,43714,1,0,0:0:0:100:SYNTH123-104.ogg
460,192,43928,1,0,0:0:0:100:SYNTH123-105.ogg
51,192,44571,1,0,0:0:0:100:SYNTH123-103.ogg
256,192,44785,1,0,0:0:0:100:SYNTH123-104.ogg
460,192,45000,1,0,0:0:0:100:SYNTH123-105.ogg
51,192,45214,1,0,0:0:0:100:SYNTH123-103.ogg
256,192,45428,1,0,0:0:0:100:SYNTH123-104.ogg
460,192,45642,1,0,0:0:0:100:SYNTH123-105.ogg
256,192,45857,1,0,0:0:0:100:SYNTH123-104.ogg
51,192,46285,1,0,0:0:0:100:SYNTH123-103.ogg
256,192,46500,1,0,0:0:0:100:SYNTH123-104.ogg
460,192,46714,1,0,0:0:0:100:SYNTH123-105.ogg
51,192,46928,1,0,0:0:0:100:SYNTH123-103.ogg
256,192,47142,1,0,0:0:0:100:SYNTH123-104.ogg
460,192,47357,1,0,0:0:0:100:SYNTH123-105.ogg
51,192,48000,1,0,0:0:0:100:SYNTH123-103.ogg
256,192,48214,1,0,0:0:0:100:SYNTH123-104.ogg
460,192,48428,1,0,0:0:0:100:SYNTH123-108.ogg
358,192,48642,1,0,0:0:0:100:SYNTH123-109.ogg
153,192,48857,1,0,0:0:0:100:SYNTH123-110.ogg
358,192,49071,1,0,0:0:0:100:SYNTH123-111.ogg
256,192,49285,1,0,0:0:0:100:SYNTH123-112.ogg
153,192,49500,1,0,0:0:0:100:SYNTH123-113.ogg
51,192,49714,1,0,0:0:0:100:SYNTH527.ogg
460,192,49714,1,0,0:0:0:100:CYMREVERSE04-01.ogg
256,192,49928,1,0,0:0:0:100:SYNTH527-01.ogg
460,192,50035,1,0,0:0:0:100:SYNTH527-28.ogg
51,192,50142,1,0,0:0:0:100:SYNTH527.ogg
153,192,50142,1,0,0:0:0:100:SNARE22-01.ogg
256,192,50357,1,0,0:0:0:100:SYNTH527-30.ogg
51,192,50464,1,0,0:0:0:100:SYNTH527-31.ogg
460,192,50571,1,0,0:0:0:100:SYNTH527.ogg
256,192,50785,1,0,0:0:0:100:SYNTH527-01.ogg
460,192,50892,1,0,0:0:0:100:SYNTH527-28.ogg
51,192,51000,1,0,0:0:0:100:SYNTH527.ogg
153,192,51000,1,0,0:0:0:100:SNARE22-01.ogg
256,192,51214,1,0,0:0:0:100:SYNTH527-30.ogg
51,192,51321,1,0,0:0:0:100:SYNTH527-31.ogg
460,192,51428,1,0,0:0:0:100:SYNTH527.ogg
256,192,51642,1,0,0:0:0:100:SYNTH527-01.ogg
460,192,51750,1,0,0:0:0:100:SYNTH527-28.ogg
51,192,51857,1,0,0:0:0:100:SYNTH527.ogg
153,192,51857,1,0,0:0:0:100:SNARE22-01.ogg
358,192,52071,1,0,0:0:0:100:SYNTH527-30.ogg
153,192,52178,1,0,0:0:0:100:SYNTH527-31.ogg
460,192,52285,1,0,0:0:0:100:SYNTH527.ogg
51,192,52392,1,0,0:0:0:100:SNARE22-01.ogg
358,192,52500,1,0,0:0:0:100:SYNTH527-01.ogg
153,192,52607,1,0,0:0:0:100:SYNTH527-28.ogg
51,192,52714,1,0,0:0:0:100:SYNTH527.ogg
460,192,52714,1,0,0:0:0:100:SNARE22-01.ogg
256,192,52928,1,0,0:0:0:100:SYNTH527-30.ogg
153,192,53035,1,0,0:0:0:100:SYNTH527-31.ogg
51,192,53142,1,0,0:0:0:100:SYNTH527.ogg
256,192,53357,1,0,0:0:0:100:SYNTH527-01.ogg
358,192,53464,1,0,0:0:0:100:SYNTH527-28.ogg
51,192,53571,1,0,0:0:0:100:SNARE22-01.ogg
460,192,53571,1,0,0:0:0:100:SYNTH527.ogg
256,192,53785,1,0,0:0:0:100:SYNTH527-30.ogg
153,192,53892,1,0,0:0:0:100:SYNTH527-31.ogg
51,192,54000,1,0,0:0:0:100:SYNTH527.ogg
256,192,54214,1,0,0:0:0:100:SYNTH527-01.ogg
358,192,54321,1,0,0:0:0:100:SYNTH527-28.ogg
51,192,54428,1,0,0:0:0:100:SNARE22-01.ogg
460,192,54428,1,0,0:0:0:100:SYNTH527.ogg
256,192,54642,1,0,0:0:0:100:SYNTH527-30.ogg
153,192,54750,1,0,0:0:0:100:SYNTH527-31.ogg
51,192,54857,1,0,0:0:0:100:SYNTH527.ogg
256,192,55071,1,0,0:0:0:100:SYNTH527-01.ogg
358,192,55178,1,0,0:0:0:100:SYNTH527-28.ogg
51,192,55285,1,0,0:0:0:100:SNARE22-01.ogg
460,192,55285,1,0,0:0:0:100:SYNTH527.ogg
460,192,55500,1,0,0:0:0:100:SYNTH527-30.ogg
256,192,55607,1,0,0:0:0:100:SYNTH527-31.ogg
51,192,55714,1,0,0:0:0:100:SYNTH527.ogg
153,192,55821,1,0,0:0:0:100:SNARE22-01.ogg
256,192,55928,1,0,0:0:0:100:SYNTH527-01.ogg
358,192,56035,1,0,0:0:0:100:SYNTH527-28.ogg
51,192,56142,1,0,0:0:0:100:SNARE22-01.ogg
460,192,56142,1,0,0:0:0:100:SYNTH527.ogg
51,192,56357,1,0,0:0:0:100:SNARE22-01.ogg
460,192,56357,1,0,0:0:0:100:SYNTH527-30.ogg
51,192,56571,1,0,0:0:0:100:SYNTH527.ogg
256,192,56571,1,0,0:0:0:100:SYNTH123-87.ogg
358,192,56785,1,0,0:0:0:100:SYNTH123-88.ogg
51,192,57000,1,0,0:0:0:100:SYNTH527.ogg
153,192,57000,1,0,0:0:0:100:SNARE22-01.ogg
460,192,57000,1,0,0:0:0:100:SYNTH123-89.ogg
256,192,57214,1,0,0:0:0:100:SYNTH123-90.ogg
51,192,57428,1,0,0:0:0:100:SYNTH527.ogg
358,192,57428,1,0,0:0:0:100:SYNTH123-91.ogg
460,192,57642,1,0,0:0:0:100:SYNTH123-92.ogg
51,192,57857,1,0,0:0:0:100:SYNTH527.ogg
153,192,57857,1,0,0:0:0:100:SNARE22-01.ogg
256,192,57857,1,0,0:0:0:100:SYNTH123-93.ogg
358,192,58071,1,0,0:0:0:100:SYNTH123-94.ogg
51,192,58285,1,0,0:0:0:100:SYNTH527.ogg
256,192,58285,1,0,0:0:0:100:SYNTH123-95.ogg
358,192,58500,1,0,0:0:0:100:SYNTH123-96.ogg
51,192,58714,1,0,0:0:0:100:SYNTH527.ogg
153,192,58714,1,0,0:0:0:100:SNARE22-01.ogg
460,192,58714,1,0,0:0:0:100:SYNTH123-97.ogg
256,192,58928,1,0,0:0:0:100:SYNTH123-98.ogg
51,192,59142,1,0,0:0:0:100:SYNTH527.ogg
358,192,59142,1,0,0:0:0:100:SYNTH123-99.ogg
153,192,59250,1,0,0:0:0:100:SNARE22-01.ogg
460,192,59357,1,0,0:0:0:100:SYNTH123-100.ogg
51,192,59571,1,0,0:0:0:100:SYNTH527.ogg
153,192,59571,1,0,0:0:0:100:SNARE22-01.ogg
256,192,59571,1,0,0:0:0:100:SYNTH123-101.ogg
358,192,59785,1,0,0:0:0:100:SYNTH123-102.ogg
256,192,60000,1,0,0:0:0:100:SYNTH123-103.ogg
460,192,60000,1,0,0:0:0:100:SYNTH527.ogg
153,192,60214,1,0,0:0:0:100:SYNTH123-104.ogg
51,192,60428,1,0,0:0:0:100:SYNTH123-105.ogg
358,192,60428,1,0,0:0:0:100:SNARE22-01.ogg
460,192,60428,1,0,0:0:0:100:SYNTH527.ogg
256,192,60642,1,0,0:0:0:100:SYNTH123-106.ogg
153,192,60857,1,0,0:0:0:100:SYNTH123-107.ogg
460,192,60857,1,0,0:0:0:100:SYNTH527.ogg
51,192,61071,1,0,0:0:0:100:SYNTH123-108.ogg
153,192,61285,1,0,0:0:0:100:SYNTH123-109.ogg
358,192,61285,1,0,0:0:0:100:SNARE22-01.ogg
460,192,61285,1,0,0:0:0:100:SYNTH527.ogg
256,192,61500,1,0,0:0:0:100:SYNTH123-110.ogg
51,192,61714,1,0,0:0:0:100:SYNTH527.ogg
460,192,61714,1,0,0:0:0:100:SYNTH123-111.ogg
358,192,61928,1,0,0:0:0:100:SYNTH123-112.ogg
51,192,62142,1,0,0:0:0:100:SYNTH527.ogg
256,192,62142,1,0,0:0:0:100:SYNTH123-113.ogg
460,192,62142,1,0,0:0:0:100:SNARE22-01.ogg
153,192,62357,1,0,0:0:0:100:SYNTH123-114.ogg
51,192,62571,1,0,0:0:0:100:SYNTH527.ogg
460,192,62571,1,0,0:0:0:100:SYNTH123-115.ogg
153,192,62785,1,0,0:0:0:100:SYNTH527.ogg
358,192,62785,1,0,0:0:0:100:HIHAT01-12.ogg
51,192,63000,1,0,0:0:0:100:SYNTH527.ogg
460,192,63000,1,0,0:0:0:100:HIHAT01-14.ogg
51,192,63214,1,0,0:0:0:100:SYNTH527.ogg
460,192,63214,1,0,0:0:0:100:HIHAT01-15.ogg
51,192,63428,1,0,0:0:0:100:SYNTH527.ogg
256,192,63428,1,0,0:0:0:100:CYMREVERSE04.ogg
460,192,63428,1,0,0:0:0:100:SYNTH628-33.ogg
51,192,63642,1,0,0:0:0:100:SYNTH628-34.ogg
460,192,63857,1,0,0:0:0:100:SYNTH628-35.ogg
51,192,64071,1,0,0:0:0:100:SYNTH628-36.ogg
460,192,64285,1,0,0:0:0:100:SYNTH628-37.ogg
153,192,64500,1,0,0:0:0:100:SYNTH628-38.ogg
358,192,64607,1,0,0:0:0:100:SYNTH628-39.ogg
153,192,64821,1,0,0:0:0:100:SYNTH628-40.ogg
358,192,64928,1,0,0:0:0:100:SYNTH628-41.ogg
358,192,65250,1,0,0:0:0:100:SYNTH628-42.ogg
153,192,65357,1,0,0:0:0:100:SYNTH628-43.ogg
358,192,65571,1,0,0:0:0:100:SYNTH628-44.ogg
153,192,65785,1,0,0:0:0:100:SYNTH628-45.ogg
460,192,66000,1,0,0:0:0:100:SYNTH628-46.ogg
51,192,66214,1,0,0:0:0:100:SYNTH628-47.ogg
460,192,66321,1,0,0:0:0:100:SYNTH628-48.ogg
358,192,66535,1,0,0:0:0:100:SYNTH628-49.ogg
256,192,66642,1,0,0:0:0:100:SYNTH628-50.ogg
153,192,66750,1,0,0:0:0:100:SYNTH628-51.ogg
460,192,66857,1,0,0:0:0:100:SYNTH628-52.ogg
51,192,67071,1,0,0:0:0:100:SYNTH628-53.ogg
460,192,67285,1,0,0:0:0:100:SYNTH628-54.ogg
51,192,67500,1,0,0:0:0:100:SYNTH628-55.ogg
460,192,67714,1,0,0:0:0:100:SYNTH628-56.ogg
153,192,67928,1,0,0:0:0:100:SYNTH628-57.ogg
358,192,68035,1,0,0:0:0:100:SYNTH628-58.ogg
153,192,68250,1,0,0:0:0:100:SYNTH628-59.ogg
256,192,68357,1,0,0:0:0:100:SYNTH628-60.ogg
358,192,68464,1,0,0:0:0:100:SYNTH628-61.ogg
256,192,68785,1,0,0:0:0:100:SYNTH628-62.ogg
153,192,69000,1,0,0:0:0:100:SYNTH628-63.ogg
256,192,69214,1,0,0:0:0:100:SYNTH628-64.ogg
358,192,69428,1,0,0:0:0:100:SYNTH628-65.ogg
460,192,69642,1,0,0:0:0:100:SYNTH628-66.ogg
256,192,69964,1,0,0:0:0:100:SYNTH628-67.ogg
153,192,70071,1,0,0:0:0:100:SYNTH628-68.ogg
51,192,70178,1,0,0:0:0:100:SYNTH628-69.ogg
460,192,70285,1,0,0:0:0:100:SYNTH628-70.ogg
358,192,70392,1,0,0:0:0:100:SYNTH628-71.ogg
256,192,70500,1,0,0:0:0:100:SYNTH628-72.ogg
153,192,70607,1,0,0:0:0:100:SYNTH628-73.ogg
51,192,70714,1,0,0:0:0:100:SYNTH628-74.ogg
460,192,70928,1,0,0:0:0:100:SYNTH628-75.ogg
358,192,71035,1,0,0:0:0:100:SYNTH628-76.ogg
256,192,71142,1,0,0:0:0:100:SYNTH628-77.ogg
153,192,71250,1,0,0:0:0:100:SYNTH628-78.ogg
51,192,71357,1,0,0:0:0:100:SYNTH628-79.ogg
460,192,71571,1,0,0:0:0:100:SYNTH628-81.ogg
358,192,71678,1,0,0:0:0:100:SYNTH628-82.ogg
256,192,71785,1,0,0:0:0:100:SYNTH628-83.ogg
153,192,71892,1,0,0:0:0:100:SYNTH628-84.ogg
51,192,72000,1,0,0:0:0:100:SYNTH628-85.ogg
51,192,72214,1,0,0:0:0:100:SYNTH628-87.ogg
153,192,72321,1,0,0:0:0:100:SYNTH628-88.ogg
256,192,72428,1,0,0:0:0:100:SYNTH628-89.ogg
358,192,72535,1,0,0:0:0:100:SYNTH628-90.ogg
460,192,72642,1,0,0:0:0:100:SYNTH628-91.ogg
51,192,72857,1,0,0:0:0:100:SYNTH628-93.ogg
153,192,72964,1,0,0:0:0:100:SYNTH628-94.ogg
256,192,73071,1,0,0:0:0:100:SYNTH628-95.ogg
358,192,73178,1,0,0:0:0:100:SYNTH628-96.ogg
460,192,73285,1,0,0:0:0:100:SYNTH628-97.ogg
153,192,73714,1,0,0:0:0:100:SYNTH628-98.ogg
358,192,73821,1,0,0:0:0:100:SYNTH628-99.ogg
51,192,73928,1,0,0:0:0:100:SYNTH628-100.ogg
256,192,74035,1,0,0:0:0:100:SYNTH628-101.ogg
460,192,74142,1,0,0:0:0:100:SYNTH628-102.ogg
51,192,74357,1,0,0:0:0:100:SYNTH628-103.ogg
256,192,74464,1,0,0:0:0:100:SYNTH628-104.ogg
460,192,74571,1,0,0:0:0:100:SYNTH628-105.ogg
51,192,74678,1,0,0:0:0:100:SYNTH628-106.ogg
256,192,74785,1,0,0:0:0:100:SYNTH628-107.ogg
460,192,74892,1,0,0:0:0:100:SYNTH628-108.ogg
51,192,75107,1,0,0:0:0:100:SYNTH628-109.ogg
358,192,75214,1,0,0:0:0:100:SYNTH628-110.ogg
153,192,75321,1,0,0:0:0:100:SYNTH628-111.ogg
460,192,75428,1,0,0:0:0:100:SYNTH628-112.ogg
51,192,75535,1,0,0:0:0:100:SYNTH628-113.ogg
358,192,75642,1,0,0:0:0:100:SYNTH628-114.ogg
153,192,75750,1,0,0:0:0:100:SYNTH628-115.ogg
460,192,75857,1,0,0:0:0:100:SYNTH628-116.ogg
51,192,75964,1,0,0:0:0:100:SYNTH628-117.ogg
256,192,76071,1,0,0:0:0:100:SYNTH628-118.ogg
460,192,76178,1,0,0:0:0:100:SYNTH628-119.ogg
153,192,76285,1,0,0:0:0:100:SYNTH628-120.ogg
358,192,76392,1,0,0:0:0:100:SYNTH628-121.ogg
51,192,76500,1,0,0:0:0:100:SYNTH628-122.ogg
460,192,76607,1,0,0:0:0:100:SYNTH628-123.ogg
153,192,76714,1,0,0:0:0:100:SYNTH628-124.ogg
358,192,76821,1,0,0:0:0:100:SYNTH628-125.ogg
51,192,77142,1,0,0:0:0:100:SYNTH527.ogg
256,192,77357,1,0,0:0:0:100:SYNTH527-01.ogg
460,192,77571,1,0,0:0:0:100:SYNTH527-28.ogg
51,192,77785,1,0,0:0:0:100:SYNTH527.ogg
256,192,78000,1,0,0:0:0:100:SYNTH527-01.ogg
460,192,78214,1,0,0:0:0:100:SYNTH527-28.ogg
51,192,78857,1,0,0:0:0:100:SYNTH527.ogg
256,192,79071,1,0,0:0:0:100:SYNTH527-01.ogg
460,192,79285,1,0,0:0:0:100:SYNTH527-28.ogg
51,192,79500,1,0,0:0:0:100:SYNTH527.ogg
256,192,79714,1,0,0:0:0:100:SYNTH527-01.ogg
256,192,79928,1,0,0:0:0:100:SYNTH527-01.ogg
460,192,80142,1,0,0:0:0:100:SYNTH527-28.ogg
460,192,80357,1,0,0:0:0:100:SYNTH527-30.ogg
51,192,80464,1,0,0:0:0:100:SYNTH527-31.ogg
460,192,80571,1,0,0:0:0:100:SYNTH527.ogg
256,192,80785,1,0,0:0:0:100:SYNTH527-01.ogg
51,192,81000,1,0,0:0:0:100:SYNTH527-28.ogg
460,192,81214,1,0,0:0:0:100:SYNTH527.ogg
256,192,81428,1,0,0:0:0:100:SYNTH527-01.ogg
51,192,81642,1,0,0:0:0:100:SYNTH527-28.ogg
460,192,82285,1,0,0:0:0:100:SYNTH527.ogg
256,192,82500,1,0,0:0:0:100:SYNTH527-01.ogg
51,192,82714,1,0,0:0:0:100:SYNTH527-28.ogg
460,192,82928,1,0,0:0:0:100:SYNTH527.ogg
256,192,83142,1,0,0:0:0:100:SYNTH527-01.ogg
256,192,83357,1,0,0:0:0:100:SYNTH527-01.ogg
51,192,83571,1,0,0:0:0:100:SYNTH527-28.ogg
460,192,83785,1,0,0:0:0:100:SYNTH527-30.ogg
51,192,84000,1,0,0:0:0:100:SYNTH325.ogg
358,192,84107,1,0,0:0:0:100:SYNTH325-01.ogg
153,192,84321,1,0,0:0:0:100:SYNTH325-26.ogg
460,192,84428,128,0,84642:0:0:0:100:SYNTH325-27.ogg
153,192,84750,1,0,0:0:0:100:SYNTH325-28.ogg
256,192,85071,1,0,0:0:0:100:SYNTH325-29.ogg
51,192,85285,1,0,0:0:0:100:SYNTH325-30.ogg
460,192,85392,1,0,0:0:0:100:SYNTH325-31.ogg
51,192,85500,1,0,0:0:0:100:SYNTH325-32.ogg
153,192,85714,1,0,0:0:0:100:SYNTH325.ogg
460,192,85821,1,0,0:0:0:100:SYNTH325-01.ogg
51,192,86035,1,0,0:0:0:100:SYNTH325-26.ogg
358,192,86142,128,0,86357:0:0:0:100:SYNTH325-27.ogg
153,192,86464,1,0,0:0:0:100:SYNTH325-28.ogg
256,192,86785,1,0,0:0:0:100:SYNTH325-29.ogg
460,192,87000,1,0,0:0:0:100:SYNTH325-30.ogg
51,192,87107,1,0,0:0:0:100:SYNTH325-31.ogg
460,192,87214,1,0,0:0:0:100:SYNTH325-32.ogg
51,192,87428,1,0,0:0:0:100:SYNTH325.ogg
358,192,87535,1,0,0:0:0:100:SYNTH325-01.ogg
153,192,87750,1,0,0:0:0:100:SYNTH325-26.ogg
460,192,87857,128,0,88071:0:0:0:100:SYNTH325-27.ogg
153,192,88178,1,0,0:0:0:100:SYNTH325-28.ogg
256,192,88500,1,0,0:0:0:100:SYNTH325-29.ogg
51,192,88714,1,0,0:0:0:100:SYNTH325-30.ogg
460,192,88821,1,0,0:0:0:100:SYNTH325-31.ogg
51,192,88928,1,0,0:0:0:100:SYNTH325-32.ogg
153,192,89142,1,0,0:0:0:100:SYNTH325.ogg
460,192,89250,1,0,0:0:0:100:SYNTH325-01.ogg
51,192,89464,1,0,0:0:0:100:SYNTH325-26.ogg
358,192,89571,128,0,89785:0:0:0:100:SYNTH325-27.ogg
153,192,89892,1,0,0:0:0:100:SYNTH325-28.ogg
256,192,90214,1,0,0:0:0:100:SYNTH325-29.ogg
460,192,90428,1,0,0:0:0:100:SYNTH325-30.ogg
51,192,90535,1,0,0:0:0:100:SYNTH325-31.ogg
460,192,90642,1,0,0:0:0:100:SYNTH325-32.ogg
51,192,90857,1,0,0:0:0:100:SYNTH527.ogg
460,192,90857,1,0,0:0:0:100:SYNTH628-33.ogg
256,192,91071,1,0,0:0:0:100:SYNTH628-34.ogg
51,192,91285,1,0,0:0:0:100:SYNTH527.ogg
460,192,91285,1,0,0:0:0:100:SYNTH628-35.ogg
256,192,91500,1,0,0:0:0:100:SYNTH628-36.ogg
51,192,91714,1,0,0:0:0:100:SYNTH527.ogg
460,192,91714,1,0,0:0:0:100:SYNTH628-37.ogg
256,192,91928,1,0,0:0:0:100:SYNTH628-38.ogg
460,192,92035,1,0,0:0:0:100:SYNTH628-39.ogg
51,192,92142,1,0,0:0:0:100:SYNTH527.ogg
256,192,92250,1,0,0:0:0:100:SYNTH628-40.ogg
460,192,92357,1,0,0:0:0:100:SYNTH628-41.ogg
51,192,92571,1,0,0:0:0:100:SYNTH527.ogg
460,192,92678,1,0,0:0:0:100:SYNTH628-42.ogg
256,192,92785,1,0,0:0:0:100:SYNTH628-43.ogg
51,192,93000,1,0,0:0:0:100:SYNTH527.ogg
460,192,93000,1,0,0:0:0:100:SYNTH628-44.ogg
256,192,93214,1,0,0:0:0:100:SYNTH628-45.ogg
51,192,93428,1,0,0:0:0:100:SYNTH527.ogg
358,192,93428,1,0,0:0:0:100:SYNTH628-46.ogg
256,192,93642,1,0,0:0:0:100:SYNTH628-47.ogg
460,192,93750,1,0,0:0:0:100:SYNTH628-48.ogg
51,192,93857,1,0,0:0:0:100:SYNTH527.ogg
460,192,93964,1,0,0:0:0:100:SYNTH628-49.ogg
358,192,94071,1,0,0:0:0:100:SYNTH628-50.ogg
153,192,94178,1,0,0:0:0:100:SYNTH628-51.ogg
51,192,94285,1,0,0:0:0:100:SYNTH527.ogg
460,192,94285,1,0,0:0:0:100:SYNTH628-52.ogg
256,192,94500,1,0,0:0:0:100:SYNTH628-53.ogg
51,192,94714,1,0,0:0:0:100:SYNTH527.ogg
460,192,94714,1,0,0:0:0:100:SYNTH628-54.ogg
256,192,94928,1,0,0:0:0:100:SYNTH628-55.ogg
51,192,95142,1,0,0:0:0:100:SYNTH527.ogg
460,192,95142,1,0,0:0:0:100:SYNTH628-56.ogg
256,192,95357,1,0,0:0:0:100:SYNTH628-57.ogg
460,192,95464,1,0,0:0:0:100:SYNTH628-58.ogg
51,192,95571,1,0,0:0:0:100:SYNTH527.ogg
256,192,95678,1,0,0:0:0:100:SYNTH628-59.ogg
358,192,95785,1,0,0:0:0:100:SYNTH628-60.ogg
460,192,95892,1,0,0:0:0:100:SYNTH628-61.ogg
51,192,96000,1,0,0:0:0:100:SYNTH527.ogg
256,192,96214,1,0,0:0:0:100:SYNTH628-62.ogg
51,192,96428,1,0,0:0:0:100:SYNTH527.ogg
153,192,96428,1,0,0:0:0:100:SYNTH628-63.ogg
256,192,96642,1,0,0:0:0:100:SYNTH628-64.ogg
51,192,96857,1,0,0:0:0:100:SYNTH527.ogg
358,192,96857,1,0,0:0:0:100:SYNTH628-65.ogg
460,192,97071,1,0,0:0:0:100:SYNTH628-66.ogg
51,192,97285,1,0,0:0:0:100:SYNTH527.ogg
153,192,97392,1,0,0:0:0:100:SYNTH628-67.ogg
256,192,97500,1,0,0:0:0:100:SYNTH628-68.ogg
358,192,97607,1,0,0:0:0:100:SYNTH628-69.ogg
51,192,97714,1,0,0:0:0:100:SYNTH527.ogg
460,192,97714,1,0,0:0:0:100:SYNTH628-70.ogg
358,192,97821,1,0,0:0:0:100:SYNTH628-71.ogg
256,192,97928,1,0,0:0:0:100:SYNTH628-72.ogg
153,192,98035,1,0,0:0:0:100:SYNTH628-73.ogg
51,192,98142,1,0,0:0:0:100:SYNTH527.ogg
460,192,98142,1,0,0:0:0:100:SYNTH628-74.ogg
358,192,98357,1,0,0:0:0:100:SYNTH628-75.ogg
153,192,98464,1,0,0:0:0:100:SYNTH628-76.ogg
51,192,98571,1,0,0:0:0:100:SYNTH527.ogg
358,192,98571,1,0,0:0:0:100:SYNTH628-77.ogg
153,192,98678,1,0,0:0:0:100:SYNTH628-78.ogg
460,192,98785,1,0,0:0:0:100:SYNTH628-79.ogg
51,192,99000,1,0,0:0:0:100:SYNTH527.ogg
256,192,99000,1,0,0:0:0:100:SYNTH628-81.ogg
460,192,99107,1,0,0:0:0:100:SYNTH628-82.ogg
256,192,99214,1,0,0:0:0:100:SYNTH628-83.ogg
460,192,99321,1,0,0:0:0:100:SYNTH628-84.ogg
51,192,99428,1,0,0:0:0:100:SYNTH527.ogg
153,192,99428,1,0,0:0:0:100:SYNTH628-85.ogg
358,192,99642,1,0,0:0:0:100:SYNTH628-87.ogg
256,192,99750,1,0,0:0:0:100:SYNTH628-88.ogg
51,192,99857,1,0,0:0:0:100:SYNTH527.ogg
358,192,99857,1,0,0:0:0:100:SYNTH628-89.ogg
256,192,99964,1,0,0:0:0:100:SYNTH628-90.ogg
460,192,100071,1,0,0:0:0:100:SYNTH628-91.ogg
51,192,100285,1,0,0:0:0:100:SYNTH527.ogg
153,192,100285,1,0,0:0:0:100:SYNTH628-93.ogg
256,192,100392,1,0,0:0:0:100:SYNTH628-94.ogg
153,192,100500,1,0,0:0:0:100:SYNTH628-95.ogg
256,192,100607,1,0,0:0:0:100:SYNTH628-96.ogg
51,192,100714,1,0,0:0:0:100:SYNTH527.ogg
460,192,100714,1,0,0:0:0:100:SYNTH628-97.ogg
51,192,101142,1,0,0:0:0:100:SYNTH527.ogg
460,192,101142,1,0,0:0:0:100:SYNTH628-98.ogg
153,192,101250,1,0,0:0:0:100:SYNTH628-99.ogg
256,192,101357,1,0,0:0:0:100:SYNTH628-100.ogg
358,192,101464,1,0,0:0:0:100:SYNTH628-101.ogg
51,192,101571,1,0,0:0:0:100:SYNTH527.ogg
460,192,101571,1,0,0:0:0:100:SYNTH628-102.ogg
256,192,101785,1,0,0:0:0:100:SYNTH628-103.ogg
358,192,101892,1,0,0:0:0:100:SYNTH628-104.ogg
51,192,102000,1,0,0:0:0:100:SYNTH527.ogg
460,192,102000,1,0,0:0:0:100:SYNTH628-105.ogg
153,192,102107,1,0,0:0:0:100:SYNTH628-106.ogg
256,192,102214,1,0,0:0:0:100:SYNTH628-107.ogg
358,192,102321,1,0,0:0:0:100:SYNTH628-108.ogg
51,192,102428,1,0,0:0:0:100:SYNTH527.ogg
256,192,102535,1,0,0:0:0:100:SYNTH628-109.ogg
358,192,102642,1,0,0:0:0:100:SYNTH628-110.ogg
460,192,102750,1,0,0:0:0:100:SYNTH628-111.ogg
51,192,102857,1,0,0:0:0:100:SYNTH527.ogg
153,192,102857,1,0,0:0:0:100:SYNTH628-112.ogg
358,192,102964,1,0,0:0:0:100:SYNTH628-113.ogg
153,192,103071,1,0,0:0:0:100:SYNTH628-114.ogg
358,192,103178,1,0,0:0:0:100:SYNTH628-115.ogg
51,192,103285,1,0,0:0:0:100:SYNTH527.ogg
256,192,103285,1,0,0:0:0:100:SYNTH628-116.ogg
460,192,103392,1,0,0:0:0:100:SYNTH628-117.ogg
256,192,103500,1,0,0:0:0:100:SYNTH628-118.ogg
460,192,103607,1,0,0:0:0:100:SYNTH628-119.ogg
51,192,103714,1,0,0:0:0:100:SYNTH527.ogg
153,192,103714,1,0,0:0:0:100:SYNTH628-120.ogg
358,192,103821,1,0,0:0:0:100:SYNTH628-121.ogg
256,192,103928,1,0,0:0:0:100:SYNTH628-122.ogg
460,192,104035,1,0,0:0:0:100:SYNTH628-123.ogg
51,192,104142,1,0,0:0:0:100:SYNTH527.ogg
153,192,104142,1,0,0:0:0:100:SYNTH628-124.ogg
358,192,104250,1,0,0:0:0:100:SYNTH628-125.ogg
460,192,104535,1,0,0:0:0:100:ENDING CHO 1 05.ogg
51,192,104571,1,0,0:0:0:100:CYMREVERSE04.ogg
256,192,104964,1,0,0:0:0:100:ENDING CHO 1 05-01.ogg
460,192,105392,1,0,0:0:0:100:ENDING CHO 1 05-02.ogg
