osu file format v12

[General]
AudioFilename: iwantyou bgm.mp3
AudioLeadIn: 0
PreviewTime: 49714
Countdown: 0
SampleSet: Soft
StackLeniency: 0.4
Mode: 3
LetterboxInBreaks: 0
SpecialStyle: 0
WidescreenStoryboard: 0

[Editor]
DistanceSpacing: 1.1
BeatDivisor: 4
GridSize: 8

[Metadata]
Title:I Want You
TitleUnicode:I Want You
Artist:Lin-G
ArtistUnicode:Lin-G
Creator:diamdiam
Version:4K HD
Source:DJMAX
Tags:xeon clazziquai_edition black_square trilogy technika
BeatmapID:321187
BeatmapSetID:114750

[Difficulty]
HPDrainRate:8
CircleSize:4
OverallDifficulty:8
ApproachRate:7
SliderMultiplier:0.4
SliderTickRate:1

[Events]
//Background and Video events
0,0,"iwantyou nm.jpg",0,0
Video,1607,"iwantyou.avi"
//Break Periods
//Storyboard Layer 0 (Background)
//Storyboard Layer 1 (Fail)
//Storyboard Layer 2 (Pass)
//Storyboard Layer 3 (Foreground)
//Storyboard Sound Samples
Sample,8571,0,"HIHAT01.ogg",50
Sample,9000,0,"HIHAT01.ogg",50
Sample,9428,0,"HIHAT01.ogg",50
Sample,9857,0,"HIHAT01.ogg",50
Sample,10285,0,"HIHAT01.ogg",50
Sample,10714,0,"HIHAT01.ogg",50
Sample,11142,0,"HIHAT01.ogg",50
Sample,11571,0,"HIHAT01.ogg",50
Sample,12000,0,"HIHAT01.ogg",50
Sample,12428,0,"HIHAT01.ogg",50
Sample,12857,0,"HIHAT01.ogg",50
Sample,13285,0,"HIHAT01.ogg",50
Sample,13714,0,"HIHAT01.ogg",50
Sample,14142,0,"HIHAT01.ogg",50
Sample,14571,0,"HIHAT01.ogg",50
Sample,15000,0,"HIHAT01.ogg",50
Sample,15000,0,"SNARE22.ogg",50
Sample,15214,0,"HIHAT01-01.ogg",50
Sample,15428,0,"HIHAT01.ogg",50
Sample,15857,0,"HIHAT01.ogg",50
Sample,15857,0,"SNARE22.ogg",50
Sample,16285,0,"HIHAT01.ogg",50
Sample,16714,0,"HIHAT01.ogg",50
Sample,16714,0,"SNARE22.ogg",50
Sample,17142,0,"HIHAT01.ogg",50
Sample,17571,0,"HIHAT01.ogg",50
Sample,17571,0,"SNARE22.ogg",50
Sample,18000,0,"HIHAT01.ogg",50
Sample,18428,0,"HIHAT01.ogg",50
Sample,18428,0,"SNARE22.ogg",50
Sample,18857,0,"HIHAT01.ogg",50
Sample,19285,0,"HIHAT01.ogg",50
Sample,19285,0,"SNARE22.ogg",50
Sample,19714,0,"HIHAT01.ogg",50
Sample,20142,0,"HIHAT01.ogg",50
Sample,20142,0,"SNARE22.ogg",50
Sample,20571,0,"HIHAT01.ogg",50
Sample,21000,0,"HIHAT01.ogg",50
Sample,21000,0,"SNARE22.ogg",50
Sample,21428,0,"HIHAT01.ogg",50
Sample,22285,0,"HIHAT01-17.ogg",50
Sample,23142,0,"HIHAT01-21.ogg",50
Sample,23785,0,"HIHAT01-24.ogg",50
Sample,24000,0,"HIHAT01-17.ogg",50
Sample,24857,0,"HIHAT01-21.ogg",50
Sample,25285,0,"HIHAT01-23.ogg",50
Sample,25285,0,"KICK12.ogg",50
Sample,25714,0,"HIHAT01-17.ogg",50
Sample,26571,0,"HIHAT01-21.ogg",50
Sample,27214,0,"HIHAT01-24.ogg",50
Sample,28071,0,"HIHAT01-20.ogg",50
Sample,28285,0,"HIHAT01-21.ogg",50
Sample,28500,0,"HIHAT01-22.ogg",50
Sample,28714,0,"HIHAT01-23.ogg",50
Sample,28928,0,"HIHAT01-24.ogg",50
Sample,28928,0,"PIANO17-42.ogg",50
Sample,29142,0,"KICK12.ogg",50
Sample,29571,0,"SNARE22-01.ogg",50
Sample,29571,0,"KICK12.ogg",50
Sample,30000,0,"KICK12.ogg",50
Sample,30428,0,"KICK12.ogg",50
Sample,30428,0,"SNARE22-01.ogg",50
Sample,30857,0,"KICK12.ogg",50
Sample,31285,0,"KICK12.ogg",50
Sample,31285,0,"SNARE22-01.ogg",50
Sample,31714,0,"KICK12.ogg",50
Sample,31928,0,"KICK12.ogg",50
Sample,32142,0,"KICK12.ogg",50
Sample,32142,0,"SNARE22-01.ogg",50
Sample,32142,0,"HIHAT01-23.ogg",50
Sample,32357,0,"SNARE22-01.ogg",50
Sample,32357,0,"HIHAT01-24.ogg",50
Sample,32571,0,"KICK12.ogg",50
Sample,33000,0,"KICK12.ogg",50
Sample,33000,0,"SNARE22-01.ogg",50
Sample,33428,0,"KICK12.ogg",50
Sample,33857,0,"KICK12.ogg",50
Sample,33857,0,"SNARE22-01.ogg",50
Sample,34285,0,"HIHAT01-17.ogg",50
Sample,34714,0,"HIHAT01-19.ogg",50
Sample,35142,0,"HIHAT01-21.ogg",50
Sample,35571,0,"HIHAT01-17.ogg",50
Sample,35571,0,"KICK12.ogg",50
Sample,36000,0,"HIHAT01-17.ogg",50
Sample,36428,0,"HIHAT01-19.ogg",50
Sample,36857,0,"HIHAT01-21.ogg",50
Sample,37285,0,"HIHAT01-23.ogg",50
Sample,37714,0,"HIHAT01-17.ogg",50
Sample,38142,0,"HIHAT01-19.ogg",50
Sample,38571,0,"HIHAT01-21.ogg",50
Sample,39000,0,"HIHAT01-23.ogg",50
Sample,39428,0,"HIHAT01-17.ogg",50
Sample,39857,0,"HIHAT01-19.ogg",50
Sample,40285,0,"HIHAT01-21.ogg",50
Sample,40714,0,"HIHAT01-23.ogg",50
Sample,41142,0,"HIHAT01-17.ogg",50
Sample,41571,0,"HIHAT01-19.ogg",50
Sample,42000,0,"HIHAT01-21.ogg",50
Sample,42428,0,"HIHAT01-23.ogg",50
Sample,45857,0,"HIHAT01-23.ogg",50
Sample,46285,0,"KICK12.ogg",50
Sample,46714,0,"KICK12.ogg",50
Sample,46714,0,"SNARE22-01.ogg",50
Sample,47142,0,"KICK12.ogg",50
Sample,47571,0,"KICK12.ogg",50
Sample,47571,0,"SNARE22-01.ogg",50
Sample,48000,0,"HIHAT01-17.ogg",50
Sample,48000,0,"KICK12.ogg",50
Sample,48428,0,"HIHAT01-19.ogg",50
Sample,48428,0,"KICK12.ogg",50
Sample,48428,0,"SNARE22-01.ogg",50
Sample,48857,0,"KICK12.ogg",50
Sample,48857,0,"HIHAT01-21.ogg",50
Sample,49285,0,"HIHAT01-23.ogg",50
Sample,49285,0,"KICK12.ogg",50
Sample,49285,0,"SNARE22-01.ogg",50
Sample,49500,0,"HIHAT01-24.ogg",50
Sample,49500,0,"KICK12.ogg",50
Sample,49714,0,"CYMREVERSE04-01.ogg",50
Sample,49714,0,"KICK12.ogg",50
Sample,50142,0,"SNARE22-01.ogg",50
Sample,50142,0,"KICK12.ogg",50
Sample,50571,0,"KICK12.ogg",50
Sample,51000,0,"KICK12.ogg",50
Sample,51428,0,"KICK12.ogg",50
Sample,51857,0,"KICK12.ogg",50
Sample,52285,0,"KICK12.ogg",50
Sample,52500,0,"KICK12.ogg",50
Sample,52714,0,"KICK12.ogg",50
Sample,53035,0,"HIHAT01-16.ogg",50
Sample,53142,0,"KICK12.ogg",50
Sample,53571,0,"SNARE22-01.ogg",50
Sample,53571,0,"KICK12.ogg",50
Sample,54000,0,"KICK12.ogg",50
Sample,54428,0,"KICK12.ogg",50
Sample,54857,0,"KICK12.ogg",50
Sample,55285,0,"KICK12.ogg",50
Sample,55714,0,"KICK12.ogg",50
Sample,56142,0,"KICK12.ogg",50
Sample,56142,0,"SNARE22-01.ogg",50
Sample,56357,0,"HIHAT01-15.ogg",50
Sample,56464,0,"HIHAT01-16.ogg",50
Sample,56571,0,"SYNTH123-40.ogg",50
Sample,57000,0,"SYNTH123-41.ogg",50
Sample,57428,0,"SYNTH123-42.ogg",50
Sample,58071,0,"SYNTH123-43.ogg",50
Sample,58500,0,"SYNTH123-44.ogg",50
Sample,58928,0,"SYNTH123-45.ogg",50
Sample,59357,0,"SYNTH123-46.ogg",50
Sample,59571,0,"SYNTH123-47.ogg",50
Sample,59785,0,"SYNTH123-48.ogg",50
Sample,60000,0,"SYNTH123-49.ogg",50
Sample,60428,0,"SYNTH123-50.ogg",50
Sample,60857,0,"SYNTH123-51.ogg",50
Sample,61500,0,"SYNTH123-52.ogg",50
Sample,61928,0,"SYNTH123-53.ogg",50
Sample,62142,0,"SYNTH123-54.ogg",50
Sample,62357,0,"HIHAT01-08.ogg",50
Sample,62357,0,"SYNTH123-55.ogg",50
Sample,62464,0,"HIHAT01-09.ogg",50
Sample,62571,0,"HIHAT01-10.ogg",50
Sample,62678,0,"HIHAT01-11.ogg",50
Sample,62785,0,"HIHAT01-12.ogg",50
Sample,62892,0,"HIHAT01-13.ogg",50
Sample,63000,0,"HIHAT01-14.ogg",50
Sample,63214,0,"HIHAT01-15.ogg",50
Sample,63321,0,"HIHAT01-16.ogg",50
Sample,63428,0,"CYMREVERSE04.ogg",50
Sample,63428,0,"HIHAT01-03.ogg",50
Sample,63428,0,"SYNTH123.ogg",50
Sample,63535,0,"HIHAT01-04.ogg",50
Sample,63642,0,"HIHAT01-05.ogg",50
Sample,63750,0,"HIHAT01-06.ogg",50
Sample,63857,0,"HIHAT01-07.ogg",50
Sample,63857,0,"SYNTH123-01.ogg",50
Sample,64071,0,"HIHAT01-08.ogg",50
Sample,64178,0,"HIHAT01-09.ogg",50
Sample,64285,0,"HIHAT01-10.ogg",50
Sample,64285,0,"SYNTH123-24.ogg",50
Sample,64392,0,"HIHAT01-11.ogg",50
Sample,64500,0,"HIHAT01-12.ogg",50
Sample,64607,0,"HIHAT01-13.ogg",50
Sample,64714,0,"HIHAT01-14.ogg",50
Sample,64928,0,"HIHAT01-15.ogg",50
Sample,64928,0,"SYNTH123-25.ogg",50
Sample,65035,0,"HIHAT01-16.ogg",50
Sample,65142,0,"HIHAT01-03.ogg",50
Sample,65250,0,"HIHAT01-04.ogg",50
Sample,65357,0,"HIHAT01-05.ogg",50
Sample,65357,0,"SYNTH123-26.ogg",50
Sample,65464,0,"HIHAT01-06.ogg",50
Sample,65571,0,"HIHAT01-07.ogg",50
Sample,65785,0,"HIHAT01-08.ogg",50
Sample,65892,0,"HIHAT01-09.ogg",50
Sample,66000,0,"SYNTH123-27.ogg",50
Sample,66000,0,"HIHAT01-10.ogg",50
Sample,66107,0,"HIHAT01-11.ogg",50
Sample,66214,0,"HIHAT01-12.ogg",50
Sample,66321,0,"HIHAT01-13.ogg",50
Sample,66428,0,"SYNTH123-28.ogg",50
Sample,66428,0,"HIHAT01-14.ogg",50
Sample,66642,0,"SYNTH123-29.ogg",50
Sample,66642,0,"HIHAT01-15.ogg",50
Sample,66750,0,"HIHAT01-16.ogg",50
Sample,66857,0,"SYNTH123-30.ogg",50
Sample,66857,0,"HIHAT01-03.ogg",50
Sample,66964,0,"HIHAT01-04.ogg",50
Sample,67071,0,"HIHAT01-05.ogg",50
Sample,67178,0,"HIHAT01-06.ogg",50
Sample,67285,0,"HIHAT01-07.ogg",50
Sample,67285,0,"SYNTH123-31.ogg",50
Sample,67500,0,"HIHAT01-08.ogg",50
Sample,67607,0,"HIHAT01-09.ogg",50
Sample,67714,0,"SYNTH123-32.ogg",50
Sample,67714,0,"HIHAT01-10.ogg",50
Sample,67821,0,"HIHAT01-11.ogg",50
Sample,67928,0,"HIHAT01-12.ogg",50
Sample,68035,0,"HIHAT01-13.ogg",50
Sample,68142,0,"HIHAT01-14.ogg",50
Sample,68357,0,"SYNTH123-33.ogg",50
Sample,68357,0,"HIHAT01-15.ogg",50
Sample,68464,0,"HIHAT01-16.ogg",50
Sample,68571,0,"HIHAT01-03.ogg",50
Sample,68571,0,"KICK12.ogg",50
Sample,68678,0,"HIHAT01-04.ogg",50
Sample,68785,0,"SYNTH123-34.ogg",50
Sample,68785,0,"HIHAT01-05.ogg",50
Sample,68892,0,"HIHAT01-06.ogg",50
Sample,69000,0,"KICK12.ogg",50
Sample,69000,0,"SNARE22-01.ogg",50
Sample,69000,0,"HIHAT01-07.ogg",50
Sample,69214,0,"HIHAT01-08.ogg",50
Sample,69214,0,"SYNTH123-35.ogg",50
Sample,69321,0,"HIHAT01-09.ogg",50
Sample,69428,0,"KICK12.ogg",50
Sample,69428,0,"SYNTH123-36.ogg",50
Sample,69428,0,"HIHAT01-10.ogg",50
Sample,69535,0,"HIHAT01-11.ogg",50
Sample,69642,0,"HIHAT01-12.ogg",50
Sample,69642,0,"SYNTH123-37.ogg",50
Sample,69750,0,"HIHAT01-13.ogg",50
Sample,69750,0,"SYNTH123-38.ogg",50
Sample,69857,0,"HIHAT01-14.ogg",50
Sample,69857,0,"KICK12.ogg",50
Sample,69857,0,"SNARE22-01.ogg",50
Sample,70071,0,"HIHAT01-15.ogg",50
Sample,70071,0,"SYNTH123-39.ogg",50
Sample,70071,0,"KICK12.ogg",50
Sample,70071,0,"SNARE22-01.ogg",50
Sample,70178,0,"HIHAT01-16.ogg",50
Sample,70285,0,"CYMREVERSE04.ogg",50
Sample,70285,0,"SYNTH123-40.ogg",50
Sample,70285,0,"HIHAT01-03.ogg",50
Sample,70392,0,"HIHAT01-04.ogg",50
Sample,70500,0,"HIHAT01-05.ogg",50
Sample,70607,0,"HIHAT01-06.ogg",50
Sample,70714,0,"HIHAT01-07.ogg",50
Sample,70714,0,"SNARE22-01.ogg",50
Sample,70714,0,"SYNTH123-41.ogg",50
Sample,70928,0,"HIHAT01-08.ogg",50
Sample,71035,0,"HIHAT01-09.ogg",50
Sample,71142,0,"HIHAT01-10.ogg",50
Sample,71142,0,"SYNTH123-42.ogg",50
Sample,71250,0,"HIHAT01-11.ogg",50
Sample,71357,0,"HIHAT01-12.ogg",50
Sample,71464,0,"HIHAT01-13.ogg",50
Sample,71464,0,"SYNTH628-80.ogg",50
Sample,71571,0,"HIHAT01-14.ogg",50
Sample,71571,0,"SNARE22-01.ogg",50
Sample,71785,0,"SYNTH123-43.ogg",50
Sample,71785,0,"HIHAT01-15.ogg",50
Sample,71892,0,"HIHAT01-16.ogg",50
Sample,72000,0,"HIHAT01-03.ogg",50
Sample,72107,0,"HIHAT01-04.ogg",50
Sample,72107,0,"SYNTH628-86.ogg",50
Sample,72214,0,"HIHAT01-05.ogg",50
Sample,72214,0,"SYNTH123-44.ogg",50
Sample,72321,0,"HIHAT01-06.ogg",50
Sample,72428,0,"SNARE22-01.ogg",50
Sample,72428,0,"HIHAT01-07.ogg",50
Sample,72642,0,"HIHAT01-08.ogg",50
Sample,72642,0,"SYNTH123-45.ogg",50
Sample,72750,0,"HIHAT01-09.ogg",50
Sample,72750,0,"SYNTH628-92.ogg",50
Sample,72857,0,"HIHAT01-10.ogg",50
Sample,72964,0,"HIHAT01-11.ogg",50
Sample,73071,0,"HIHAT01-12.ogg",50
Sample,73071,0,"SYNTH123-46.ogg",50
Sample,73178,0,"HIHAT01-13.ogg",50
Sample,73285,0,"SYNTH123-47.ogg",50
Sample,73285,0,"SNARE22-01.ogg",50
Sample,73285,0,"HIHAT01-14.ogg",50
Sample,73500,0,"HIHAT01-15.ogg",50
Sample,73500,0,"SYNTH123-48.ogg",50
Sample,73607,0,"HIHAT01-16.ogg",50
Sample,73714,0,"SYNTH123-49.ogg",50
Sample,73714,0,"HIHAT01-03.ogg",50
Sample,73821,0,"HIHAT01-04.ogg",50
Sample,73928,0,"HIHAT01-05.ogg",50
Sample,74035,0,"HIHAT01-06.ogg",50
Sample,74142,0,"HIHAT01-07.ogg",50
Sample,74142,0,"SNARE22-01.ogg",50
Sample,74142,0,"SYNTH123-50.ogg",50
Sample,74357,0,"HIHAT01-08.ogg",50
Sample,74464,0,"HIHAT01-09.ogg",50
Sample,74571,0,"HIHAT01-10.ogg",50
Sample,74571,0,"SYNTH123-51.ogg",50
Sample,74678,0,"HIHAT01-11.ogg",50
Sample,74785,0,"HIHAT01-12.ogg",50
Sample,74892,0,"HIHAT01-13.ogg",50
Sample,75000,0,"SNARE22-01.ogg",50
Sample,75000,0,"HIHAT01-14.ogg",50
Sample,75214,0,"HIHAT01-15.ogg",50
Sample,75214,0,"SYNTH123-52.ogg",50
Sample,75321,0,"HIHAT01-16.ogg",50
Sample,75428,0,"HIHAT01-03.ogg",50
Sample,75535,0,"HIHAT01-04.ogg",50
Sample,75642,0,"SYNTH123-53.ogg",50
Sample,75642,0,"HIHAT01-05.ogg",50
Sample,75750,0,"HIHAT01-06.ogg",50
Sample,75857,0,"SYNTH123-54.ogg",50
Sample,75857,0,"SNARE22-01.ogg",50
Sample,75857,0,"HIHAT01-07.ogg",50
Sample,76071,0,"HIHAT01-08.ogg",50
Sample,76071,0,"SYNTH123-55.ogg",50
Sample,76178,0,"HIHAT01-09.ogg",50
Sample,76285,0,"HIHAT01-10.ogg",50
Sample,76392,0,"HIHAT01-11.ogg",50
Sample,76500,0,"HIHAT01-12.ogg",50
Sample,76607,0,"HIHAT01-13.ogg",50
Sample,76714,0,"SNARE22-01.ogg",50
Sample,76714,0,"HIHAT01-14.ogg",50
Sample,76928,0,"HIHAT01-15.ogg",50
Sample,77035,0,"HIHAT01-16.ogg",50
Sample,77142,0,"SYNTH426.ogg",50
Sample,77357,0,"SYNTH426-01.ogg",50
Sample,77678,0,"SYNTH426-27.ogg",50
Sample,77785,0,"SYNTH426-28.ogg",50
Sample,77892,0,"SYNTH426-29.ogg",50
Sample,78000,0,"SYNTH426-30.ogg",50
Sample,78107,0,"SYNTH426-31.ogg",50
Sample,78214,0,"SYNTH426-32.ogg",50
Sample,78535,0,"SYNTH426-33.ogg",50
Sample,78750,0,"SYNTH426-34.ogg",50
Sample,78857,0,"SYNTH426.ogg",50
Sample,79071,0,"SYNTH426-01.ogg",50
Sample,79392,0,"SYNTH426-27.ogg",50
Sample,79500,0,"SYNTH426-28.ogg",50
Sample,79607,0,"SYNTH426-29.ogg",50
Sample,79714,0,"SYNTH426-30.ogg",50
Sample,79821,0,"SYNTH426-31.ogg",50
Sample,79928,0,"SYNTH426-32.ogg",50
Sample,80250,0,"SYNTH426-33.ogg",50
Sample,80464,0,"SYNTH426-34.ogg",50
Sample,80571,0,"SYNTH426.ogg",50
Sample,80785,0,"SYNTH426-01.ogg",50
Sample,81107,0,"SYNTH426-27.ogg",50
Sample,81214,0,"SYNTH426-28.ogg",50
Sample,81321,0,"SYNTH426-29.ogg",50
Sample,81428,0,"SYNTH426-30.ogg",50
Sample,81535,0,"SYNTH426-31.ogg",50
Sample,81642,0,"SYNTH426-32.ogg",50
Sample,81964,0,"SYNTH426-33.ogg",50
Sample,82178,0,"SYNTH426-34.ogg",50
Sample,82285,0,"SYNTH426.ogg",50
Sample,82500,0,"SYNTH426-01.ogg",50
Sample,82821,0,"SYNTH426-27.ogg",50
Sample,82928,0,"SYNTH426-28.ogg",50
Sample,83035,0,"SYNTH426-29.ogg",50
Sample,83142,0,"SYNTH426-30.ogg",50
Sample,83250,0,"SYNTH426-31.ogg",50
Sample,83357,0,"SYNTH426-32.ogg",50
Sample,83678,0,"SYNTH426-33.ogg",50
Sample,83892,0,"SYNTH426-34.ogg",50
Sample,84000,0,"SYNTH325.ogg",50
Sample,84000,0,"CYMREVERSE04.ogg",50
Sample,84000,0,"RHYTHM421.ogg",50
Sample,84107,0,"SYNTH325-01.ogg",50
Sample,84214,0,"RHYTHM421-01.ogg",50
Sample,84321,0,"SYNTH527-28.ogg",50
Sample,84321,0,"SYNTH325-26.ogg",50
Sample,84428,0,"SYNTH325-27.ogg",50
Sample,84428,0,"RHYTHM421-22.ogg",50
Sample,84642,0,"RHYTHM421-23.ogg",50
Sample,84750,0,"SYNTH527-31.ogg",50
Sample,84750,0,"SYNTH325-28.ogg",50
Sample,84857,0,"RHYTHM421-24.ogg",50
Sample,85071,0,"SYNTH325-29.ogg",50
Sample,85071,0,"RHYTHM421-25.ogg",50
Sample,85178,0,"SYNTH527-28.ogg",50
Sample,85285,0,"SYNTH325-30.ogg",50
Sample,85285,0,"RHYTHM421-26.ogg",50
Sample,85392,0,"SYNTH325-31.ogg",50
Sample,85500,0,"SYNTH325-32.ogg",50
Sample,85500,0,"RHYTHM421-27.ogg",50
Sample,85607,0,"SYNTH527-31.ogg",50
Sample,85714,0,"SYNTH325.ogg",50
Sample,85714,0,"RHYTHM421-28.ogg",50
Sample,85821,0,"SYNTH325-01.ogg",50
Sample,85928,0,"SYNTH325-26.ogg",50
Sample,85928,0,"RHYTHM421-29.ogg",50
Sample,86035,0,"SYNTH527-28.ogg",50
Sample,86142,0,"RHYTHM421-30.ogg",50
Sample,86142,0,"SYNTH325-27.ogg",50
Sample,86357,0,"RHYTHM421-31.ogg",50
Sample,86464,0,"SYNTH527-31.ogg",50
Sample,86464,0,"RHYTHM421-32.ogg",50
Sample,86464,0,"SYNTH325-28.ogg",50
Sample,86571,0,"RHYTHM421-33.ogg",50
Sample,86785,0,"SYNTH325-29.ogg",50
Sample,86892,0,"SYNTH527-28.ogg",50
Sample,87000,0,"SYNTH325.ogg",50
Sample,87000,0,"RHYTHM421-35.ogg",50
Sample,87107,0,"SYNTH325-01.ogg",50
Sample,87214,0,"SYNTH325-28.ogg",50
Sample,87321,0,"SYNTH527-31.ogg",50
Sample,87428,0,"SYNTH325.ogg",50
Sample,87428,0,"SYNTH527.ogg",50
Sample,87535,0,"SYNTH325-01.ogg",50
Sample,87642,0,"SYNTH527-01.ogg",50
Sample,87750,0,"SYNTH325-26.ogg",50
Sample,87857,0,"SYNTH527-29.ogg",50
Sample,87857,0,"SYNTH325-27.ogg",50
Sample,88071,0,"SYNTH527-30.ogg",50
Sample,88178,0,"SYNTH325-28.ogg",50
Sample,88178,0,"SYNTH527-31.ogg",50
Sample,88285,0,"SYNTH527.ogg",50
Sample,88500,0,"SYNTH325-29.ogg",50
Sample,88500,0,"SYNTH527-01.ogg",50
Sample,88714,0,"SYNTH527-29.ogg",50
Sample,88714,0,"SYNTH325-30.ogg",50
Sample,88821,0,"SYNTH325-31.ogg",50
Sample,88928,0,"SYNTH527-30.ogg",50
Sample,88928,0,"SYNTH325-32.ogg",50
Sample,89035,0,"SYNTH527-31.ogg",50
Sample,89142,0,"SYNTH325.ogg",50
Sample,89142,0,"SYNTH527.ogg",50
Sample,89250,0,"SYNTH325-01.ogg",50
Sample,89357,0,"SYNTH527-01.ogg",50
Sample,89357,0,"SYNTH325-26.ogg",50
Sample,89571,0,"SYNTH325-27.ogg",50
Sample,89571,0,"SYNTH527-29.ogg",50
Sample,89785,0,"SYNTH527-30.ogg",50
Sample,89892,0,"SYNTH325-28.ogg",50
Sample,89892,0,"SYNTH527-31.ogg",50
Sample,89892,0,"RHYTHM421-32.ogg",50
Sample,90000,0,"SYNTH527.ogg",50
Sample,90214,0,"SYNTH527-01.ogg",50
Sample,90214,0,"SYNTH325-29.ogg",50
Sample,90428,0,"SYNTH325.ogg",50
Sample,90428,0,"SYNTH527-29.ogg",50
Sample,90535,0,"SYNTH325-01.ogg",50
Sample,90642,0,"SYNTH527-30.ogg",50
Sample,90642,0,"SYNTH325-28.ogg",50
Sample,90750,0,"SYNTH527-31.ogg",50
Sample,90857,0,"HIHAT01-03.ogg",50
Sample,90964,0,"HIHAT01-04.ogg",50
Sample,91071,0,"HIHAT01-05.ogg",50
Sample,91178,0,"HIHAT01-06.ogg",50
Sample,91285,0,"HIHAT01-07.ogg",50
Sample,91285,0,"SNARE22-01.ogg",50
Sample,91500,0,"HIHAT01-08.ogg",50
Sample,91607,0,"HIHAT01-09.ogg",50
Sample,91714,0,"HIHAT01-10.ogg",50
Sample,91821,0,"HIHAT01-11.ogg",50
Sample,91928,0,"HIHAT01-12.ogg",50
Sample,92035,0,"HIHAT01-13.ogg",50
Sample,92142,0,"HIHAT01-14.ogg",50
Sample,92142,0,"SNARE22-01.ogg",50
Sample,92357,0,"HIHAT01-15.ogg",50
Sample,92464,0,"HIHAT01-16.ogg",50
Sample,92571,0,"HIHAT01-03.ogg",50
Sample,92678,0,"HIHAT01-04.ogg",50
Sample,92785,0,"HIHAT01-05.ogg",50
Sample,92892,0,"HIHAT01-06.ogg",50
Sample,93000,0,"HIHAT01-07.ogg",50
Sample,93000,0,"SNARE22-01.ogg",50
Sample,93214,0,"HIHAT01-08.ogg",50
Sample,93321,0,"HIHAT01-09.ogg",50
Sample,93428,0,"HIHAT01-10.ogg",50
Sample,93535,0,"HIHAT01-11.ogg",50
Sample,93642,0,"HIHAT01-12.ogg",50
Sample,93750,0,"HIHAT01-13.ogg",50
Sample,93857,0,"SNARE22-01.ogg",50
Sample,93857,0,"HIHAT01-14.ogg",50
Sample,94071,0,"SNARE22-01.ogg",50
Sample,94071,0,"HIHAT01-15.ogg",50
Sample,94178,0,"HIHAT01-16.ogg",50
Sample,94285,0,"HIHAT01-03.ogg",50
Sample,94392,0,"HIHAT01-04.ogg",50
Sample,94500,0,"HIHAT01-05.ogg",50
Sample,94607,0,"HIHAT01-06.ogg",50
Sample,94714,0,"SNARE22-01.ogg",50
Sample,94714,0,"HIHAT01-07.ogg",50
Sample,94928,0,"HIHAT01-08.ogg",50
Sample,95035,0,"HIHAT01-09.ogg",50
Sample,95142,0,"HIHAT01-10.ogg",50
Sample,95250,0,"HIHAT01-11.ogg",50
Sample,95357,0,"HIHAT01-12.ogg",50
Sample,95464,0,"HIHAT01-13.ogg",50
Sample,95571,0,"HIHAT01-14.ogg",50
Sample,95571,0,"SNARE22-01.ogg",50
Sample,95785,0,"HIHAT01-15.ogg",50
Sample,95892,0,"HIHAT01-16.ogg",50
Sample,96000,0,"HIHAT01-03.ogg",50
Sample,96107,0,"HIHAT01-04.ogg",50
Sample,96214,0,"HIHAT01-05.ogg",50
Sample,96321,0,"HIHAT01-06.ogg",50
Sample,96428,0,"SNARE22-01.ogg",50
Sample,96428,0,"HIHAT01-07.ogg",50
Sample,96642,0,"HIHAT01-08.ogg",50
Sample,96750,0,"HIHAT01-09.ogg",50
Sample,96857,0,"HIHAT01-10.ogg",50
Sample,96964,0,"HIHAT01-11.ogg",50
Sample,97071,0,"HIHAT01-12.ogg",50
Sample,97178,0,"HIHAT01-13.ogg",50
Sample,97285,0,"HIHAT01-14.ogg",50
Sample,97285,0,"SNARE22-01.ogg",50
Sample,97500,0,"HIHAT01-15.ogg",50
Sample,97500,0,"SNARE22-01.ogg",50
Sample,97607,0,"HIHAT01-16.ogg",50
Sample,97714,0,"SYNTH628-130.ogg",50
Sample,98142,0,"SNARE22-01.ogg",50
Sample,98142,0,"KICK12.ogg",50
Sample,98571,0,"KICK12.ogg",50
Sample,99000,0,"SNARE22-01.ogg",50
Sample,99000,0,"KICK12.ogg",50
Sample,99428,0,"KICK12.ogg",50
Sample,99428,0,"SYNTH628-131.ogg",50
Sample,99857,0,"SNARE22-01.ogg",50
Sample,99857,0,"KICK12.ogg",50
Sample,100285,0,"KICK12.ogg",50
Sample,100500,0,"KICK12.ogg",50
Sample,100714,0,"SNARE22-01.ogg",50
Sample,100714,0,"KICK12.ogg",50
Sample,101142,0,"KICK12.ogg",50
Sample,101142,0,"SYNTH628-132.ogg",50
Sample,101571,0,"SNARE22-01.ogg",50
Sample,101571,0,"KICK12.ogg",50
Sample,102000,0,"KICK12.ogg",50
Sample,102428,0,"SNARE22-01.ogg",50
Sample,102428,0,"KICK12.ogg",50
Sample,102857,0,"KICK12.ogg",50
Sample,102857,0,"SYNTH628-133.ogg",50
Sample,103285,0,"KICK12.ogg",50
Sample,103285,0,"SNARE22-01.ogg",50
Sample,103714,0,"KICK12.ogg",50
Sample,103714,0,"SYNTH628-134.ogg",50
Sample,104142,0,"SNARE22-01.ogg",50
Sample,104142,0,"KICK12.ogg",50
Sample,104357,0,"KICK12.ogg",50
//Background Colour Transformations
3,100,163,162,255

[TimingPoints]
0,428.571428571429,4,2,0,100,1,0
49714,-100,4,2,0,100,0,1
63214,-100,4,2,0,100,0,0
63428,-100,4,2,0,100,0,1
77142,-100,4,2,0,100,0,0
90857,-100,4,2,0,100,0,1
104571,-100,4,2,0,100,0,0

[HitObjects]
448,192,1714,128,0,2571:0:0:0:100:INTRO11.ogg
64,192,2571,128,0,3428:0:0:0:100:INTRO11-01.ogg
448,192,3428,128,0,4285:0:0:0:100:INTRO11-12.ogg
192,192,4285,128,0,5142:0:0:0:100:INTRO11-13.ogg
448,192,5142,128,0,6000:0:0:0:100:INTRO11-14.ogg
64,192,6000,128,0,7285:0:0:0:100:INTRO11-15.ogg
192,192,6428,128,0,7285:0:0:0:100:INTRO11-16.ogg
320,192,6857,128,0,7285:0:0:0:100:INTRO11-17.ogg
320,192,8142,128,0,8571:0:0:0:100:BASS01.ogg
64,192,8571,1,0,0:0:0:100:KICK12.ogg
448,192,8571,1,0,0:0:0:100:PIANO17.ogg
448,192,8785,1,0,0:0:0:100:HIHAT01-01.ogg
64,192,9000,1,0,0:0:0:100:KICK12.ogg
320,192,9000,1,0,0:0:0:100:SNARE22.ogg
192,192,9214,1,0,0:0:0:100:PIANO17-01.ogg
448,192,9214,1,0,0:0:0:100:HIHAT01-01.ogg
64,192,9428,1,0,0:0:0:100:KICK12.ogg
448,192,9642,1,0,0:0:0:100:HIHAT01-01.ogg
64,192,9857,1,0,0:0:0:100:KICK12.ogg
320,192,9857,1,0,0:0:0:100:SNARE22.ogg
192,192,10071,1,0,0:0:0:100:PIANO17-18.ogg
448,192,10071,1,0,0:0:0:100:HIHAT01-01.ogg
64,192,10285,1,0,0:0:0:100:KICK12.ogg
448,192,10500,1,0,0:0:0:100:HIHAT01-01.ogg
64,192,10714,1,0,0:0:0:100:KICK12.ogg
320,192,10714,1,0,0:0:0:100:SNARE22.ogg
448,192,10928,1,0,0:0:0:100:HIHAT01-01.ogg
64,192,11142,1,0,0:0:0:100:KICK12.ogg
192,192,11357,1,0,0:0:0:100:KICK12.ogg
448,192,11357,1,0,0:0:0:100:HIHAT01-01.ogg
64,192,11571,1,0,0:0:0:100:KICK12.ogg
320,192,11571,1,0,0:0:0:100:SNARE22.ogg
448,192,11785,1,0,0:0:0:100:HIHAT01-01.ogg
192,192,12000,1,0,0:0:0:100:PIANO17-19.ogg
448,192,12000,1,0,0:0:0:100:KICK12.ogg
64,192,12214,1,0,0:0:0:100:HIHAT01-01.ogg
192,192,12428,1,0,0:0:0:100:SNARE22.ogg
448,192,12428,1,0,0:0:0:100:KICK12.ogg
64,192,12642,1,0,0:0:0:100:HIHAT01-01.ogg
320,192,12642,1,0,0:0:0:100:PIANO17-20.ogg
448,192,12857,1,0,0:0:0:100:KICK12.ogg
64,192,13071,1,0,0:0:0:100:HIHAT01-01.ogg
192,192,13285,1,0,0:0:0:100:SNARE22.ogg
448,192,13285,1,0,0:0:0:100:KICK12.ogg
64,192,13500,1,0,0:0:0:100:HIHAT01-01.ogg
320,192,13500,1,0,0:0:0:100:PIANO17-21.ogg
448,192,13714,1,0,0:0:0:100:KICK12.ogg
320,192,13928,1,0,0:0:0:100:HIHAT01-01.ogg
192,192,14142,1,0,0:0:0:100:SNARE22.ogg
448,192,14142,1,0,0:0:0:100:KICK12.ogg
320,192,14357,1,0,0:0:0:100:HIHAT01-01.ogg
64,192,14571,1,0,0:0:0:100:PIANO17-22.ogg
448,192,14571,1,0,0:0:0:100:KICK12.ogg
320,192,14785,1,0,0:0:0:100:HIHAT01-01.ogg
192,192,15000,1,0,0:0:0:100:PIANO17-23.ogg
448,192,15000,1,0,0:0:0:100:KICK12.ogg
64,192,15214,1,0,0:0:0:100:PIANO17-24.ogg
320,192,15214,1,0,0:0:0:100:KICK12.ogg
192,192,15428,128,0,15857:0:0:0:100:PIANO17-25.ogg
448,192,15428,1,0,0:0:0:100:KICK12.ogg
320,192,15642,1,0,0:0:0:100:HIHAT01-01.ogg
448,192,15857,1,0,0:0:0:100:KICK12.ogg
64,192,16071,128,0,16714:0:0:0:100:PIANO17-26.ogg
320,192,16071,1,0,0:0:0:100:HIHAT01-01.ogg
448,192,16285,1,0,0:0:0:100:KICK12.ogg
320,192,16500,1,0,0:0:0:100:HIHAT01-01.ogg
448,192,16714,1,0,0:0:0:100:KICK12.ogg
192,192,16928,128,0,18428:0:0:0:100:PIANO17-27.ogg
448,192,16928,1,0,0:0:0:100:HIHAT01-01.ogg
64,192,17142,1,0,0:0:0:100:KICK12.ogg
448,192,17357,1,0,0:0:0:100:HIHAT01-01.ogg
64,192,17571,1,0,0:0:0:100:KICK12.ogg
448,192,17785,1,0,0:0:0:100:HIHAT01-01.ogg
64,192,18000,1,0,0:0:0:100:KICK12.ogg
320,192,18214,1,0,0:0:0:100:KICK12.ogg
448,192,18214,1,0,0:0:0:100:HIHAT01-01.ogg
64,192,18428,1,0,0:0:0:100:KICK12.ogg
192,192,18642,1,0,0:0:0:100:PIANO17-28.ogg
320,192,18642,1,0,0:0:0:100:HIHAT01-01.ogg
64,192,18857,1,0,0:0:0:100:KICK12.ogg
448,192,18857,128,0,19285:0:0:0:100:PIANO17-29.ogg
192,192,19071,1,0,0:0:0:100:HIHAT01-01.ogg
64,192,19285,1,0,0:0:0:100:KICK12.ogg
192,192,19500,1,0,0:0:0:100:HIHAT01-01.ogg
320,192,19500,128,0,20142:0:0:0:100:PIANO17-30.ogg
64,192,19714,1,0,0:0:0:100:KICK12.ogg
192,192,19928,1,0,0:0:0:100:HIHAT01-01.ogg
64,192,20142,1,0,0:0:0:100:KICK12.ogg
192,192,20357,1,0,0:0:0:100:HIHAT01-01.ogg
448,192,20357,128,0,21428:0:0:0:100:PIANO17-31.ogg
64,192,20571,1,0,0:0:0:100:KICK12.ogg
192,192,20785,1,0,0:0:0:100:HIHAT01-01.ogg
64,192,21000,1,0,0:0:0:100:KICK12.ogg
192,192,21214,1,0,0:0:0:100:HIHAT01-01.ogg
64,192,21428,1,0,0:0:0:100:KICK12.ogg
192,192,21642,1,0,0:0:0:100:HIHAT01-01.ogg
320,192,21857,1,0,0:0:0:100:HIHAT01.ogg
448,192,22071,1,0,0:0:0:100:HIHAT01-01.ogg
64,192,22285,1,0,0:0:0:100:KICK12.ogg
448,192,22285,1,0,0:0:0:100:PIANO17-32.ogg
192,192,22500,1,0,0:0:0:100:HIHAT01-18.ogg
64,192,22714,1,0,0:0:0:100:KICK12.ogg
320,192,22714,1,0,0:0:0:100:HIHAT01-19.ogg
448,192,22714,1,0,0:0:0:100:SNARE22-01.ogg
192,192,22928,1,0,0:0:0:100:HIHAT01-20.ogg
64,192,23142,1,0,0:0:0:100:KICK12.ogg
448,192,23142,1,0,0:0:0:100:PIANO17-33.ogg
192,192,23357,1,0,0:0:0:100:HIHAT01-22.ogg
64,192,23571,1,0,0:0:0:100:KICK12.ogg
320,192,23571,1,0,0:0:0:100:HIHAT01-23.ogg
448,192,23571,1,0,0:0:0:100:SNARE22-01.ogg
192,192,23785,1,0,0:0:0:100:PIANO17-34.ogg
64,192,24000,1,0,0:0:0:100:KICK12.ogg
320,192,24214,1,0,0:0:0:100:HIHAT01-18.ogg
64,192,24428,1,0,0:0:0:100:KICK12.ogg
192,192,24428,1,0,0:0:0:100:HIHAT01-19.ogg
448,192,24428,1,0,0:0:0:100:SNARE22-01.ogg
320,192,24642,1,0,0:0:0:100:HIHAT01-20.ogg
64,192,24857,1,0,0:0:0:100:KICK12.ogg
192,192,25071,1,0,0:0:0:100:KICK12.ogg
448,192,25071,1,0,0:0:0:100:HIHAT01-22.ogg
64,192,25285,1,0,0:0:0:100:PIANO17-35.ogg
320,192,25285,1,0,0:0:0:100:SNARE22-01.ogg
192,192,25500,1,0,0:0:0:100:HIHAT01-24.ogg
448,192,25500,1,0,0:0:0:100:SNARE22-01.ogg
64,192,25714,1,0,0:0:0:100:KICK12.ogg
448,192,25714,1,0,0:0:0:100:PIANO17-36.ogg
192,192,25928,1,0,0:0:0:100:HIHAT01-18.ogg
64,192,26142,1,0,0:0:0:100:KICK12.ogg
320,192,26142,1,0,0:0:0:100:HIHAT01-19.ogg
448,192,26142,1,0,0:0:0:100:SNARE22-01.ogg
192,192,26357,1,0,0:0:0:100:HIHAT01-20.ogg
64,192,26571,1,0,0:0:0:100:KICK12.ogg
448,192,26571,1,0,0:0:0:100:PIANO17-37.ogg
192,192,26785,1,0,0:0:0:100:HIHAT01-22.ogg
64,192,27000,1,0,0:0:0:100:KICK12.ogg
320,192,27000,1,0,0:0:0:100:HIHAT01-23.ogg
448,192,27000,1,0,0:0:0:100:SNARE22-01.ogg
192,192,27214,1,0,0:0:0:100:PIANO17-38.ogg
64,192,27428,1,0,0:0:0:100:KICK12.ogg
448,192,27428,1,0,0:0:0:100:HIHAT01-17.ogg
192,192,27642,1,0,0:0:0:100:HIHAT01-18.ogg
64,192,27857,1,0,0:0:0:100:KICK12.ogg
320,192,27857,1,0,0:0:0:100:HIHAT01-19.ogg
448,192,27857,1,0,0:0:0:100:SNARE22-01.ogg
192,192,28071,1,0,0:0:0:100:PIANO17-39.ogg
64,192,28285,1,0,0:0:0:100:KICK12.ogg
320,192,28285,1,0,0:0:0:100:PIANO17-40.ogg
192,192,28500,1,0,0:0:0:100:PIANO17-41.ogg
448,192,28500,1,0,0:0:0:100:SNARE22-01.ogg
64,192,28714,1,0,0:0:0:100:KICK12.ogg
320,192,28714,1,0,0:0:0:100:SNARE22-23.ogg
192,192,28928,1,0,0:0:0:100:KICK12.ogg
448,192,28928,1,0,0:0:0:100:SNARE22-01.ogg
448,192,29035,1,0,0:0:0:100:SNARE22-01.ogg
64,192,29142,128,0,29785:0:0:0:100:PIANO17-43.ogg
320,192,29142,1,0,0:0:0:100:HIHAT01-17.ogg
192,192,29357,1,0,0:0:0:100:HIHAT01-18.ogg
448,192,29571,1,0,0:0:0:100:HIHAT01-19.ogg
320,192,29785,1,0,0:0:0:100:HIHAT01-20.ogg
64,192,30000,1,0,0:0:0:100:HIHAT01-21.ogg
448,192,30000,128,0,30428:0:0:0:100:PIANO17-44.ogg
320,192,30214,1,0,0:0:0:100:HIHAT01-22.ogg
192,192,30428,1,0,0:0:0:100:HIHAT01-23.ogg
64,192,30642,128,0,31500:0:0:0:100:PIANO17-45.ogg
320,192,30642,1,0,0:0:0:100:HIHAT01-24.ogg
192,192,30857,1,0,0:0:0:100:HIHAT01-17.ogg
320,192,31071,1,0,0:0:0:100:HIHAT01-18.ogg
448,192,31285,1,0,0:0:0:100:HIHAT01-19.ogg
320,192,31500,1,0,0:0:0:100:HIHAT01-20.ogg
192,192,31714,1,0,0:0:0:100:HIHAT01-21.ogg
448,192,31714,128,0,32142:0:0:0:100:PIANO17-46.ogg
64,192,31928,1,0,0:0:0:100:HIHAT01-22.ogg
320,192,32142,128,0,32357:0:0:0:100:PIANO17-47.ogg
192,192,32357,128,0,32571:0:0:0:100:PIANO17-48.ogg
64,192,32571,1,0,0:0:0:100:HIHAT01-17.ogg
448,192,32571,128,0,33214:0:0:0:100:PIANO17-49.ogg
320,192,32785,1,0,0:0:0:100:HIHAT01-18.ogg
64,192,33000,1,0,0:0:0:100:HIHAT01-19.ogg
320,192,33214,1,0,0:0:0:100:HIHAT01-20.ogg
64,192,33428,128,0,33857:0:0:0:100:PIANO17-50.ogg
192,192,33428,1,0,0:0:0:100:HIHAT01-21.ogg
448,192,33642,1,0,0:0:0:100:HIHAT01-22.ogg
320,192,33857,1,0,0:0:0:100:HIHAT01-23.ogg
192,192,34071,1,0,0:0:0:100:HIHAT01-24.ogg
448,192,34071,128,0,35357:0:0:0:100:PIANO17-51.ogg
64,192,34285,1,0,0:0:0:100:KICK12.ogg
320,192,34500,1,0,0:0:0:100:HIHAT01-18.ogg
64,192,34714,1,0,0:0:0:100:KICK12.ogg
192,192,34714,1,0,0:0:0:100:SNARE22-01.ogg
320,192,34928,1,0,0:0:0:100:HIHAT01-20.ogg
64,192,35142,1,0,0:0:0:100:KICK12.ogg
320,192,35357,1,0,0:0:0:100:HIHAT01-22.ogg
64,192,35571,1,0,0:0:0:100:SNARE22-23.ogg
192,192,35625,1,0,0:0:0:100:SNARE22-24.ogg
320,192,35678,1,0,0:0:0:100:SNARE22-25.ogg
448,192,35732,1,0,0:0:0:100:SNARE22-26.ogg
64,192,35785,1,0,0:0:0:100:SNARE22-27.ogg
192,192,35892,1,0,0:0:0:100:SNARE22-28.ogg
320,192,36000,1,0,0:0:0:100:CYMREVERSE04-01.ogg
448,192,36000,1,0,0:0:0:100:KICK12.ogg
64,192,36214,1,0,0:0:0:100:HIHAT01-18.ogg
192,192,36428,1,0,0:0:0:100:SNARE22-01.ogg
448,192,36428,1,0,0:0:0:100:KICK12.ogg
64,192,36642,1,0,0:0:0:100:HIHAT01-20.ogg
448,192,36857,1,0,0:0:0:100:KICK12.ogg
64,192,37071,1,0,0:0:0:100:HIHAT01-22.ogg
192,192,37285,1,0,0:0:0:100:SNARE22-01.ogg
448,192,37285,1,0,0:0:0:100:KICK12.ogg
64,192,37500,1,0,0:0:0:100:HIHAT01-24.ogg
448,192,37714,1,0,0:0:0:100:KICK12.ogg
64,192,37928,1,0,0:0:0:100:HIHAT01-18.ogg
192,192,38142,1,0,0:0:0:100:SNARE22-01.ogg
448,192,38142,1,0,0:0:0:100:KICK12.ogg
64,192,38357,1,0,0:0:0:100:HIHAT01-20.ogg
448,192,38571,1,0,0:0:0:100:KICK12.ogg
64,192,38785,1,0,0:0:0:100:HIHAT01-22.ogg
448,192,38785,1,0,0:0:0:100:KICK12.ogg
192,192,39000,1,0,0:0:0:100:SNARE22-01.ogg
448,192,39000,1,0,0:0:0:100:KICK12.ogg
64,192,39214,1,0,0:0:0:100:HIHAT01-24.ogg
64,192,39428,1,0,0:0:0:100:KICK12.ogg
448,192,39642,1,0,0:0:0:100:HIHAT01-18.ogg
64,192,39857,1,0,0:0:0:100:KICK12.ogg
320,192,39857,1,0,0:0:0:100:SNARE22-01.ogg
448,192,40071,1,0,0:0:0:100:HIHAT01-20.ogg
64,192,40285,1,0,0:0:0:100:KICK12.ogg
448,192,40500,1,0,0:0:0:100:HIHAT01-22.ogg
64,192,40714,1,0,0:0:0:100:KICK12.ogg
320,192,40714,1,0,0:0:0:100:SNARE22-01.ogg
448,192,40928,1,0,0:0:0:100:HIHAT01-24.ogg
64,192,41142,1,0,0:0:0:100:KICK12.ogg
448,192,41357,1,0,0:0:0:100:HIHAT01-18.ogg
64,192,41571,1,0,0:0:0:100:KICK12.ogg
320,192,41571,1,0,0:0:0:100:SNARE22-01.ogg
448,192,41785,1,0,0:0:0:100:HIHAT01-20.ogg
64,192,42000,1,0,0:0:0:100:KICK12.ogg
448,192,42214,1,0,0:0:0:100:HIHAT01-22.ogg
64,192,42428,1,0,0:0:0:100:KICK12.ogg
320,192,42428,1,0,0:0:0:100:SNARE22-01.ogg
64,192,42642,1,0,0:0:0:100:KICK12.ogg
448,192,42642,1,0,0:0:0:100:HIHAT01-24.ogg
64,192,42857,1,0,0:0:0:100:HIHAT01-17.ogg
448,192,42857,1,0,0:0:0:100:KICK12.ogg
192,192,43071,1,0,0:0:0:100:HIHAT01-18.ogg
64,192,43285,1,0,0:0:0:100:SNARE22-01.ogg
320,192,43285,1,0,0:0:0:100:HIHAT01-19.ogg
448,192,43285,1,0,0:0:0:100:KICK12.ogg
192,192,43500,1,0,0:0:0:100:HIHAT01-20.ogg
64,192,43714,1,0,0:0:0:100:HIHAT01-21.ogg
448,192,43714,1,0,0:0:0:100:KICK12.ogg
320,192,43928,1,0,0:0:0:100:HIHAT01-22.ogg
64,192,44142,1,0,0:0:0:100:SNARE22-01.ogg
192,192,44142,1,0,0:0:0:100:HIHAT01-23.ogg
448,192,44142,1,0,0:0:0:100:KICK12.ogg
320,192,44357,1,0,0:0:0:100:HIHAT01-24.ogg
64,192,44571,1,0,0:0:0:100:HIHAT01-17.ogg
448,192,44571,1,0,0:0:0:100:KICK12.ogg
320,192,44785,1,0,0:0:0:100:HIHAT01-18.ogg
64,192,45000,1,0,0:0:0:100:SNARE22-01.ogg
192,192,45000,1,0,0:0:0:100:HIHAT01-19.ogg
448,192,45000,1,0,0:0:0:100:KICK12.ogg
320,192,45214,1,0,0:0:0:100:HIHAT01-20.ogg
192,192,45428,1,0,0:0:0:100:HIHAT01-21.ogg
448,192,45428,1,0,0:0:0:100:KICK12.ogg
64,192,45642,1,0,0:0:0:100:HIHAT01-22.ogg
320,192,45642,1,0,0:0:0:100:KICK12.ogg
192,192,45857,1,0,0:0:0:100:SNARE22-01.ogg
448,192,45857,1,0,0:0:0:100:KICK12.ogg
64,192,46071,1,0,0:0:0:100:HIHAT01-24.ogg
192,192,46285,1,0,0:0:0:100:HIHAT01-17.ogg
448,192,46500,1,0,0:0:0:100:HIHAT01-18.ogg
64,192,46714,1,0,0:0:0:100:HIHAT01-19.ogg
448,192,46928,1,0,0:0:0:100:HIHAT01-20.ogg
192,192,47142,1,0,0:0:0:100:HIHAT01-21.ogg
320,192,47357,1,0,0:0:0:100:HIHAT01-22.ogg
448,192,47571,1,0,0:0:0:100:HIHAT01-23.ogg
64,192,47785,1,0,0:0:0:100:HIHAT01-24.ogg
192,192,48214,1,0,0:0:0:100:HIHAT01-18.ogg
320,192,48642,1,0,0:0:0:100:HIHAT01-20.ogg
448,192,49071,1,0,0:0:0:100:HIHAT01-22.ogg
64,192,49714,1,0,0:0:0:100:SYNTH123.ogg
448,192,49714,1,0,0:0:0:100:HIHAT01-03.ogg
320,192,49821,1,0,0:0:0:100:HIHAT01-04.ogg
192,192,49928,1,0,0:0:0:100:HIHAT01-05.ogg
320,192,50035,1,0,0:0:0:100:HIHAT01-06.ogg
64,192,50142,1,0,0:0:0:100:SYNTH123-01.ogg
448,192,50142,1,0,0:0:0:100:HIHAT01-07.ogg
448,192,50357,1,0,0:0:0:100:HIHAT01-08.ogg
320,192,50464,1,0,0:0:0:100:HIHAT01-09.ogg
64,192,50571,1,0,0:0:0:100:SYNTH123-24.ogg
448,192,50571,1,0,0:0:0:100:HIHAT01-10.ogg
320,192,50678,1,0,0:0:0:100:HIHAT01-11.ogg
192,192,50785,1,0,0:0:0:100:HIHAT01-12.ogg
320,192,50892,1,0,0:0:0:100:HIHAT01-13.ogg
64,192,51000,1,0,0:0:0:100:SNARE22-01.ogg
448,192,51000,1,0,0:0:0:100:HIHAT01-14.ogg
64,192,51214,1,0,0:0:0:100:SYNTH123-25.ogg
448,192,51214,1,0,0:0:0:100:HIHAT01-15.ogg
320,192,51321,1,0,0:0:0:100:HIHAT01-16.ogg
192,192,51428,1,0,0:0:0:100:HIHAT01-03.ogg
320,192,51535,1,0,0:0:0:100:HIHAT01-04.ogg
192,192,51642,1,0,0:0:0:100:SYNTH123-26.ogg
448,192,51642,1,0,0:0:0:100:HIHAT01-05.ogg
320,192,51750,1,0,0:0:0:100:HIHAT01-06.ogg
64,192,51857,1,0,0:0:0:100:HIHAT01-07.ogg
448,192,51857,1,0,0:0:0:100:SNARE22-01.ogg
320,192,52071,1,0,0:0:0:100:HIHAT01-08.ogg
192,192,52178,1,0,0:0:0:100:HIHAT01-09.ogg
64,192,52285,1,0,0:0:0:100:HIHAT01-10.ogg
448,192,52285,1,0,0:0:0:100:SYNTH123-27.ogg
192,192,52392,1,0,0:0:0:100:HIHAT01-11.ogg
320,192,52500,1,0,0:0:0:100:HIHAT01-12.ogg
192,192,52607,1,0,0:0:0:100:HIHAT01-13.ogg
64,192,52714,1,0,0:0:0:100:HIHAT01-14.ogg
320,192,52714,1,0,0:0:0:100:SNARE22-01.ogg
448,192,52714,1,0,0:0:0:100:SYNTH123-28.ogg
64,192,52928,1,0,0:0:0:100:SNARE22-01.ogg
192,192,52928,1,0,0:0:0:100:HIHAT01-15.ogg
448,192,52928,1,0,0:0:0:100:SYNTH123-29.ogg
192,192,53142,1,0,0:0:0:100:HIHAT01-03.ogg
448,192,53142,1,0,0:0:0:100:SYNTH123-30.ogg
64,192,53250,1,0,0:0:0:100:HIHAT01-04.ogg
320,192,53357,1,0,0:0:0:100:HIHAT01-05.ogg
192,192,53464,1,0,0:0:0:100:HIHAT01-06.ogg
64,192,53571,1,0,0:0:0:100:HIHAT01-07.ogg
448,192,53571,1,0,0:0:0:100:SYNTH123-31.ogg
320,192,53785,1,0,0:0:0:100:HIHAT01-08.ogg
192,192,53892,1,0,0:0:0:100:HIHAT01-09.ogg
64,192,54000,1,0,0:0:0:100:HIHAT01-10.ogg
448,192,54000,1,0,0:0:0:100:SYNTH123-32.ogg
192,192,54107,1,0,0:0:0:100:HIHAT01-11.ogg
320,192,54214,1,0,0:0:0:100:HIHAT01-12.ogg
192,192,54321,1,0,0:0:0:100:HIHAT01-13.ogg
64,192,54428,1,0,0:0:0:100:HIHAT01-14.ogg
448,192,54428,1,0,0:0:0:100:SNARE22-01.ogg
320,192,54642,1,0,0:0:0:100:HIHAT01-15.ogg
448,192,54642,1,0,0:0:0:100:SYNTH123-33.ogg
192,192,54750,1,0,0:0:0:100:HIHAT01-16.ogg
64,192,54857,1,0,0:0:0:100:HIHAT01-03.ogg
192,192,54964,1,0,0:0:0:100:HIHAT01-04.ogg
320,192,55071,1,0,0:0:0:100:HIHAT01-05.ogg
448,192,55071,1,0,0:0:0:100:SYNTH123-34.ogg
192,192,55178,1,0,0:0:0:100:HIHAT01-06.ogg
64,192,55285,1,0,0:0:0:100:HIHAT01-07.ogg
448,192,55285,1,0,0:0:0:100:SNARE22-01.ogg
64,192,55500,1,0,0:0:0:100:HIHAT01-08.ogg
448,192,55500,1,0,0:0:0:100:SYNTH123-35.ogg
192,192,55607,1,0,0:0:0:100:HIHAT01-09.ogg
64,192,55714,1,0,0:0:0:100:HIHAT01-10.ogg
320,192,55714,1,0,0:0:0:100:SYNTH123-36.ogg
192,192,55821,1,0,0:0:0:100:HIHAT01-11.ogg
64,192,55928,1,0,0:0:0:100:HIHAT01-12.ogg
448,192,55928,1,0,0:0:0:100:SYNTH123-37.ogg
192,192,56035,1,0,0:0:0:100:HIHAT01-13.ogg
320,192,56035,1,0,0:0:0:100:SYNTH123-38.ogg
64,192,56142,1,0,0:0:0:100:HIHAT01-14.ogg
64,192,56357,1,0,0:0:0:100:SYNTH123-39.ogg
320,192,56357,1,0,0:0:0:100:KICK12.ogg
448,192,56357,1,0,0:0:0:100:SNARE22-01.ogg
64,192,56571,1,0,0:0:0:100:KICK12.ogg
192,192,56571,1,0,0:0:0:100:HIHAT01-03.ogg
320,192,56678,1,0,0:0:0:100:HIHAT01-04.ogg
448,192,56785,1,0,0:0:0:100:HIHAT01-05.ogg
320,192,56892,1,0,0:0:0:100:HIHAT01-06.ogg
64,192,57000,1,0,0:0:0:100:KICK12.ogg
192,192,57000,1,0,0:0:0:100:SNARE22-01.ogg
448,192,57000,1,0,0:0:0:100:HIHAT01-07.ogg
192,192,57214,1,0,0:0:0:100:HIHAT01-08.ogg
320,192,57321,1,0,0:0:0:100:HIHAT01-09.ogg
64,192,57428,1,0,0:0:0:100:KICK12.ogg
448,192,57428,1,0,0:0:0:100:HIHAT01-10.ogg
320,192,57535,1,0,0:0:0:100:HIHAT01-11.ogg
448,192,57642,1,0,0:0:0:100:HIHAT01-12.ogg
320,192,57750,1,0,0:0:0:100:HIHAT01-13.ogg
64,192,57857,1,0,0:0:0:100:KICK12.ogg
192,192,57857,1,0,0:0:0:100:SNARE22-01.ogg
448,192,57857,1,0,0:0:0:100:HIHAT01-14.ogg
192,192,58071,1,0,0:0:0:100:HIHAT01-15.ogg
320,192,58178,1,0,0:0:0:100:HIHAT01-16.ogg
64,192,58285,1,0,0:0:0:100:KICK12.ogg
448,192,58285,1,0,0:0:0:100:HIHAT01-03.ogg
320,192,58392,1,0,0:0:0:100:HIHAT01-04.ogg
448,192,58500,1,0,0:0:0:100:HIHAT01-05.ogg
320,192,58607,1,0,0:0:0:100:HIHAT01-06.ogg
64,192,58714,1,0,0:0:0:100:KICK12.ogg
192,192,58714,1,0,0:0:0:100:SNARE22-01.ogg
448,192,58714,1,0,0:0:0:100:HIHAT01-07.ogg
192,192,58928,1,0,0:0:0:100:HIHAT01-08.ogg
320,192,59035,1,0,0:0:0:100:HIHAT01-09.ogg
64,192,59142,1,0,0:0:0:100:KICK12.ogg
448,192,59142,1,0,0:0:0:100:HIHAT01-10.ogg
320,192,59250,1,0,0:0:0:100:HIHAT01-11.ogg
64,192,59357,1,0,0:0:0:100:KICK12.ogg
448,192,59357,1,0,0:0:0:100:HIHAT01-12.ogg
320,192,59464,1,0,0:0:0:100:HIHAT01-13.ogg
64,192,59571,1,0,0:0:0:100:KICK12.ogg
192,192,59571,1,0,0:0:0:100:SNARE22-01.ogg
448,192,59571,1,0,0:0:0:100:HIHAT01-14.ogg
320,192,59785,1,0,0:0:0:100:HIHAT01-15.ogg
192,192,59892,1,0,0:0:0:100:HIHAT01-16.ogg
64,192,60000,1,0,0:0:0:100:HIHAT01-03.ogg
448,192,60000,1,0,0:0:0:100:KICK12.ogg
192,192,60107,1,0,0:0:0:100:HIHAT01-04.ogg
64,192,60214,1,0,0:0:0:100:HIHAT01-05.ogg
192,192,60321,1,0,0:0:0:100:HIHAT01-06.ogg
64,192,60428,1,0,0:0:0:100:HIHAT01-07.ogg
320,192,60428,1,0,0:0:0:100:SNARE22-01.ogg
448,192,60428,1,0,0:0:0:100:KICK12.ogg
320,192,60642,1,0,0:0:0:100:HIHAT01-08.ogg
192,192,60750,1,0,0:0:0:100:HIHAT01-09.ogg
64,192,60857,1,0,0:0:0:100:HIHAT01-10.ogg
448,192,60857,1,0,0:0:0:100:KICK12.ogg
192,192,60964,1,0,0:0:0:100:HIHAT01-11.ogg
64,192,61071,1,0,0:0:0:100:HIHAT01-12.ogg
192,192,61178,1,0,0:0:0:100:HIHAT01-13.ogg
64,192,61285,1,0,0:0:0:100:HIHAT01-14.ogg
320,192,61285,1,0,0:0:0:100:SNARE22-01.ogg
448,192,61285,1,0,0:0:0:100:KICK12.ogg
320,192,61500,1,0,0:0:0:100:HIHAT01-15.ogg
192,192,61607,1,0,0:0:0:100:HIHAT01-16.ogg
64,192,61714,1,0,0:0:0:100:HIHAT01-03.ogg
448,192,61714,1,0,0:0:0:100:KICK12.ogg
192,192,61821,1,0,0:0:0:100:HIHAT01-04.ogg
64,192,61928,1,0,0:0:0:100:HIHAT01-05.ogg
192,192,62035,1,0,0:0:0:100:HIHAT01-06.ogg
64,192,62142,1,0,0:0:0:100:HIHAT01-07.ogg
320,192,62142,1,0,0:0:0:100:SNARE22-01.ogg
448,192,62142,1,0,0:0:0:100:KICK12.ogg
192,192,62571,1,0,0:0:0:100:SYNTH628-01.ogg
448,192,62571,1,0,0:0:0:100:KICK12.ogg
64,192,62678,1,0,0:0:0:100:SYNTH628-29.ogg
64,192,62892,1,0,0:0:0:100:SYNTH628-30.ogg
320,192,63000,1,0,0:0:0:100:SNARE22-01.ogg
448,192,63000,1,0,0:0:0:100:KICK12.ogg
64,192,63107,1,0,0:0:0:100:SYNTH628-31.ogg
448,192,63214,1,0,0:0:0:100:KICK12.ogg
192,192,63321,1,0,0:0:0:100:SYNTH628-32.ogg
64,192,63428,1,0,0:0:0:100:SYNTH628-33.ogg
448,192,63428,1,0,0:0:0:100:KICK12.ogg
192,192,63642,1,0,0:0:0:100:SYNTH628-34.ogg
64,192,63857,1,0,0:0:0:100:KICK12.ogg
320,192,63857,1,0,0:0:0:100:SYNTH628-35.ogg
448,192,63857,1,0,0:0:0:100:SNARE22-01.ogg
192,192,64071,1,0,0:0:0:100:SYNTH628-36.ogg
64,192,64285,1,0,0:0:0:100:KICK12.ogg
320,192,64285,1,0,0:0:0:100:SYNTH628-37.ogg
192,192,64500,1,0,0:0:0:100:SYNTH628-38.ogg
320,192,64607,1,0,0:0:0:100:SYNTH628-39.ogg
64,192,64714,1,0,0:0:0:100:KICK12.ogg
448,192,64714,1,0,0:0:0:100:SNARE22-01.ogg
192,192,64821,1,0,0:0:0:100:SYNTH628-40.ogg
320,192,64928,1,0,0:0:0:100:SYNTH628-41.ogg
64,192,65142,1,0,0:0:0:100:KICK12.ogg
320,192,65250,1,0,0:0:0:100:SYNTH628-42.ogg
192,192,65357,1,0,0:0:0:100:SYNTH628-43.ogg
64,192,65571,1,0,0:0:0:100:KICK12.ogg
320,192,65571,1,0,0:0:0:100:SYNTH628-44.ogg
448,192,65571,1,0,0:0:0:100:SNARE22-01.ogg
192,192,65785,1,0,0:0:0:100:SYNTH628-45.ogg
64,192,66000,1,0,0:0:0:100:KICK12.ogg
320,192,66000,1,0,0:0:0:100:SYNTH628-46.ogg
64,192,66214,1,0,0:0:0:100:KICK12.ogg
192,192,66214,1,0,0:0:0:100:SYNTH628-47.ogg
320,192,66321,1,0,0:0:0:100:SYNTH628-48.ogg
64,192,66428,1,0,0:0:0:100:KICK12.ogg
448,192,66428,1,0,0:0:0:100:SNARE22-01.ogg
320,192,66535,1,0,0:0:0:100:SYNTH628-49.ogg
192,192,66642,1,0,0:0:0:100:SYNTH628-50.ogg
448,192,66642,1,0,0:0:0:100:SNARE22-01.ogg
64,192,66750,1,0,0:0:0:100:SYNTH628-51.ogg
192,192,66857,1,0,0:0:0:100:SYNTH628-52.ogg
448,192,66857,1,0,0:0:0:100:KICK12.ogg
320,192,67071,1,0,0:0:0:100:SYNTH628-53.ogg
64,192,67285,1,0,0:0:0:100:SNARE22-01.ogg
192,192,67285,1,0,0:0:0:100:SYNTH628-54.ogg
448,192,67285,1,0,0:0:0:100:KICK12.ogg
320,192,67500,1,0,0:0:0:100:SYNTH628-55.ogg
192,192,67714,1,0,0:0:0:100:SYNTH628-56.ogg
448,192,67714,1,0,0:0:0:100:KICK12.ogg
320,192,67928,1,0,0:0:0:100:SYNTH628-57.ogg
192,192,68035,1,0,0:0:0:100:SYNTH628-58.ogg
64,192,68142,1,0,0:0:0:100:SNARE22-01.ogg
448,192,68142,1,0,0:0:0:100:KICK12.ogg
320,192,68250,1,0,0:0:0:100:SYNTH628-59.ogg
192,192,68357,1,0,0:0:0:100:SYNTH628-60.ogg
64,192,68464,1,0,0:0:0:100:SYNTH628-61.ogg
192,192,68785,1,0,0:0:0:100:SYNTH628-62.ogg
64,192,69000,1,0,0:0:0:100:SYNTH628-63.ogg
192,192,69214,1,0,0:0:0:100:SYNTH628-64.ogg
320,192,69428,1,0,0:0:0:100:SYNTH628-65.ogg
448,192,69642,1,0,0:0:0:100:SYNTH628-66.ogg
320,192,69964,1,0,0:0:0:100:SYNTH628-67.ogg
192,192,70071,1,0,0:0:0:100:SYNTH628-68.ogg
448,192,70178,1,0,0:0:0:100:SYNTH628-69.ogg
64,192,70285,1,0,0:0:0:100:KICK12.ogg
320,192,70285,1,0,0:0:0:100:SYNTH628-70.ogg
192,192,70392,1,0,0:0:0:100:SYNTH628-71.ogg
448,192,70500,1,0,0:0:0:100:SYNTH628-72.ogg
320,192,70607,1,0,0:0:0:100:SYNTH628-73.ogg
64,192,70714,1,0,0:0:0:100:KICK12.ogg
192,192,70714,1,0,0:0:0:100:SYNTH628-74.ogg
448,192,70928,1,0,0:0:0:100:SYNTH628-75.ogg
320,192,71035,1,0,0:0:0:100:SYNTH628-76.ogg
64,192,71142,1,0,0:0:0:100:KICK12.ogg
192,192,71142,1,0,0:0:0:100:SYNTH628-77.ogg
320,192,71250,1,0,0:0:0:100:SYNTH628-78.ogg
448,192,71357,1,0,0:0:0:100:SYNTH628-79.ogg
64,192,71571,1,0,0:0:0:100:KICK12.ogg
448,192,71571,1,0,0:0:0:100:SYNTH628-81.ogg
320,192,71678,1,0,0:0:0:100:SYNTH628-82.ogg
192,192,71785,1,0,0:0:0:100:SYNTH628-83.ogg
320,192,71892,1,0,0:0:0:100:SYNTH628-84.ogg
64,192,72000,1,0,0:0:0:100:KICK12.ogg
448,192,72000,1,0,0:0:0:100:SYNTH628-85.ogg
448,192,72214,1,0,0:0:0:100:SYNTH628-87.ogg
320,192,72321,1,0,0:0:0:100:SYNTH628-88.ogg
64,192,72428,1,0,0:0:0:100:KICK12.ogg
192,192,72428,1,0,0:0:0:100:SYNTH628-89.ogg
320,192,72535,1,0,0:0:0:100:SYNTH628-90.ogg
448,192,72642,1,0,0:0:0:100:SYNTH628-91.ogg
64,192,72857,1,0,0:0:0:100:KICK12.ogg
448,192,72857,1,0,0:0:0:100:SYNTH628-93.ogg
320,192,72964,1,0,0:0:0:100:SYNTH628-94.ogg
64,192,73071,1,0,0:0:0:100:KICK12.ogg
192,192,73071,1,0,0:0:0:100:SYNTH628-95.ogg
320,192,73178,1,0,0:0:0:100:SYNTH628-96.ogg
64,192,73285,1,0,0:0:0:100:KICK12.ogg
448,192,73285,1,0,0:0:0:100:SYNTH628-97.ogg
64,192,73714,1,0,0:0:0:100:KICK12.ogg
320,192,73714,1,0,0:0:0:100:SYNTH628-98.ogg
192,192,73821,1,0,0:0:0:100:SYNTH628-99.ogg
448,192,73928,1,0,0:0:0:100:SYNTH628-100.ogg
320,192,74035,1,0,0:0:0:100:SYNTH628-101.ogg
64,192,74142,1,0,0:0:0:100:KICK12.ogg
448,192,74142,1,0,0:0:0:100:SYNTH628-102.ogg
192,192,74357,1,0,0:0:0:100:SYNTH628-103.ogg
320,192,74464,1,0,0:0:0:100:SYNTH628-104.ogg
64,192,74571,1,0,0:0:0:100:KICK12.ogg
448,192,74571,1,0,0:0:0:100:SYNTH628-105.ogg
192,192,74678,1,0,0:0:0:100:SYNTH628-106.ogg
320,192,74785,1,0,0:0:0:100:SYNTH628-107.ogg
448,192,74892,1,0,0:0:0:100:SYNTH628-108.ogg
64,192,75000,1,0,0:0:0:100:KICK12.ogg
192,192,75107,1,0,0:0:0:100:SYNTH628-109.ogg
320,192,75214,1,0,0:0:0:100:SYNTH628-110.ogg
448,192,75321,1,0,0:0:0:100:SYNTH628-111.ogg
64,192,75428,1,0,0:0:0:100:KICK12.ogg
192,192,75535,1,0,0:0:0:100:SYNTH628-113.ogg
320,192,75642,1,0,0:0:0:100:SYNTH628-114.ogg
448,192,75750,1,0,0:0:0:100:SYNTH628-115.ogg
64,192,75857,1,0,0:0:0:100:KICK12.ogg
192,192,75857,1,0,0:0:0:100:SYNTH628-116.ogg
320,192,75964,1,0,0:0:0:100:SYNTH628-117.ogg
448,192,76071,1,0,0:0:0:100:SYNTH628-118.ogg
320,192,76178,1,0,0:0:0:100:SYNTH628-119.ogg
64,192,76285,1,0,0:0:0:100:KICK12.ogg
192,192,76285,1,0,0:0:0:100:SYNTH628-120.ogg
320,192,76392,1,0,0:0:0:100:SYNTH628-121.ogg
448,192,76500,1,0,0:0:0:100:SYNTH628-122.ogg
320,192,76607,1,0,0:0:0:100:SYNTH628-123.ogg
64,192,76714,1,0,0:0:0:100:KICK12.ogg
192,192,76714,1,0,0:0:0:100:SYNTH628-124.ogg
448,192,76821,1,0,0:0:0:100:SYNTH628-125.ogg
64,192,76928,1,0,0:0:0:100:KICK12.ogg
64,192,77142,1,0,0:0:0:100:RHYTHM421.ogg
448,192,77142,1,0,0:0:0:100:SYNTH325.ogg
448,192,77250,1,0,0:0:0:100:SYNTH325-01.ogg
192,192,77357,1,0,0:0:0:100:RHYTHM421-01.ogg
448,192,77464,1,0,0:0:0:100:SYNTH325-26.ogg
320,192,77571,1,0,0:0:0:100:RHYTHM421-22.ogg
448,192,77571,128,0,77785:0:0:0:100:SYNTH325-27.ogg
192,192,77785,1,0,0:0:0:100:RHYTHM421-23.ogg
448,192,77892,1,0,0:0:0:100:SYNTH325-28.ogg
64,192,78000,1,0,0:0:0:100:RHYTHM421-24.ogg
192,192,78214,1,0,0:0:0:100:RHYTHM421-25.ogg
448,192,78214,1,0,0:0:0:100:SYNTH325-29.ogg
320,192,78428,1,0,0:0:0:100:RHYTHM421-26.ogg
448,192,78428,1,0,0:0:0:100:SYNTH325-30.ogg
448,192,78535,1,0,0:0:0:100:SYNTH325-31.ogg
192,192,78642,1,0,0:0:0:100:RHYTHM421-27.ogg
448,192,78642,1,0,0:0:0:100:SYNTH325-32.ogg
64,192,78857,1,0,0:0:0:100:SYNTH325.ogg
448,192,78857,1,0,0:0:0:100:RHYTHM421-28.ogg
192,192,78964,1,0,0:0:0:100:SYNTH325-01.ogg
64,192,79071,1,0,0:0:0:100:SYNTH325-26.ogg
320,192,79071,1,0,0:0:0:100:RHYTHM421-29.ogg
64,192,79285,128,0,79500:0:0:0:100:SYNTH325-27.ogg
192,192,79285,1,0,0:0:0:100:RHYTHM421-30.ogg
448,192,79500,1,0,0:0:0:100:RHYTHM421-31.ogg
64,192,79607,1,0,0:0:0:100:SYNTH325-28.ogg
320,192,79607,1,0,0:0:0:100:RHYTHM421-32.ogg
448,192,79714,1,0,0:0:0:100:RHYTHM421-33.ogg
64,192,79928,1,0,0:0:0:100:SYNTH325-29.ogg
448,192,79928,1,0,0:0:0:100:RHYTHM421-34.ogg
64,192,80142,1,0,0:0:0:100:SYNTH325.ogg
320,192,80142,1,0,0:0:0:100:RHYTHM421-35.ogg
192,192,80250,1,0,0:0:0:100:SYNTH325-01.ogg
64,192,80357,1,0,0:0:0:100:SYNTH325-28.ogg
448,192,80357,1,0,0:0:0:100:RHYTHM421-36.ogg
64,192,80571,1,0,0:0:0:100:RHYTHM421.ogg
448,192,80571,1,0,0:0:0:100:SYNTH325.ogg
448,192,80678,1,0,0:0:0:100:SYNTH325-01.ogg
192,192,80785,1,0,0:0:0:100:RHYTHM421-01.ogg
448,192,80892,1,0,0:0:0:100:SYNTH325-26.ogg
320,192,81000,1,0,0:0:0:100:RHYTHM421-22.ogg
448,192,81000,128,0,81214:0:0:0:100:SYNTH325-27.ogg
192,192,81214,1,0,0:0:0:100:RHYTHM421-23.ogg
448,192,81321,1,0,0:0:0:100:SYNTH325-28.ogg
64,192,81428,1,0,0:0:0:100:RHYTHM421-24.ogg
192,192,81642,1,0,0:0:0:100:RHYTHM421-25.ogg
448,192,81642,1,0,0:0:0:100:SYNTH325-29.ogg
320,192,81857,1,0,0:0:0:100:RHYTHM421-26.ogg
448,192,81857,1,0,0:0:0:100:SYNTH325-30.ogg
448,192,81964,1,0,0:0:0:100:SYNTH325-31.ogg
192,192,82071,1,0,0:0:0:100:RHYTHM421-27.ogg
448,192,82071,1,0,0:0:0:100:SYNTH325-32.ogg
64,192,82285,1,0,0:0:0:100:SYNTH325.ogg
448,192,82285,1,0,0:0:0:100:RHYTHM421-28.ogg
192,192,82392,1,0,0:0:0:100:SYNTH325-01.ogg
64,192,82500,1,0,0:0:0:100:SYNTH325-26.ogg
320,192,82500,1,0,0:0:0:100:RHYTHM421-29.ogg
64,192,82714,128,0,82928:0:0:0:100:SYNTH325-27.ogg
192,192,82714,1,0,0:0:0:100:RHYTHM421-30.ogg
448,192,82928,1,0,0:0:0:100:RHYTHM421-31.ogg
64,192,83035,1,0,0:0:0:100:SYNTH325-28.ogg
320,192,83035,1,0,0:0:0:100:RHYTHM421-32.ogg
448,192,83142,1,0,0:0:0:100:RHYTHM421-33.ogg
64,192,83357,1,0,0:0:0:100:SYNTH325-29.ogg
448,192,83357,1,0,0:0:0:100:RHYTHM421-34.ogg
64,192,83571,1,0,0:0:0:100:SYNTH325.ogg
320,192,83571,1,0,0:0:0:100:RHYTHM421-35.ogg
192,192,83678,1,0,0:0:0:100:SYNTH325-01.ogg
64,192,83785,1,0,0:0:0:100:SYNTH325-28.ogg
448,192,83785,1,0,0:0:0:100:RHYTHM421-36.ogg
64,192,84000,1,0,0:0:0:100:SYNTH527.ogg
320,192,84000,1,0,0:0:0:100:SYNTH426.ogg
192,192,84214,1,0,0:0:0:100:SYNTH527-01.ogg
448,192,84214,1,0,0:0:0:100:SYNTH426-01.ogg
64,192,84428,1,0,0:0:0:100:SYNTH527-29.ogg
320,192,84535,1,0,0:0:0:100:SYNTH426-27.ogg
192,192,84642,1,0,0:0:0:100:SYNTH527-30.ogg
448,192,84642,1,0,0:0:0:100:SYNTH426-28.ogg
320,192,84750,1,0,0:0:0:100:SYNTH426-29.ogg
64,192,84857,1,0,0:0:0:100:SYNTH527.ogg
448,192,84857,1,0,0:0:0:100:SYNTH426-30.ogg
320,192,84964,1,0,0:0:0:100:SYNTH426-31.ogg
192,192,85071,1,0,0:0:0:100:SYNTH527-01.ogg
448,192,85071,1,0,0:0:0:100:SYNTH426-32.ogg
64,192,85285,1,0,0:0:0:100:SYNTH527-29.ogg
448,192,85392,1,0,0:0:0:100:SYNTH426-33.ogg
192,192,85500,1,0,0:0:0:100:SYNTH527-30.ogg
320,192,85607,1,0,0:0:0:100:SYNTH426-34.ogg
192,192,85714,1,0,0:0:0:100:SYNTH426.ogg
448,192,85714,1,0,0:0:0:100:SYNTH527.ogg
64,192,85928,1,0,0:0:0:100:SYNTH426-01.ogg
320,192,85928,1,0,0:0:0:100:SYNTH527-01.ogg
448,192,86142,1,0,0:0:0:100:SYNTH527-29.ogg
192,192,86250,1,0,0:0:0:100:SYNTH426-27.ogg
64,192,86357,1,0,0:0:0:100:SYNTH426-28.ogg
320,192,86357,1,0,0:0:0:100:SYNTH527-30.ogg
192,192,86464,1,0,0:0:0:100:SYNTH426-29.ogg
64,192,86571,1,0,0:0:0:100:SYNTH426-30.ogg
448,192,86571,1,0,0:0:0:100:SYNTH527.ogg
192,192,86678,1,0,0:0:0:100:SYNTH426-31.ogg
64,192,86785,1,0,0:0:0:100:SYNTH426-32.ogg
320,192,86785,1,0,0:0:0:100:SYNTH527-01.ogg
448,192,86785,1,0,0:0:0:100:RHYTHM421-34.ogg
448,192,87000,1,0,0:0:0:100:SYNTH527-29.ogg
64,192,87107,1,0,0:0:0:100:SYNTH426-33.ogg
320,192,87214,1,0,0:0:0:100:SYNTH527-30.ogg
448,192,87214,1,0,0:0:0:100:RHYTHM421-36.ogg
192,192,87321,1,0,0:0:0:100:SYNTH426-34.ogg
64,192,87428,1,0,0:0:0:100:RHYTHM421.ogg
320,192,87428,1,0,0:0:0:100:SYNTH426.ogg
192,192,87642,1,0,0:0:0:100:SYNTH426-01.ogg
448,192,87642,1,0,0:0:0:100:RHYTHM421-01.ogg
320,192,87750,1,0,0:0:0:100:SYNTH527-28.ogg
64,192,87857,1,0,0:0:0:100:RHYTHM421-22.ogg
320,192,87964,1,0,0:0:0:100:SYNTH426-27.ogg
192,192,88071,1,0,0:0:0:100:SYNTH426-28.ogg
448,192,88071,1,0,0:0:0:100:RHYTHM421-23.ogg
320,192,88178,1,0,0:0:0:100:SYNTH426-29.ogg
64,192,88285,1,0,0:0:0:100:RHYTHM421-24.ogg
192,192,88285,1,0,0:0:0:100:SYNTH426-30.ogg
320,192,88392,1,0,0:0:0:100:SYNTH426-31.ogg
192,192,88500,1,0,0:0:0:100:SYNTH426-32.ogg
448,192,88500,1,0,0:0:0:100:RHYTHM421-25.ogg
320,192,88607,1,0,0:0:0:100:SYNTH527-28.ogg
64,192,88714,1,0,0:0:0:100:RHYTHM421-26.ogg
192,192,88821,1,0,0:0:0:100:SYNTH426-33.ogg
448,192,88928,1,0,0:0:0:100:RHYTHM421-27.ogg
320,192,89035,1,0,0:0:0:100:SYNTH426-34.ogg
64,192,89142,1,0,0:0:0:100:RHYTHM421-28.ogg
192,192,89142,1,0,0:0:0:100:SYNTH426.ogg
320,192,89357,1,0,0:0:0:100:SYNTH426-01.ogg
448,192,89357,1,0,0:0:0:100:RHYTHM421-29.ogg
192,192,89464,1,0,0:0:0:100:SYNTH527-28.ogg
64,192,89571,1,0,0:0:0:100:RHYTHM421-30.ogg
192,192,89678,1,0,0:0:0:100:SYNTH426-27.ogg
320,192,89785,1,0,0:0:0:100:SYNTH426-28.ogg
448,192,89785,1,0,0:0:0:100:RHYTHM421-31.ogg
192,192,89892,1,0,0:0:0:100:SYNTH426-29.ogg
64,192,90000,1,0,0:0:0:100:RHYTHM421-33.ogg
320,192,90000,1,0,0:0:0:100:SYNTH426-30.ogg
192,192,90107,1,0,0:0:0:100:SYNTH426-31.ogg
64,192,90214,1,0,0:0:0:100:RHYTHM421-34.ogg
320,192,90214,1,0,0:0:0:100:SYNTH426-32.ogg
192,192,90321,1,0,0:0:0:100:SYNTH527-28.ogg
448,192,90428,1,0,0:0:0:100:RHYTHM421-35.ogg
192,192,90535,1,0,0:0:0:100:SYNTH426-33.ogg
64,192,90642,1,0,0:0:0:100:RHYTHM421-36.ogg
320,192,90750,1,0,0:0:0:100:SYNTH426-34.ogg
64,192,90857,128,0,92571:0:0:0:85:SYNTH628-126.ogg
192,192,90857,1,0,0:0:0:100:SYNTH123-56.ogg
448,192,90857,1,0,0:0:0:100:KICK12.ogg
192,192,91071,1,0,0:0:0:100:SYNTH123-57.ogg
320,192,91285,1,0,0:0:0:100:SYNTH123-58.ogg
448,192,91285,1,0,0:0:0:100:KICK12.ogg
192,192,91500,1,0,0:0:0:100:SYNTH123-59.ogg
192,192,91714,1,0,0:0:0:100:SYNTH123-60.ogg
448,192,91714,1,0,0:0:0:100:KICK12.ogg
320,192,91928,1,0,0:0:0:100:SYNTH123-61.ogg
448,192,92142,1,0,0:0:0:100:KICK12.ogg
192,192,92357,1,0,0:0:0:100:SYNTH123-62.ogg
192,192,92571,1,0,0:0:0:100:SYNTH123-63.ogg
320,192,92571,1,0,0:0:0:100:KICK12.ogg
448,192,92571,128,0,94285:0:0:0:85:SYNTH628-127.ogg
64,192,92785,1,0,0:0:0:100:SYNTH123-64.ogg
64,192,93000,1,0,0:0:0:100:SYNTH123-65.ogg
320,192,93000,1,0,0:0:0:100:KICK12.ogg
192,192,93214,1,0,0:0:0:100:SYNTH123-66.ogg
192,192,93428,1,0,0:0:0:100:SYNTH123-67.ogg
320,192,93428,1,0,0:0:0:100:KICK12.ogg
64,192,93642,1,0,0:0:0:100:SYNTH123-68.ogg
320,192,93642,1,0,0:0:0:100:KICK12.ogg
192,192,93857,1,0,0:0:0:100:SYNTH123-69.ogg
320,192,93857,1,0,0:0:0:100:KICK12.ogg
64,192,94071,1,0,0:0:0:100:SYNTH123-70.ogg
64,192,94285,1,0,0:0:0:100:KICK12.ogg
192,192,94285,128,0,96000:0:0:0:85:SYNTH628-128.ogg
320,192,94285,1,0,0:0:0:100:SYNTH123-71.ogg
320,192,94500,1,0,0:0:0:100:SYNTH123-72.ogg
64,192,94714,1,0,0:0:0:100:KICK12.ogg
448,192,94714,1,0,0:0:0:100:SYNTH123-73.ogg
320,192,94928,1,0,0:0:0:100:SYNTH123-74.ogg
64,192,95142,1,0,0:0:0:100:KICK12.ogg
320,192,95142,1,0,0:0:0:100:SYNTH123-75.ogg
448,192,95357,1,0,0:0:0:100:SYNTH123-76.ogg
64,192,95571,1,0,0:0:0:100:KICK12.ogg
320,192,95571,1,0,0:0:0:100:SYNTH123-77.ogg
448,192,95785,1,0,0:0:0:100:SYNTH123-78.ogg
64,192,96000,1,0,0:0:0:100:SYNTH123-79.ogg
320,192,96000,128,0,97714:0:0:0:85:SYNTH628-129.ogg
448,192,96000,1,0,0:0:0:100:KICK12.ogg
64,192,96214,1,0,0:0:0:100:SYNTH123-80.ogg
192,192,96428,1,0,0:0:0:100:SYNTH123-81.ogg
448,192,96428,1,0,0:0:0:100:KICK12.ogg
64,192,96642,1,0,0:0:0:100:SYNTH123-82.ogg
192,192,96857,1,0,0:0:0:100:SYNTH123-83.ogg
448,192,96857,1,0,0:0:0:100:KICK12.ogg
64,192,97071,1,0,0:0:0:100:SYNTH123-84.ogg
192,192,97285,1,0,0:0:0:100:SYNTH123-85.ogg
448,192,97285,1,0,0:0:0:100:KICK12.ogg
64,192,97500,1,0,0:0:0:100:SYNTH123-86.ogg
448,192,97500,1,0,0:0:0:100:KICK12.ogg
64,192,97714,1,0,0:0:0:100:HIHAT01-03.ogg
192,192,97714,1,0,0:0:0:100:SYNTH123-87.ogg
448,192,97714,1,0,0:0:0:100:KICK12.ogg
64,192,97821,1,0,0:0:0:100:HIHAT01-04.ogg
192,192,97928,1,0,0:0:0:100:SYNTH123-88.ogg
448,192,97928,1,0,0:0:0:100:HIHAT01-05.ogg
448,192,98035,1,0,0:0:0:100:HIHAT01-06.ogg
64,192,98142,1,0,0:0:0:100:HIHAT01-07.ogg
320,192,98142,1,0,0:0:0:100:SYNTH123-89.ogg
192,192,98357,1,0,0:0:0:100:SYNTH123-90.ogg
448,192,98357,1,0,0:0:0:100:HIHAT01-08.ogg
448,192,98464,1,0,0:0:0:100:HIHAT01-09.ogg
64,192,98571,1,0,0:0:0:100:HIHAT01-10.ogg
192,192,98571,1,0,0:0:0:100:SYNTH123-91.ogg
64,192,98678,1,0,0:0:0:100:HIHAT01-11.ogg
320,192,98785,1,0,0:0:0:100:SYNTH123-92.ogg
448,192,98785,1,0,0:0:0:100:HIHAT01-12.ogg
448,192,98892,1,0,0:0:0:100:HIHAT01-13.ogg
64,192,99000,1,0,0:0:0:100:HIHAT01-14.ogg
192,192,99000,1,0,0:0:0:100:SYNTH123-93.ogg
192,192,99214,1,0,0:0:0:100:SYNTH123-94.ogg
448,192,99214,1,0,0:0:0:100:HIHAT01-15.ogg
448,192,99321,1,0,0:0:0:100:HIHAT01-16.ogg
64,192,99428,1,0,0:0:0:100:SYNTH123-95.ogg
192,192,99428,1,0,0:0:0:100:HIHAT01-03.ogg
192,192,99535,1,0,0:0:0:100:HIHAT01-04.ogg
64,192,99642,1,0,0:0:0:100:SYNTH123-96.ogg
320,192,99642,1,0,0:0:0:100:HIHAT01-05.ogg
320,192,99750,1,0,0:0:0:100:HIHAT01-06.ogg
192,192,99857,1,0,0:0:0:100:HIHAT01-07.ogg
448,192,99857,1,0,0:0:0:100:SYNTH123-97.ogg
64,192,100071,1,0,0:0:0:100:SYNTH123-98.ogg
320,192,100071,1,0,0:0:0:100:HIHAT01-08.ogg
320,192,100178,1,0,0:0:0:100:HIHAT01-09.ogg
64,192,100285,1,0,0:0:0:100:SYNTH123-99.ogg
192,192,100285,1,0,0:0:0:100:HIHAT01-10.ogg
192,192,100392,1,0,0:0:0:100:HIHAT01-11.ogg
320,192,100500,1,0,0:0:0:100:HIHAT01-12.ogg
448,192,100500,1,0,0:0:0:100:SYNTH123-100.ogg
320,192,100607,1,0,0:0:0:100:HIHAT01-13.ogg
64,192,100714,1,0,0:0:0:100:SYNTH123-101.ogg
192,192,100714,1,0,0:0:0:100:HIHAT01-14.ogg
64,192,100928,1,0,0:0:0:100:SYNTH123-102.ogg
320,192,100928,1,0,0:0:0:100:HIHAT01-15.ogg
320,192,101035,1,0,0:0:0:100:HIHAT01-16.ogg
192,192,101142,1,0,0:0:0:100:HIHAT01-03.ogg
448,192,101142,1,0,0:0:0:100:SYNTH123-103.ogg
192,192,101250,1,0,0:0:0:100:HIHAT01-04.ogg
320,192,101357,1,0,0:0:0:100:HIHAT01-05.ogg
448,192,101357,1,0,0:0:0:100:SYNTH123-104.ogg
320,192,101464,1,0,0:0:0:100:HIHAT01-06.ogg
64,192,101571,1,0,0:0:0:100:SYNTH123-105.ogg
192,192,101571,1,0,0:0:0:100:HIHAT01-07.ogg
64,192,101785,1,0,0:0:0:100:HIHAT01-08.ogg
448,192,101785,1,0,0:0:0:100:SYNTH123-106.ogg
64,192,101892,1,0,0:0:0:100:HIHAT01-09.ogg
192,192,102000,1,0,0:0:0:100:HIHAT01-10.ogg
448,192,102000,1,0,0:0:0:100:SYNTH123-107.ogg
192,192,102107,1,0,0:0:0:100:HIHAT01-11.ogg
64,192,102214,1,0,0:0:0:100:SYNTH123-108.ogg
320,192,102214,1,0,0:0:0:100:HIHAT01-12.ogg
320,192,102321,1,0,0:0:0:100:HIHAT01-13.ogg
192,192,102428,1,0,0:0:0:100:SYNTH123-109.ogg
448,192,102428,1,0,0:0:0:100:HIHAT01-14.ogg
64,192,102642,1,0,0:0:0:100:SYNTH123-110.ogg
320,192,102642,1,0,0:0:0:100:HIHAT01-15.ogg
320,192,102750,1,0,0:0:0:100:HIHAT01-16.ogg
192,192,102857,1,0,0:0:0:100:HIHAT01-03.ogg
448,192,102857,1,0,0:0:0:100:SYNTH123-111.ogg
192,192,102964,1,0,0:0:0:100:HIHAT01-04.ogg
64,192,103071,1,0,0:0:0:100:HIHAT01-05.ogg
320,192,103071,1,0,0:0:0:100:SYNTH123-112.ogg
64,192,103178,1,0,0:0:0:100:HIHAT01-06.ogg
192,192,103285,1,0,0:0:0:100:SYNTH123-113.ogg
448,192,103285,1,0,0:0:0:100:HIHAT01-07.ogg
64,192,103500,1,0,0:0:0:100:SYNTH123-114.ogg
448,192,103500,1,0,0:0:0:100:HIHAT01-08.ogg
448,192,103607,1,0,0:0:0:100:HIHAT01-09.ogg
192,192,103714,1,0,0:0:0:100:SYNTH123-115.ogg
320,192,103714,1,0,0:0:0:100:HIHAT01-10.ogg
320,192,103821,1,0,0:0:0:100:HIHAT01-11.ogg
192,192,103928,1,0,0:0:0:100:HIHAT01-12.ogg
192,192,104035,1,0,0:0:0:100:HIHAT01-13.ogg
64,192,104142,1,0,0:0:0:100:SYNTH123-116.ogg
320,192,104142,1,0,0:0:0:100:HIHAT01-14.ogg
192,192,104357,1,0,0:0:0:100:SYNTH123-117.ogg
448,192,104357,1,0,0:0:0:100:HIHAT01-15.ogg
448,192,104464,1,0,0:0:0:100:HIHAT01-16.ogg
64,192,104535,1,0,0:0:0:100:ENDING CHO 1 05.ogg
192,192,105000,1,0,0:0:0:100:ENDING CHO 1 05-01.ogg
320,192,105392,1,0,0:0:0:100:ENDING CHO 1 05-02.ogg
