osu file format v9

[General]
AudioFilename: Lin-G - I Want You (RD Mix).mp3
AudioLeadIn: 2000
PreviewTime: 90314
Countdown: 0
SampleSet: Soft
StackLeniency: 0.7
Mode: 0
LetterboxInBreaks: 0

[Editor]
DistanceSpacing: 2
BeatDivisor: 4
GridSize: 8

[Metadata]
Title:I Want You (RD Mix)
Artist:Lin-G
Creator:vincerio
Version:Hard
Source:DJMAX
Tags:redesigned xeon samiljul black square

[Difficulty]
HPDrainRate:6
CircleSize:4
OverallDifficulty:6
ApproachRate:7
SliderMultiplier:1.5
SliderTickRate:1

[Events]
//Background and Video events
0,0,"uki98.jpg"
//Break Periods
2,76683,82547
//Storyboard Layer 0 (Background)
//Storyboard Layer 1 (Fail)
//Storyboard Layer 2 (Pass)
//Storyboard Layer 3 (Foreground)
//Storyboard Sound Samples
//Background Colour Transformations
3,100,163,162,255

[TimingPoints]
1162,428.571428571429,4,2,1,20,1,0
3099,-100,4,2,1,30,0,0
4385,-100,4,2,1,40,0,0
5242,-100,4,2,1,50,0,0
6636,-100,4,2,1,10,0,0
6850,-100,4,2,1,50,0,0
8242,-100,4,2,0,50,0,0
23349,-100,4,2,2,50,0,0
23563,-100,4,2,0,50,0,0
25063,-100,4,2,2,50,0,0
25278,-100,4,2,0,50,0,0
26778,-100,4,2,2,50,0,0
26992,-100,4,2,0,50,0,0
28492,-100,4,2,2,50,0,0
28706,-100,4,2,0,50,0,0
30206,-100,4,2,2,50,0,0
30421,-100,4,2,0,50,0,0
31921,-100,4,2,2,50,0,0
32135,-100,4,2,0,50,0,0
33635,-100,4,2,2,50,0,0
33849,-100,4,2,0,50,0,0
34492,-100,4,2,2,50,0,0
42099,-100,4,2,1,70,0,0
49099,-100,4,2,0,80,0,0
49278,-100,4,2,1,80,0,0
49599,-100,4,2,1,80,0,1
62779,-100,4,2,0,80,0,1
62993,-100,4,2,1,80,0,1
76456,-100,4,2,0,80,0,0
83028,-100,4,2,1,80,0,0
90207,-100,4,2,0,80,0,0
90742,-100,4,2,1,80,0,1
103921,-100,4,2,0,40,0,0

[Colours]
Combo1 : 255,128,255
Combo2 : 255,0,0
Combo3 : 0,128,255

[HitObjects]
64,40,1162,1,0
64,192,1590,1,8
64,344,2019,1,0
136,344,2233,1,0
208,344,2447,1,8
440,40,2876,5,0
432,192,3304,1,8
432,264,3519,2,0,L|336:264,2,75
432,336,4162,1,8
80,336,4590,5,0
80,264,4804,1,0
80,192,5019,1,8
88,40,5447,2,0,B|120:144|224:80,1,150,0|8
208,168,6090,1,0
272,128,6304,2,0,B|360:72|408:200,1,150
256,192,7161,8,0,8019
440,64,8447,5,2
440,64,8661,1,0
488,120,8876,1,2
488,120,9090,1,0
440,176,9304,1,2
440,176,9519,1,0
384,224,9733,2,0,B|400:344|288:344,1,150,0|2
296,272,10376,1,0
248,216,10590,2,0,B|232:136|336:96,1,150,2|2
296,272,11233,5,0
248,216,11447,2,0,B|272:144|176:96,1,150,2|2
120,144,12090,1,0
120,216,12304,2,0,L|120:304,2,75,2|0|2
120,144,12947,1,0
120,72,13161,5,2
120,72,13590,1,2
272,72,14019,1,2
272,72,14447,1,2
272,144,14661,1,0
272,216,14876,1,2
120,216,15090,5,0
184,176,15304,2,0,B|184:272|184:360,1,150,2|2
256,304,15947,1,0
312,256,16161,1,2
352,192,16376,1,0
312,128,16590,2,0,B|328:24|448:40,1,150,2|0
416,112,17233,1,0
416,184,17447,2,0,B|504:216|456:304,1,150,2|0
400,256,18090,1,0
344,200,18304,2,0,B|336:96|456:112,1,150,2|0
400,40,18947,5,0
328,40,19162,2,0,L|328:128,1,75,2|0
328,264,19590,1,2
176,264,19804,2,0,L|176:160,1,75,0|2
176,40,20233,1,0
24,40,20447,2,0,L|24:144,1,75,2|0
24,264,20876,1,2
256,192,21090,8,0,21733
152,192,22162,6,0,L|56:192,2,75,0|0|2
224,192,22804,2,0,L|224:296,2,75
224,120,23447,1,2
296,120,23662,2,0,B|384:120,1,75
448,120,24090,1,0
448,120,24304,1,2
448,192,24519,1,0
448,192,24733,1,2
448,264,24947,1,0
376,264,25162,5,2
232,304,25376,1,0
104,224,25590,1,2
160,88,25804,1,0
296,152,26019,2,0,L|152:216,1,150,2|2
272,312,26662,1,0
360,192,26876,2,0,L|512:112,1,150,2|2
296,232,27519,5,0
296,160,27733,1,2
296,88,27947,1,0
224,88,28162,1,2
224,160,28376,1,0
224,232,28590,2,0,L|224:320,2,75,2|0|2
152,232,29233,1,0
152,160,29447,2,0,L|32:32,1,150,2|2
152,160,30090,5,0
152,160,30304,2,0,L|40:288,1,150,2|0
152,160,30947,5,0
152,160,31162,2,0,L|312:160,1,150,2|0
376,160,31804,1,0
440,120,32019,5,2
440,192,32233,1,0
504,232,32447,1,2
504,160,32662,1,0
504,88,32876,1,2
440,120,33090,1,0
376,160,33304,2,0,L|344:240|256:264,1,150,2|2
216,224,33947,1,0
176,160,34162,2,0,L|240:112|328:160,1,150,2|2
336,80,34804,5,8
336,80,34912,1,0
336,80,35019,1,8
408,80,35233,1,8
408,80,35340,1,8
408,80,35447,1,8
408,232,35876,5,0
256,232,36304,1,0
256,232,36412,1,2
256,232,36733,1,10
256,80,37162,1,2
256,80,37269,1,2
256,80,37590,1,10
328,80,37804,1,0
400,80,38019,2,0,C|400:8,2,37.5,2|0|0
400,152,38447,1,10
400,224,38662,1,0
400,296,38876,1,2
248,296,39090,5,0
248,224,39304,1,10
248,152,39519,1,0
248,80,39733,2,0,L|304:80,2,37.5,8|2|2
176,80,40162,1,10
176,152,40376,1,0
176,224,40590,5,0
176,264,40697,1,2
176,304,40804,1,2
104,304,41019,1,10
64,240,41233,1,0
32,168,41447,1,0
32,128,41554,1,2
32,88,41662,1,2
96,48,41876,2,0,L|280:48,1,150,8|2
296,104,42519,6,0,L|384:104,1,75,0|2
288,232,42947,2,0,L|200:232,1,75,0|2
360,232,43376,1,0
432,376,43590,2,0,B|432:288,1,75
432,232,44019,1,2
432,160,44233,6,0,L|432:96,2,37.5,2|0|2
288,304,44661,2,0,L|288:352,2,37.5,2|0|2
216,304,45090,1,2
216,232,45304,1,2
216,160,45519,1,2
144,160,45733,2,0,L|144:256,3,75,2|0|2|0
144,160,46590,1,2
144,88,46804,1,2
216,88,47019,1,2
216,160,47233,1,2
288,160,47447,5,2
288,88,47661,1,2
360,88,47876,1,2
360,160,48090,1,2
432,160,48304,1,2
432,88,48519,2,2,B|464:88,8,25
224,176,49161,5,6
272,88,49376,1,2
352,128,49590,1,8
304,216,49804,1,2
384,264,50019,1,2
440,176,50233,1,2
296,152,50447,6,0,L|200:152,1,75,8|0
72,168,50876,2,0,L|72:256,1,75
72,96,51304,2,0,L|72:16,1,75,8|0
136,160,51733,2,0,L|136:256,1,75
136,88,52162,2,0,B|136:-16,1,75,8|0
208,32,52590,5,0
464,192,53019,1,8
208,344,53447,1,0
208,192,53661,2,0,L|304:192,1,75,0|8
136,192,54090,1,0
248,104,54304,2,0,L|152:104,1,75
320,104,54733,1,8
352,248,54947,2,0,L|456:248,1,75
280,248,55376,1,0
128,248,55590,2,0,L|24:248,1,75,8|0
200,248,56019,5,0
440,72,56447,1,8
344,352,56876,1,0
344,200,57090,5,0
272,200,57304,2,0,L|176:200,1,75,8|0
120,200,57733,1,0
120,128,57947,2,0,L|120:24,1,75,0|8
120,200,58376,1,0
120,272,58590,2,0,L|120:360,1,75
120,200,59019,5,8
192,200,59233,2,0,L|296:200,1,75
344,200,59661,1,0
392,144,59876,2,0,L|440:144|448:88,3,75,8|0|0|0
336,104,60733,5,8
288,248,60947,1,0
288,56,61161,1,0
232,200,61376,1,0
232,104,61590,1,8
176,152,61804,1,0
104,176,62019,2,2,L|48:176,2,37.5
120,104,62447,2,2,L|120:64,2,37.5
192,80,62876,5,4
264,80,63090,1,0
336,80,63304,1,8
336,232,63519,1,0
264,232,63733,1,0
192,232,63947,1,0
120,232,64161,6,0,L|112:272|48:296,1,75,8|0
24,232,64590,1,0
72,176,64804,1,0
128,128,65019,1,8
200,128,65233,1,0
272,128,65447,2,0,L|272:64,4,37.5,2|0|2|0|2
384,232,66090,5,0
352,88,66304,1,0
480,176,66519,1,0
328,168,66733,1,8
248,296,66947,2,0,L|248:352,2,37.5
248,144,67376,2,0,L|248:40,3,75,0|8|0|0
176,64,68233,5,0
104,64,68447,1,8
56,120,68661,1,0
56,192,68876,1,0
112,240,69090,1,0
184,240,69304,1,8
232,184,69519,1,0
232,112,69733,6,0,B|296:48|392:128,1,150
440,112,70376,1,0
440,184,70590,1,0
440,256,70804,2,0,L|440:352,2,75,0|8|0
368,256,71447,6,0,L|184:256,1,150,0|8
144,256,72090,1,0
368,184,72304,2,0,L|200:184,1,150,0|8
144,184,72947,1,0
72,184,73161,5,10
72,184,73269,1,2
72,184,73376,1,2
72,112,73590,1,2
72,112,73697,1,2
72,112,73804,1,2
144,112,74019,2,0,L|200:40,2,75,0|0|8
200,160,74661,2,0,L|280:160,2,75
128,160,75304,5,8
248,72,75519,1,0
368,160,75733,1,0
248,248,75947,2,2,L|248:320,4,37.5
248,248,76483,5,4
104,80,83447,5,0
64,224,83876,1,8
136,224,84090,1,0
208,224,84304,1,0
280,224,84519,1,0
352,224,84733,1,8
464,120,85161,6,0,L|464:288,2,150,0|8|0
464,48,86233,1,0
392,48,86447,2,0,L|240:48,1,150,8|0
168,40,87090,5,0
168,112,87304,1,8
64,216,87733,2,0,L|80:296|168:336,2,150,0|8|0
64,64,89019,1,8
152,184,89447,1,0
280,264,89876,1,8
408,192,90304,5,4
344,152,90519,1,0
272,176,90733,1,8
208,136,90947,1,0
136,152,91161,2,0,L|88:104,2,37.5
64,184,91590,5,8
144,312,91804,1,0
256,216,92019,1,8
352,104,92233,1,0
392,248,92447,1,8
264,328,92661,1,0
160,216,92876,5,2
160,216,92983,1,2
160,216,93090,1,2
160,216,93197,1,2
160,216,93304,1,8
136,144,93519,1,0
160,72,93733,1,0
232,72,93947,2,0,L|336:72,2,75,0|8|0
160,72,94590,1,0
88,72,94804,5,0
88,72,94911,1,0
88,72,95019,1,8
88,144,95233,1,2
88,184,95340,1,2
88,224,95447,1,2
88,296,95661,1,0
88,296,95876,1,8
160,296,96090,1,0
160,296,96304,1,0
232,296,96519,5,0
288,248,96733,1,8
216,224,96947,1,0
336,200,97161,1,2
184,160,97376,1,6
376,144,97590,1,12
376,72,97804,5,0
376,72,97911,1,0
376,72,98019,1,4
304,72,98233,1,4
232,72,98447,1,10
232,72,98554,1,2
232,72,98661,1,2
152,72,98876,1,6
152,72,98983,1,2
152,72,99090,1,2
96,120,99304,2,0,L|16:64,2,75
104,192,99947,5,2
104,192,100054,1,2
104,192,100161,1,6
96,264,100376,2,0,L|16:240,2,75
96,264,101019,1,6
152,312,101233,1,0
208,264,101447,2,0,L|288:232,3,75
152,216,102304,2,0,L|152:128,1,75
152,64,102733,6,0,L|152:16,7,37.5
152,104,103590,2,0,B|152:136,5,18.75
152,176,104019,5,4
152,224,104447,5,2
152,272,104876,5,2
