osu file format v14

[General]
AudioFilename: You Are My Senpai [Vivii].mp3
AudioLeadIn: 0
PreviewTime: 0
Countdown: 0
SampleSet: Soft
StackLeniency: 0.7
Mode: 0
LetterboxInBreaks: 0
WidescreenStoryboard: 0

[Editor]
DistanceSpacing: 1
BeatDivisor: 4
GridSize: 8
TimelineZoom: 2.4

[Metadata]
Title:You Are My Senpai
TitleUnicode:You Are My Senpai
Artist:LilyRaichu
ArtistUnicode:LilyRaichu
Creator:DrawdeX
Version:Normal+
Source:
Tags:sugoi kawaii notice me please RenzMichael
BeatmapID:423473
BeatmapSetID:175687

[Difficulty]
HPDrainRate:7
CircleSize:4
OverallDifficulty:7
ApproachRate:7
SliderMultiplier:1.50000000596046
SliderTickRate:1

[Events]
//Background and Video events
0,0,"senpaikouhailove.jpg",0,0
//Break Periods
2,25150,27821
//Storyboard Layer 0 (Background)
//Storyboard Layer 1 (Fail)
//Storyboard Layer 2 (Pass)
//Storyboard Layer 3 (Foreground)
//Storyboard Sound Samples

[TimingPoints]
1916,731.707317073171,4,2,0,25,1,0
3379,759.493670886076,4,2,0,25,1,0
5657,731.707317073171,4,2,0,25,1,0
7852,689.655172413793,4,2,0,25,1,0
8541,714.285714285714,4,2,0,25,1,0
9969,750,4,2,0,25,1,0
10719,652.173913043478,4,2,0,25,1,0
11371,714.285714285714,4,2,0,25,1,0
14228,705.882352941176,4,2,0,25,1,0
19875,759.493670886076,4,2,0,25,1,0
21393,967.741935483871,4,2,0,25,1,0
21767,810.810810810811,4,2,0,25,1,0
22577,983.606557377049,4,2,0,25,1,0
23068,1250,4,2,0,25,1,0
23693,681.818181818182,4,2,0,25,1,0
24374,576.923076923077,4,2,0,25,1,0
28721,582.52427184466,4,2,0,25,1,0
29631,560.747663551402,4,2,0,40,1,1
34116,483.870967741935,4,2,0,40,1,1
34599,545.454545454546,4,2,0,40,1,1
36235,512.820512820513,4,2,0,40,1,1
37260,571.428571428571,4,2,0,40,1,1
37831,560.747663551402,4,2,0,40,1,1
38952,512.820512820513,4,2,0,40,1,1
41003,555.555555555556,4,2,0,40,1,1
41558,535.714285714286,4,2,0,40,1,1
42629,-100,4,2,0,40,0,0
43700,550.45871559633,4,2,0,40,1,0
44250,625,4,2,0,40,1,0
44875,666.666666666667,4,2,0,40,1,0
45541,888.888888888889,4,2,0,40,1,0
45985,1043.47826086957,4,2,0,40,1,0

[Colours]
Combo1 : 21,128,234
Combo2 : 191,191,64
Combo3 : 234,234,21
Combo4 : 64,64,191

[HitObjects]
304,48,1916,6,2,P|304:136|264:136,1,150.000000596046
204,92,3013,1,0,0:0:0:0:
200,168,3379,1,4,0:0:0:0:
296,212,3758,5,0,0:0:0:0:
352,164,4138,1,0,0:0:0:0:
408,116,4518,1,0,0:0:0:0:
340,88,4897,2,2,P|272:88|232:152,1,150.000000596046
188,212,6022,1,0,0:0:0:0:
188,288,6388,1,4,0:0:0:0:
280,288,6754,5,0,0:0:0:0:
356,288,7120,1,0,0:0:0:0:
280,288,7486,1,0,0:0:0:0:
280,212,7852,2,2,P|280:124|236:124,1,150.000000596046
164,124,8898,1,0,0:0:0:0:
164,200,9255,1,4,0:0:0:0:
240,200,9612,5,0,0:0:0:0:
304,160,9969,1,0,0:0:0:0:
364,116,10344,1,0,0:0:0:0:
432,80,10719,2,2,P|432:168|416:164,1,150.000000596046
380,228,11728,1,0,0:0:0:0:
304,232,12085,1,4,0:0:0:0:
244,188,12442,5,0,0:0:0:0:
168,188,12799,1,0,0:0:0:0:
168,264,13156,1,0,0:0:0:0:
104,224,13513,1,0,0:0:0:0:
168,188,13871,1,0,0:0:0:0:
244,188,14228,1,0,0:0:0:0:
320,192,14580,1,4,0:0:0:0:
244,188,14933,1,4,0:0:0:0:
192,132,15286,5,0,0:0:0:0:
132,88,15639,1,0,0:0:0:0:
64,52,15992,1,0,0:0:0:0:
68,108,16345,2,2,P|68:188|120:188,1,150.000000596046
176,188,17404,1,0,0:0:0:0:
180,264,17757,1,4,0:0:0:0:
312,212,18463,5,0,0:0:0:0:
248,172,18816,5,8,0:0:0:0:
256,192,19169,12,2,21393,0:0:0:0:
256,192,21767,5,8,0:0:0:0:
256,192,22172,12,4,24950,0:0:0:0:
216,336,28721,5,0,0:0:0:0:
140,336,29012,1,0,0:0:0:0:
216,336,29303,1,0,0:0:0:0:
304,336,29631,2,0,P|336:280|272:248,1,150.000000596046
192,240,30472,1,0,0:0:0:0:
192,164,30752,1,4,0:0:0:0:
268,172,31032,5,0,0:0:0:0:
332,208,31313,1,0,0:0:0:0:
400,244,31593,1,0,0:0:0:0:
340,295,31873,2,2,P|268:293|231:231,1,150.000000596046
188,172,32715,1,0,0:0:0:0:
188,96,32995,1,4,0:0:0:0:
264,96,33275,5,0,0:0:0:0:
340,96,33556,1,0,0:0:0:0:
264,96,33836,1,0,0:0:0:0:
279,171,34116,2,2,P|302:236|240:264,1,150.000000596046
164,260,34871,1,0,0:0:0:0:
164,184,35144,1,4,0:0:0:0:
240,184,35417,5,0,0:0:0:0:
304,224,35689,1,0,0:0:0:0:
364,268,35962,1,0,0:0:0:0:
432,303,36235,2,2,P|468:256|456:164,1,150.000000596046
380,156,37004,1,0,0:0:0:0:
304,152,37260,1,4,0:0:0:0:
244,196,37545,5,0,0:0:0:0:
168,196,37831,1,0,0:0:0:0:
168,120,38111,1,0,0:0:0:0:
104,160,38391,1,0,0:0:0:0:
168,196,38672,1,0,0:0:0:0:
244,196,38952,1,0,0:0:0:0:
320,192,39208,1,4,0:0:0:0:
244,196,39464,1,4,0:0:0:0:
192,252,39721,5,0,0:0:0:0:
132,296,39977,1,0,0:0:0:0:
68,336,40234,1,0,0:0:0:0:
68,260,40490,2,2,P|48:202|112:136,1,150.000000596046
164,184,41280,1,0,0:0:0:0:
196,112,41558,1,4,0:0:0:0:
312,172,42093,5,0,0:0:0:0:
248,212,42361,5,8,0:0:0:0:
256,192,42629,12,2,44250,0:0:0:0:
256,192,44562,5,8,0:0:0:0:
256,192,44875,12,4,47028,0:0:0:0:
