osu file format v6

[General]
AudioFilename: Lily Allen - No fair.mp3
AudioLeadIn: 0
PreviewTime: 22764
Countdown: 1
SampleSet: Soft
StackLeniency: 0.7
Mode: 0
LetterboxInBreaks: 1

[Editor]
DistanceSpacing: 0.800000011920929
BeatDivisor: 1
GridSize: 8

[Metadata]
Title:Not Fair
Artist:Lily Allen
Creator:lthefuryl
Version:Hard
Source:
Tags:

[Difficulty]
HPDrainRate:6
CircleSize:5
OverallDifficulty:7
SliderMultiplier:1.4
SliderTickRate:1

[Events]
//Background and Video events
0,0,"lily-allen-not-fair-cover.jpg"
//Break Periods
2,38027,38656
2,53088,53964
2,68644,69767
2,101482,101864
2,115803,125074
2,132593,141370
//Storyboard Layer 0 (Background)
//Storyboard Layer 1 (Fail)
//Storyboard Layer 2 (Pass)
//Storyboard Layer 3 (Foreground)
//Storyboard Sound Samples
//Background Colour Transformations
3,100,163,162,255

[TimingPoints]
7456,493.827160493827,4,2,0,85,1,0

[Colours]
Combo1 : 255,0,128
Combo2 : 0,0,255
Combo3 : 60,240,218
Combo4 : 232,237,39
Combo5 : 128,255,0

[HitObjects]
408,120,7456,1,0
408,176,7702,1,8
352,176,7949,1,0
296,176,8196,1,8
296,232,8443,1,0
352,232,8690,2,0,B|416:232,1,35,8|0
384,312,9184,5,8
328,312,9431,2,0,B|240:312,1,70,0|8
258,312,9925,2,0,B|168:312,1,70,0|8
128,312,10418,1,0
128,256,10665,1,8
128,256,10789,1,0
72,192,11159,5,8
72,136,11406,1,0
72,80,11653,2,0,B|160:80,1,70,8|0
144,24,12147,2,0,B|232:24,1,70,8|0
272,24,12641,1,8
272,24,12764,1,0
272,104,13135,5,8
328,104,13381,1,0
328,160,13628,1,8
384,160,13875,1,0
440,160,14122,1,8
440,216,14369,1,0
440,216,14493,1,0
440,272,14739,1,0
376,320,15110,6,0,B|280:320,1,70,8|0
248,320,15604,2,2,B|160:320,1,70,10|2
64,320,16344,5,0
64,208,16715,1,0
144,208,17085,5,8
144,152,17332,1,0
144,96,17579,1,8
200,96,17826,1,0
312,96,18320,2,2,B|432:96,1,105
416,176,19060,5,8
360,176,19307,2,2,B|288:176,1,70,2|10
232,176,19801,1,0
176,176,20048,2,2,B|176:272,1,70,10|2
176,246,20418,1,0
120,248,20665,1,0
88,328,21036,6,2,B|160:328,1,70,10|2
200,288,21530,2,2,B|280:288,1,70,10|2
312,328,22023,2,2,B|408:328,1,70,10|2
408,328,22394,1,0
440,280,22641,1,0
440,192,23011,5,8
384,192,23258,1,0
384,192,23505,1,8
440,192,23752,1,4
448,40,24493,5,8
448,40,24739,1,0
392,40,24986,1,8
392,40,25233,1,0
336,40,25480,1,8
304,40,25604,1,0
256,232,26468,5,8
256,232,26715,1,0
256,288,26962,1,8
256,288,27209,1,0
200,288,27455,1,8
168,288,27579,1,0
80,288,27949,6,0,B|80:200,1,70,8|0
80,217,28443,2,0,B|80:137|80:135,1,70,8|0
80,147,28937,2,0,B|176:146,1,70,8|0
150,146,29431,2,8,B|225:201|225:201|233:97|233:97|297:161,1,280,8|8
344,160,30665,5,0
344,160,30912,1,8
344,216,31159,1,0
344,216,31406,1,8
344,272,31653,2,0,B|352:344|408:368|456:352|472:264,1,210,0|8
472,216,32641,5,0
472,160,32888,1,8
472,104,33135,1,0
472,48,33381,1,8
472,48,33505,1,0
272,48,34369,5,8
272,48,34616,1,0
272,104,34863,1,8
272,104,35110,1,0
216,104,35357,1,8
216,104,35604,1,0
160,104,35851,6,0,B|160:200,1,70,8|0
216,176,36344,2,0,B|216:264,1,70,8|0
160,248,36838,1,8
160,248,37085,1,0
104,248,37332,1,8
104,360,37826,1,8
56,40,39554,5,2
168,40,40048,1,2
168,152,40542,1,2
280,152,41036,1,0
280,152,41283,1,8
336,152,41530,1,0
336,152,41776,1,8
392,152,42023,1,0
392,152,42270,1,8
392,208,42517,1,0
256,312,43258,6,0,B|256:232,1,70,8|0
256,312,43752,2,0,B|168:312,1,70,8|0
186,312,44246,2,0,B|184:224,1,70,8|0
184,72,45233,6,0,B|184:160,1,70,8|0
184,72,45727,2,0,B|264:72,1,70,8|0
312,72,46221,1,8
368,72,46468,1,0
312,72,46715,1,8
312,128,46962,5,0
312,184,47209,1,8
312,184,47455,1,0
368,184,47702,2,0,B|368:272,1,70,8|0
368,312,48196,1,8
312,312,48443,1,0
200,312,48937,5,0
200,312,49184,1,8
144,312,49431,1,0
144,312,49678,1,8
88,312,49925,2,0,B|88:224,1,70,0|8
88,242,50418,1,0
104,72,51159,5,8
160,72,51406,1,0
160,72,51653,1,8
216,72,51900,1,0
272,72,52147,1,8
328,72,52394,2,0,B|384:32|384:32|464:80,1,140,0|0
40,40,54863,5,2
472,40,55357,5,2
472,344,55851,5,2
40,344,56344,5,2
40,232,56838,5,0
96,232,57085,1,8
40,232,57332,1,0
96,232,57579,1,8
152,232,57826,2,0,B|152:160|152:160|240:160,1,140,0|0
360,64,59060,6,0,B|456:64,1,70,8|0
360,64,59554,2,0,B|360:168,1,70,8|0
360,64,60048,2,0,B|264:64,1,70,8|0
290,64,60542,2,0,B|288:152,1,70,8|0
289,135,61036,2,0,B|207:135,1,70,8|0
288,134,61530,2,0,B|288:225,1,70,8|0
288,137,62023,2,0,B|379:137,1,70,8|0
360,248,62764,5,0
304,248,63011,1,8
248,248,63258,1,0
248,328,63628,1,0
328,328,63999,1,8
384,328,64246,1,0
384,160,64986,5,8
384,160,65233,1,0
384,104,65480,1,8
384,104,65727,1,0
384,48,65974,2,0,B|312:48,1,70,8|0
152,48,66962,5,8
96,48,67209,1,0
152,48,67455,1,8
96,48,67702,1,0
40,48,67949,2,0,B|-8:128|64:208,1,140,8|8
136,96,70665,5,0
192,96,70912,1,8
192,96,71159,1,0
248,96,71406,1,8
248,96,71653,1,0
248,152,71900,1,8
248,152,72023,1,0
328,152,72394,1,8
384,152,72641,5,0
384,208,72888,1,8
440,208,73135,1,0
496,208,73381,1,8
496,264,73628,1,0
496,320,73875,1,8
496,320,73999,1,0
408,320,74369,5,8
352,320,74616,1,0
352,320,74863,1,8
296,320,75110,1,0
264,320,75233,1,0
208,320,75480,1,0
152,320,75727,1,8
152,320,75974,1,0
152,264,76221,1,8
64,264,76591,5,0
64,264,76838,1,8
64,208,77085,1,0
64,208,77332,1,8
64,152,77579,1,0
64,152,77702,1,0
64,96,77949,1,8
144,72,78320,5,0
200,72,78567,1,0
200,72,78814,1,8
256,72,79060,2,0,B|336:72,1,70,0|0
384,72,79554,1,0
440,72,79801,1,8
440,72,79925,1,0
440,152,80295,1,8
384,152,80542,5,0
384,208,80789,1,8
328,208,81036,1,0
328,264,81283,1,8
384,264,81530,1,0
384,320,81776,1,8
384,320,81900,1,0
296,320,82270,6,0,B|200:320,1,70,8|0
168,320,82764,1,8
168,264,83011,1,0
112,264,83258,1,8
56,264,83505,2,0,B|56:184,1,70,0|8
112,192,83999,2,0,B|112:96,1,70,0|8
56,120,84493,6,0,B|56:24,1,70,0|8
55,50,84986,2,0,B|143:50,1,70,0|8
184,48,85480,1,0
240,48,85727,1,8
240,48,85851,1,0
240,48,85974,1,0
256,192,86221,12,4,86962
120,96,87702,5,8
152,144,87949,1,0
184,96,88196,1,8
184,96,88320,1,0
184,96,88443,1,0
240,96,88690,2,0,B|312:96,1,70,8|0
400,240,89678,5,8
344,240,89925,1,0
344,296,90172,1,8
288,296,90418,1,0
232,296,90665,1,8
232,296,90789,1,0
232,296,90912,1,0
176,296,91159,6,0,B|176:368,1,70,8|0
120,368,91653,1,8
64,368,91900,1,0
64,312,92147,2,0,B|16:312,2,35,8|0|0
64,256,92641,1,8
64,200,92888,2,0,B|112:144|112:144|157:208,1,140
208,200,93628,5,8
208,200,93752,1,0
208,200,93875,1,0
264,200,94122,1,8
264,144,94369,1,0
264,144,94616,1,8
320,144,94863,2,0,B|400:144|400:144|400:72,1,140
352,56,95604,5,8
304,24,95851,1,0
256,56,96097,1,8
208,24,96344,1,0
160,56,96591,1,8
160,56,96715,1,0
8,192,97579,5,8
8,192,97826,1,0
64,192,98073,1,8
64,192,98320,1,0
120,192,98567,1,8
120,192,98814,1,0
120,248,99060,1,8
120,248,99307,5,0
120,248,99554,1,8
176,248,99801,1,0
176,248,100048,1,8
176,192,100295,1,0
232,192,100542,1,8
288,192,100789,2,0,B|320:232|328:232|328:128|336:128|384:208,1,140,0|8
40,40,102764,5,2
472,40,103258,5,2
256,344,103752,5,2
256,240,104246,5,0
200,240,104493,1,8
200,184,104739,1,0
144,184,104986,1,8
88,184,105233,1,0
88,184,105480,1,8
88,184,105727,1,0
200,56,106468,6,0,B|280:56,1,70,8|0
328,56,106962,1,8
328,112,107209,1,0
384,112,107455,1,8
384,112,107579,1,0
384,112,107702,1,0
392,280,108443,6,0,B|392:360,1,70,8|0
392,280,108937,2,0,B|304:280,1,70,8|0
392,280,109431,2,0,B|392:200,1,70,8|0
280,208,110172,5,0
280,320,110665,1,0
168,320,111159,1,0
128,280,111406,1,8
88,240,111653,1,0
88,104,112147,6,0,B|184:104,1,70,0|8
88,104,112641,2,0,B|88:16,1,70,0|8
88,104,113135,2,0,B|160:48,1,70,0|8
88,104,113628,1,0
256,104,114369,5,8
312,104,114616,1,0
336,104,114739,1,0
336,160,114986,1,0
392,160,115233,2,0,B|432:224|376:272,1,105,0|0
72,112,125974,5,0
184,112,126468,1,0
184,224,126962,1,0
240,224,127209,1,8
296,224,127455,1,0
136,312,128196,6,0,B|136:232,1,70,8|0
136,312,128690,2,0,B|232:312,1,70,8|0
206,312,129184,2,0,B|206:220,1,70,8|0
207,242,129678,1,8
264,240,129925,1,0
264,240,130172,5,8
264,184,130418,2,0,B|352:184,1,70,0|8
336,128,130912,2,0,B|432:128,1,70,0|8
472,40,131653,2,0,B|408:8|408:8|376:72|376:72|312:40,1,210,8|0
88,80,142270,5,0
200,80,142764,1,0
312,80,143258,1,0
424,80,143752,1,0
424,192,144246,5,0
312,192,144739,1,0
200,192,145233,1,8
200,192,145480,1,8
200,192,145727,1,8
88,192,146221,5,0
88,304,146715,1,0
200,304,147209,1,0
312,304,147702,1,0
424,304,148196,5,0
424,192,148690,1,0
312,192,149184,1,0
312,192,149431,1,8
312,192,149678,1,0
256,192,149925,2,0,B|256:112,1,70,8|0
256,64,150418,2,0,B|168:64,1,70,8|0
128,64,150912,5,8
88,104,151159,1,0
48,144,151406,2,0,B|48:224,1,70,8|0
48,272,151900,1,0
48,272,152023,1,0
240,272,152888,5,8
240,328,153135,1,0
296,328,153381,1,8
320,280,153628,1,0
344,328,153875,1,8
368,280,154122,1,0
448,192,154616,5,0
448,136,154863,1,8
392,136,155110,1,0
392,80,155357,1,8
336,80,155604,2,0,B|248:80,1,70,0|8
264,136,156097,2,0,B|224:184|216:184|208:104|200:104|152:144,1,140,0|0
104,136,156838,5,8
64,176,157085,1,0
56,232,157332,1,8
64,288,157579,1,0
104,328,157826,1,8
160,328,158073,1,0
328,328,158814,6,0,B|408:328,1,70,8|0
400,272,159307,1,8
456,272,159554,1,0
456,216,159801,1,8
456,216,159925,1,0
328,64,160789,6,0,B|256:64,1,70,8|0
256,120,161283,2,0,B|184:120,1,70,8|0
184,176,161776,2,8,B|96:176,1,70,8|0
112,120,162270,5,8
112,120,162517,1,0
112,64,162764,1,8
112,64,163011,1,0
56,64,163258,1,8
56,120,163505,1,0
56,176,163752,2,0,B|56:264,1,70,0|0
256,192,164246,12,4,165974
