osu file format v5

[General]
AudioFilename: Fuck You.mp3
AudioLeadIn: 993
PreviewTime: 36812
Countdown: 0
SampleSet: Normal
StackLeniency: 0.8
Mode: 0
LetterboxInBreaks: 1
EditorDistanceSpacing: 1

[Metadata]
Title:Fuck You
Artist:Lily Allen
Creator:Agent Spin Here
Version:Normal
Source:
Tags:

[Difficulty]
HPDrainRate:4
CircleSize:4
OverallDifficulty:3
SliderMultiplier:1.3
SliderTickRate:1

[Events]
//Background and Video events
0,0,"background.jpg"
//Break Periods
2,68901,74646
//Storyboard Layer 0 (Background)
//Storyboard Layer 1 (Failing)
//Storyboard Layer 2 (Passing)
//Storyboard Layer 3 (Foreground)
//Storyboard Sound Samples
//Background Colour Transformations
3,100,0,0,0

[TimingPoints]
6856,461.538461538462,4,1,0,61,1,0
38965,-100,4,1,0,60,0,1
68812,-100,4,1,0,61,0,0
99888,-100,4,1,0,60,0,1
129273,-100,4,1,0,100,0,0
129427,-100,4,1,0,60,0,1

[Colours]
Combo1 : 255,128,192
Combo2 : 255,0,128
Combo3 : 255,0,255
Combo4 : 255,128,255

[HitObjects]
72,80,8009,2,0,B|160:32|176:96,1,108.333333333333,0|0
224,184,8702,1,4
472,40,9856,5,4
328,136,10548,1,8
232,224,11009,1,8
328,312,11471,1,4
64,296,12394,6,0,B|144:248|48:184|200:136,1,216.666666666667,0|4
456,56,14547,5,0
456,56,14701,1,0
368,56,15008,2,0,B|280:96|296:184|216:160,1,173.333333333333
152,168,15932,1,4
312,224,16548,6,0,B|312:368,1,130
248,224,17471,2,0,B|248:384,1,130
184,224,18394,2,0,B|184:360,1,130
184,224,19317,2,0,B|184:72,1,130
248,224,20240,2,0,B|248:80,1,130,0|4
312,224,21163,2,4,B|312:80,1,130
376,224,22086,1,4
144,88,23009,6,0,B|256:32|384:208,1,260,8|4
112,120,24855,1,8
184,224,25317,1,8
312,224,25779,1,8
312,224,26086,1,4
456,312,26702,6,2,B|368:288|336:328,1,86.6666666666666
264,328,27394,2,0,B|216:344|184:328,1,65,0|8
152,264,27932,1,4
152,152,28317,1,4
472,48,29932,5,8
472,176,30394,1,8
384,272,30855,1,8
288,176,31317,1,8
288,48,31779,1,8
160,48,32240,1,8
160,176,32702,1,8
80,288,33163,1,8
336,336,34086,6,0,B|192:320|200:128,1,260
296,240,35471,1,4
256,192,35625,12,4,39163
192,80,39625,6,8,B|352:80,1,130,8|4
256,192,40548,2,6,B|256:344,1,130
344,320,41317,6,0,B|424:320|424:224,1,130
424,192,41932,1,8
424,64,42394,1,8
312,128,42856,1,4
184,128,43317,1,4
56,128,43779,2,4,B|176:128,1,86.6666666666667
8,128,44548,1,4
360,264,45933,6,0,B|264:200|224:272,1,130,0|4
256,120,46856,2,0,B|240:264,1,130,0|4
112,256,47779,2,0,B|232:232|256:256,1,130,0|4
112,256,48702,1,0
112,208,48856,1,4
112,80,49317,1,4
240,80,49779,1,4
368,88,50240,6,0,B|624:160|176:160|496:184,1,260
448,264,51471,1,0
320,264,51932,1,4
144,264,52548,6,0,B|144:112,3,130,0|0|0|4
256,192,54394,6,0,B|256:336,1,130,8|4
256,192,55317,2,6,B|256:32,1,130
328,104,56009,6,0,B|392:136|392:296,1,195,0|8
280,320,57163,1,8
152,320,57625,2,4,B|80:288|96:184,1,130
152,320,58548,2,4,B|216:312|216:248,1,86.6666666666667
216,136,59317,1,4
392,136,59932,6,2,B|392:288,2,130
264,136,61317,6,0,B|200:184|272:232|184:272,1,130,0|8
152,136,62240,1,8
264,80,62702,6,0,B|344:56|400:104,1,130
264,136,63625,1,8
264,264,64086,1,0
392,264,64548,1,8
400,136,65009,6,0,B|328:112|328:112|328:184|328:184|192:184,1,260
128,184,66240,1,0
128,312,66702,1,4
304,312,67317,6,0,B|464:312,3,130,0|0|0|4
296,248,76086,6,0,B|336:192|272:112,1,130,0|8
192,128,76856,2,0,B|160:192|216:272,1,130
200,296,77471,1,8
328,296,77932,6,0,B|488:296,1,130,0|8
392,240,78702,2,0,B|392:88,1,130
392,64,79317,1,8
304,64,79625,1,0
304,64,79779,1,0
216,64,80086,5,0
216,64,80240,1,0
216,152,80548,1,0
216,280,81009,1,0
216,280,81163,1,8
304,280,81471,2,4,B|376:256|368:152,1,130
216,280,82548,2,6,B|216:136,1,130
456,56,83932,6,2,B|352:56,1,86.6666666666667
88,328,85625,6,6,B|168:296|192:160|360:176,1,303.333333333333,6|8
424,176,87009,1,4
424,304,87471,5,0
424,304,87625,1,8
296,304,88086,2,0,B|192:288|208:208,1,130,0|8
208,144,88856,2,0,B|160:80|72:96,1,130,0|4
352,72,90240,5,0
352,72,90394,1,8
352,200,90856,2,0,B|352:344,1,130,0|8
288,200,91779,2,0,B|288:352,1,130,0|8
160,72,92548,5,0
160,72,92702,1,0
160,200,93163,2,0,B|160:344,1,130,0|2
224,200,94086,2,4,B|224:352,1,130
264,152,94856,5,0
264,152,95009,1,0
264,64,95317,2,0,B|400:64|400:184,1,173.333333333333
400,232,96240,2,4,B|240:232,1,130
256,192,96856,12,4,100086
192,304,100548,6,8,B|352:304,1,130,8|4
256,192,101471,2,6,B|256:40,1,130
344,64,102240,6,0,B|424:64|424:160,1,130
424,192,102856,1,8
424,320,103317,1,8
312,256,103779,1,4
184,256,104240,1,4
56,256,104702,2,4,B|176:256,1,86.6666666666667
8,256,105471,1,4
360,120,106856,6,0,B|264:184|224:112,1,130,0|4
256,264,107779,2,0,B|240:120,1,130,0|4
112,128,108702,2,0,B|232:128|256:136,1,130,0|4
112,128,109625,1,0
112,176,109779,1,4
112,304,110240,1,4
240,304,110702,1,4
368,296,111163,6,0,B|624:224|176:224|496:200,1,260
448,120,112394,1,0
320,120,112856,1,4
144,120,113471,6,0,B|144:272,3,130,0|0|0|4
256,192,115317,6,0,B|256:48,1,130,8|4
256,192,116240,2,6,B|256:352,1,130
328,272,117009,6,0,B|392:240|392:88,1,173.333333333333,0|8
280,64,118086,1,8
152,64,118548,2,4,B|80:96|96:200,1,130
152,64,119471,2,4,B|216:72|216:136,1,86.6666666666667
216,248,120240,1,4
392,248,120856,6,2,B|392:96,2,130
264,248,122240,6,0,B|200:200|272:152|184:112,1,130,0|8
152,248,123163,1,8
264,304,123625,6,0,B|344:328|400:280,1,130
264,248,124548,1,8
264,120,125009,1,0
392,120,125471,1,8
400,248,125932,6,0,B|328:272|328:272|328:200|328:200|192:200,1,260
128,200,127163,1,0
128,72,127625,1,4
304,72,128240,6,0,B|464:72,3,130,0|0|0|4
