osu file format v5

[General]
AudioFilename: Fuck You.mp3
AudioLeadIn: 993
PreviewTime: 36812
Countdown: 0
SampleSet: Normal
StackLeniency: 0.8
Mode: 0
LetterboxInBreaks: 1
EditorDistanceSpacing: 1

[Metadata]
Title:Fuck You
Artist:Lily Allen
Creator:Agent Spin Here
Version:Hard
Source:
Tags:

[Difficulty]
HPDrainRate:7
CircleSize:5
OverallDifficulty:7
SliderMultiplier:1.4
SliderTickRate:1

[Events]
//Background and Video events
0,0,"background.jpg"
//Break Periods
2,68901,75185
2,129824,132878
2,143670,154570
//Storyboard Layer 0 (Background)
//Storyboard Layer 1 (Failing)
//Storyboard Layer 2 (Passing)
4,2,1,"lol.png",348,267 M,1,143471,143932,201,316,348,267 R,0,143471,143932,-0.4095996,-0.08191922 F,0,143702,143702,1,1 F,0,143702,143932,1,1 F,0,143932,144163,1,0 S,0,143932,143932,0.75424,0.75424
4,2,1,"star.png",306,343 M,1,143471,143932,198,320,306,343 R,0,143471,144163,0.45056,4.25984 F,0,143932,144163,1,0 S,0,143932,143932,0.6928003,0.6928003
4,2,1,"star.png",293,210 M,1,143471,143932,200,315,293,210 R,0,143471,144163,0,6.06208 F,0,143932,144163,1,0 S,0,143932,143932,0.5494398,0.5494398
4,2,1,"star.png",361,348 M,1,143471,143932,197,316,361,348 S,0,143471,143471,0.6518402,0.6518402 R,0,143471,144163,0,4.13696 F,0,143932,144163,1,0
4,2,1,"star.png",333,191 M,1,143471,143932,197,314,333,191 S,0,143471,143471,0.5699197,0.5699197 R,0,143471,144163,0,4.01408 F,0,143932,144163,1,0
//Storyboard Layer 3 (Foreground)
4,3,1,"Fuck you.png",274,257 M,0,136963,136963,274,257,274,257 F,0,136963,137425,0,1 S,0,136963,136963,1.34816,1.34816 F,0,137425,138348,1,1 F,0,138348,141579,1,1 F,0,141579,141925,1,0
//Storyboard Sound Samples
//Background Colour Transformations
3,100,0,0,0

[TimingPoints]
6856,461.538461538462,4,1,0,60,1,0
38963,-100,4,1,0,60,0,0
68812,-100,4,1,0,60,0,0
99888,-100,4,1,0,60,0,0
129273,-100,4,1,0,60,0,0
129427,-100,4,1,0,60,0,0
133581,-100,4,2,0,60,0,0
136350,-100,4,1,0,60,0,0
137373,-100,4,2,0,60,0,0
142965,-100,4,2,0,60,0,0
143663,-100,4,1,0,60,0,0
157119,-100,4,1,0,100,0,0
159208,-100,4,1,0,60,0,0
160909,-100,4,1,0,60,0,0

[Colours]
Combo1 : 255,128,192
Combo2 : 255,0,128
Combo3 : 255,0,255
Combo4 : 255,128,255

[HitObjects]
368,104,6855,5,8
408,128,7008,1,0
368,152,7162,1,0
408,176,7316,1,0
368,200,7470,1,0
408,224,7624,1,0
368,248,7778,1,4
272,248,8085,6,0,B|184:248|184:200,1,93.3333333333333
192,112,8701,1,4
48,112,9162,1,8
48,248,9624,1,8
144,248,9932,6,0,B|120:336|216:320,1,116.666666666667
232,280,10548,2,0,B|256:232|312:272,1,93.3333333333333
312,320,11009,2,0,B|360:360|408:312,1,93.3333333333333
400,272,11471,1,4
272,80,12239,5,0
272,128,12393,2,0,B|248:200|200:112,1,93.3333333333333
208,80,12855,1,0
112,80,13162,2,4,B|112:232,1,140
296,80,14548,5,0
296,128,14702,1,0
296,224,15009,2,0,B|200:136,1,116.666666666667
160,144,15625,1,0
160,240,15932,1,4
376,232,16779,5,2
272,232,17240,2,0,B|240:176|296:112,1,116.666666666667
368,128,17932,1,4
16,104,19162,5,0
64,104,19316,2,0,B|128:104|200:104,1,93.3333333333333
160,152,19778,2,0,B|264:152,1,93.3333333333333
256,104,20239,1,8
304,104,20393,1,0
352,104,20547,1,0
392,104,20701,6,2,B|392:256,1,140
392,104,21624,6,2,B|480:216,2,140,6|2|6
248,104,23008,6,0,B|208:112|208:184,1,93.3333333333333
344,176,23702,1,4
64,176,24701,5,0
64,224,24855,2,0,B|96:280|168:240,1,93.3333333333333,8|0
152,208,25316,2,0,B|192:160|256:216,1,93.3333333333333
232,248,25778,1,0
328,248,26085,1,4
328,152,26547,5,0
328,104,26701,2,2,B|304:64|240:64,1,93.3333333333333
248,160,27316,2,0,B|120:160,1,93.3333333333333
64,160,27932,2,4,B|64:304,1,140
192,160,29008,5,8
240,160,29162,1,0
288,160,29316,1,0
336,160,29470,1,8
384,160,29624,1,0
432,160,29778,1,0
480,160,29932,1,4
480,256,30239,5,0
384,256,30547,1,0
292,256,30855,2,0,B|404:256,1,93.3333333333333
384,352,31470,1,0
293,256,31778,2,0,B|293:368,1,93.3333333333333
192,352,32393,1,0
192,256,32701,2,0,B|192:136,1,93.3333333333333
472,56,33856,5,0
400,56,34086,2,0,B|336:64|336:104,1,70,8|0
416,112,34547,2,0,B|400:184|360:168,1,70,8|0
312,176,35008,1,8
216,176,35317,2,4,B|120:152|128:280,1,140,4|4
256,192,35932,12,4,39162
192,80,39624,5,8
320,80,40086,1,8
256,208,40547,1,2
256,344,41008,1,4
352,344,41316,6,0,B|448:320|448:248,1,140
400,248,41932,2,0,B|304:248,1,93.3333333333333
304,200,42393,2,0,B|400:200,1,93.3333333333333,8|0
400,152,42855,2,8,B|224:152,2,140,0|8|0
400,152,44085,2,0,B|376:88|272:88,1,140,0|4
400,152,45008,5,0
400,200,45162,1,4
400,336,45624,1,4
256,336,46085,1,4
256,200,46547,6,0,B|224:128|144:128,1,140,0|8
64,240,47316,1,0
64,240,47470,1,0
64,336,47778,1,0
64,336,47932,1,8
256,200,48393,6,0,B|288:128|368:128,1,140,0|8
448,240,49162,1,0
448,240,49316,1,0
448,336,49624,1,8
448,336,49778,1,4
312,288,50239,6,2,B|160:288,1,140
256,160,51162,2,2,B|256:56,1,93.3333333333333
256,208,51932,1,4
264,352,52393,5,0
264,304,52547,2,0,B|376:304,1,93.3333333333333
400,304,53008,2,0,B|400:192,1,93.3333333333333
352,208,53470,2,0,B|256:208,1,93.3333333333333
208,208,53932,1,4
256,72,54393,5,8
112,72,54855,1,4
256,72,55316,1,2
392,72,55778,1,4
256,192,56009,6,0,B|256:360,1,140
304,328,56701,2,2,B|392:264,1,93.3333333333333
336,264,57162,2,2,B|312:160,1,93.3333333333333
360,176,57624,2,4,B|512:176,1,140
360,176,58547,2,4,B|264:136,1,93.3333333333333
136,136,59316,1,4
136,184,59470,6,2,B|136:296,1,93.3333333333333
184,280,59932,1,4
320,280,60393,1,4
456,280,60855,1,4
456,184,61162,6,2,B|424:112|336:128,1,140
248,128,61932,1,2
200,128,62085,1,0
152,128,62239,1,2
152,224,62547,2,2,B|152:296,1,46.6666666666667
248,272,63008,1,2
248,272,63162,1,2
344,272,63471,2,2,B|440:240|440:184,1,116.666666666667
344,176,64393,5,0
296,176,64547,1,8
320,136,64701,1,0
320,88,64855,1,0
320,40,65008,2,2,B|320:208,1,140
320,320,65932,2,2,B|320:224,1,93.3333333333333
176,216,66701,2,2,B|72:152|152:32|272:168|248:280|424:200|400:48,1,466.666666666667
312,120,68701,1,4
72,144,76085,6,0,B|112:72|184:112,1,93.3333333333333
144,144,76547,1,8
144,240,76855,2,0,B|224:240|208:136,1,140
256,144,77470,1,8
352,144,77778,1,0
304,144,77932,1,0
400,144,78239,1,0
448,144,78393,1,8
448,240,78701,1,0
448,192,78855,1,0
448,96,79162,1,0
448,144,79316,1,8
352,144,79624,5,0
352,144,79778,1,0
352,240,80085,1,0
352,240,80239,1,0
256,240,80547,1,2
208,240,80701,1,2
112,240,81008,1,0
112,240,81162,1,8
112,96,81624,6,6,B|272:96,1,140
112,168,82547,6,2,B|272:168,1,140
328,168,83316,5,0
328,168,83470,1,8
464,168,83932,6,6,B|464:280,1,93.3333333333333
464,72,84855,1,8
320,72,85316,1,0
176,72,85778,1,8
176,168,86085,5,0
176,216,86239,2,0,B|208:256|272:248,1,93.3333333333333
256,200,86701,1,8
352,200,87008,1,4
480,264,87470,5,0
480,264,87624,2,0,B|496:336|416:344,1,93.3333333333333,8|0
392,336,88085,2,0,B|328:336|328:264,1,93.3333333333333
336,232,88547,1,8
272,296,88855,2,4,B|216:288|216:176,1,140
40,40,90239,5,0
88,40,90393,1,8
184,40,90701,1,0
232,40,90855,2,0,B|216:120|304:128,1,93.3333333333333
312,120,91316,1,0
408,120,91624,1,4
408,256,92085,1,0
408,208,92239,1,12
312,208,92547,5,0
264,208,92701,2,0,B|200:224|208:296,1,93.3333333333333
256,272,93162,1,0
256,368,93470,2,2,B|312:368|312:368|312:240,1,140
312,240,94085,1,6
136,80,94855,5,0
184,80,95008,1,8
280,80,95316,2,0,B|376:80|336:200,1,140
344,224,95932,1,8
416,288,96239,2,4,B|472:136,1,140
256,192,96855,12,4,100085
320,88,100547,5,8
192,88,101009,1,8
256,208,101470,1,2
256,344,101932,1,4
160,344,102239,6,0,B|64:320|64:248,1,140
112,248,102855,2,0,B|208:248,1,93.3333333333333
208,200,103316,2,0,B|112:200,1,93.3333333333333,8|0
112,152,103778,2,8,B|288:152,2,140,0|8|0
112,152,105008,2,0,B|136:88|240:88,1,140,0|4
112,152,105932,5,0
112,200,106085,1,4
112,336,106547,1,4
256,336,107008,1,4
256,200,107470,6,0,B|288:128|368:128,1,140,0|8
448,240,108239,1,0
448,240,108393,1,0
448,336,108701,1,0
448,336,108855,1,8
256,200,109316,6,0,B|224:128|144:128,1,140,0|8
64,240,110085,1,0
64,240,110239,1,0
64,336,110547,1,8
64,336,110701,1,4
192,288,111162,6,2,B|344:288,1,140
256,160,112085,2,2,B|256:56,1,93.3333333333333
256,208,112855,1,4
248,352,113316,5,0
248,304,113470,2,0,B|136:304,1,93.3333333333333
112,304,113932,2,0,B|112:192,1,93.3333333333333
160,208,114393,2,0,B|256:208,1,93.3333333333333
304,208,114855,1,4
256,72,115316,5,8
400,72,115778,1,4
256,72,116239,1,2
120,72,116701,1,4
256,192,116932,6,0,B|256:360,1,140
208,328,117624,2,2,B|120:264,1,93.3333333333333
176,264,118085,2,2,B|200:160,1,93.3333333333333
152,176,118547,2,4,B|0:176,1,140
152,176,119470,2,4,B|248:136,1,93.3333333333333
376,136,120239,1,4
376,184,120393,6,2,B|376:296,1,93.3333333333333
328,280,120855,1,4
192,280,121316,1,4
56,280,121778,1,4
56,184,122085,6,2,B|88:112|160:128,1,116.666666666667
264,128,122855,1,2
312,128,123008,1,0
360,128,123162,1,2
360,224,123470,2,2,B|360:296,1,46.6666666666667
264,272,123932,1,2
264,272,124085,1,2
168,272,124393,2,2,B|72:240|88:184,1,116.666666666667
168,176,125316,5,0
216,176,125470,1,8
192,136,125624,1,0
192,88,125778,1,0
192,40,125932,2,2,B|192:208,1,140
192,320,126855,2,2,B|192:224,1,93.3333333333333
336,216,127624,2,2,B|440:152|360:32|240:168|264:280|88:200|112:48,1,466.666666666667
200,120,129624,1,4
72,184,133778,6,4,B|72:344,1,140
152,136,134701,6,6,B|152:296,1,140
232,88,135624,6,14,B|232:248,1,140,14|14
232,88,136547,5,8
272,104,136701,1,0
312,88,136855,1,0
352,112,137008,1,8
392,88,137162,1,0
424,112,137316,1,0
424,160,137470,5,4
360,280,137932,6,0,B|352:360|432:352|416:264,8,140,0|8|0|8|0|8|0|8|0
392,232,142547,5,4
128,152,143162,5,0
128,176,143239,1,0
128,200,143316,1,0
128,224,143393,1,0
128,248,143470,1,4
120,112,155470,5,0
256,112,155931,1,0
392,112,156393,1,0
392,248,156855,1,0
248,248,157316,5,0
200,248,157470,1,0
152,248,157624,1,0
104,248,157778,1,0
104,200,157931,1,0
152,200,158085,1,0
200,200,158239,1,0
248,200,158393,1,0
248,152,158547,1,0
200,152,158701,1,0
200,104,158855,1,0
248,104,159008,1,0
248,56,159162,1,0
200,56,159316,5,0
152,56,159470,1,0
152,104,159624,1,0
152,152,159778,1,0
104,152,159931,1,0
104,104,160085,1,0
104,56,160239,1,0
56,56,160393,1,0
56,104,160547,1,0
56,152,160701,1,0
56,200,160855,1,0
56,248,161008,1,4
192,296,161470,5,8
288,296,161778,1,0
328,296,161931,1,4
256,176,162393,1,2
256,80,162701,1,0
256,40,162855,1,4
352,40,163086,6,0,B|448:64|448:136,1,140
400,136,163778,2,0,B|304:136,1,93.3333333333333
304,184,164239,2,0,B|400:184,1,93.3333333333333,8|0
400,232,164701,2,8,B|224:232,2,140,0|8|0
400,232,165931,2,0,B|376:296|272:296,1,140,0|4
400,232,166855,5,0
400,184,167008,1,4
400,48,167470,1,4
352,48,167624,1,0
304,48,167778,1,0
256,48,167931,1,4
256,96,168085,1,0
256,144,168239,1,0
256,184,168393,6,0,B|224:256|144:256,1,140,0|8
64,144,169162,1,0
64,144,169316,1,0
64,96,169470,1,0
64,48,169624,1,0
64,48,169778,1,8
256,184,170239,6,0,B|288:256|368:256,1,140,0|8
448,144,171008,1,0
448,144,171162,1,0
448,96,171316,1,0
448,48,171470,1,8
448,48,171624,1,4
320,104,172085,6,2,B|168:104,1,140
256,224,173008,2,2,B|256:328,1,93.3333333333333
256,176,173778,1,4
256,40,174239,5,0
256,88,174393,2,0,B|368:88,1,93.3333333333333
392,88,174855,2,0,B|392:200,1,93.3333333333333
344,184,175316,2,0,B|248:184,1,93.3333333333333
200,184,175778,1,4
256,312,176239,5,8
112,312,176547,1,0
112,312,176701,1,4
256,312,177162,1,2
400,312,177471,1,0
400,312,177625,1,4
256,192,177856,6,0,B|256:24,1,140
304,56,178547,2,2,B|392:120,1,93.3333333333333
336,120,179008,2,2,B|312:224,1,93.3333333333333
360,208,179470,2,4,B|512:208,1,140
360,208,180393,2,4,B|264:248,1,93.3333333333333
176,248,181008,5,0
176,248,181162,1,4
136,200,181316,6,2,B|136:88,1,93.3333333333333
184,104,181778,1,4
320,104,182085,1,0
320,104,182239,1,4
456,104,182547,1,0
456,104,182701,1,4
456,200,183008,6,2,B|424:272|344:248,1,116.666666666667
248,256,183778,1,2
200,256,183931,1,0
152,256,184085,1,2
152,160,184393,2,2,B|152:88,1,46.6666666666667
248,112,184855,1,2
248,112,185008,1,2
344,112,185316,2,2,B|440:144|440:248,1,140
344,208,186239,5,0
296,208,186393,1,8
320,248,186547,1,0
320,296,186701,1,0
320,344,186855,2,2,B|320:176,1,140
320,64,187778,2,2,B|320:160,1,93.3333333333333
176,168,188547,2,2,B|72:232|152:352|272:216|248:104|424:184|400:336,1,466.666666666667
312,264,190547,1,4
256,192,191008,12,4,194239
