osu file format v13

[General]
AudioFilename: Lily_Allen_-_Air_Balloon.mp3
AudioLeadIn: 0
PreviewTime: -1
Countdown: 1
SampleSet: Soft
StackLeniency: 0.7
Mode: 0
LetterboxInBreaks: 1
WidescreenStoryboard: 1

[Editor]
Bookmarks: 25375,28533,31059
DistanceSpacing: 1.1
BeatDivisor: 4
GridSize: 8
TimelineZoom: 1

[Metadata]
Title:Air Balloon
TitleUnicode:Air Balloon
Artist:Lily Allen
ArtistUnicode:Lily Allen
Creator:Lizzehb
Version:Hard
Source:Sheezus
Tags:
BeatmapID:453921
BeatmapSetID:190668

[Difficulty]
HPDrainRate:5
CircleSize:5
OverallDifficulty:6
ApproachRate:6
SliderMultiplier:1.8
SliderTickRate:1

[Events]
//Background and Video events
0,0,"lily-allen-air-balloon.jpg",0,0
//Break Periods
2,33154,38220
2,62206,72325
2,103891,108641
//Storyboard Layer 0 (Background)
//Storyboard Layer 1 (Fail)
//Storyboard Layer 2 (Pass)
//Storyboard Layer 3 (Foreground)
//Storyboard Sound Samples
//Background Colour Transformations
3,100,163,162,255

[TimingPoints]
6428.00441861603,631.578947368421,4,2,0,100,1,0
43059,-100,4,2,0,100,0,1
62322,-100,4,2,0,100,0,0
113796,-100,4,2,0,100,0,1
134638,-100,4,2,0,100,0,0

[Colours]
Combo1 : 128,0,255
Combo2 : 128,255,255
Combo3 : 0,255,128
Combo4 : 213,0,213

[HitObjects]
424,64,2322,5,0,0:0:0:0:
312,80,2638,1,0,0:0:0:0:
312,112,2796,1,0,0:0:0:0:
312,144,2954,1,0,0:0:0:0:
216,112,3270,2,0,L|120:112,1,90,8|0,0:0|0:0,0:0:0:0:
152,208,3901,1,0,0:0:0:0:
80,272,4217,5,0,0:0:0:0:
152,336,4533,1,8,0:0:0:0:
232,272,4849,1,0,0:0:0:0:
152,208,5164,1,0,0:0:0:0:
152,208,5322,1,0,0:0:0:0:
152,208,5480,1,0,0:0:0:0:
248,176,5796,1,8,0:0:0:0:
336,128,6112,1,0,0:0:0:0:
336,224,6428,1,0,0:0:0:0:
320,320,6743,5,0,0:0:0:0:
416,320,7059,1,8,0:0:0:0:
464,232,7375,1,0,0:0:0:0:
464,232,7533,1,0,0:0:0:0:
464,232,7691,1,0,0:0:0:0:
152,208,8006,5,0,0:0:0:0:
184,112,8322,1,8,0:0:0:0:
112,176,8638,1,0,0:0:0:0:
208,160,8954,1,0,0:0:0:0:
120,120,9270,1,0,0:0:0:0:
192,184,9585,1,8,0:0:0:0:
120,120,9901,1,0,0:0:0:0:
56,200,10217,5,0,0:0:0:0:
56,200,10375,1,0,0:0:0:0:
56,200,10533,1,0,0:0:0:0:
152,224,10849,1,8,0:0:0:0:
120,320,11164,1,0,0:0:0:0:
216,352,11480,1,0,0:0:0:0:
312,320,11796,5,0,0:0:0:0:
408,320,12112,1,8,0:0:0:0:
408,224,12428,1,0,0:0:0:0:
408,224,12585,1,0,0:0:0:0:
408,224,12743,1,0,0:0:0:0:
360,112,13059,5,0,0:0:0:0:
288,184,13375,1,8,0:0:0:0:
320,88,13691,1,0,0:0:0:0:
328,184,14006,1,0,0:0:0:0:
280,96,14322,1,0,0:0:0:0:
192,144,14638,1,8,0:0:0:0:
96,152,14954,1,0,0:0:0:0:
160,232,15270,5,0,0:0:0:0:
160,232,15428,1,0,0:0:0:0:
160,232,15585,1,0,0:0:0:0:
256,192,15901,12,8,17164,0:0:0:0:
256,192,17480,5,0,0:0:0:0:
256,192,17638,1,0,0:0:0:0:
256,192,17796,1,0,0:0:0:0:
200,112,18112,2,0,B|168:80|168:80|120:112,1,90,0|8,0:0|0:0,0:0:0:0:
120,200,18743,2,0,B|157:175|157:175|189:207,1,90
184,304,19375,2,0,B|152:272|152:272|114:296,1,90,0|8,0:0|0:0,0:0:0:0:
40,360,20006,1,0,0:0:0:0:
40,264,20322,6,0,L|64:216,2,45,0|0|0,0:0|0:0|0:0,0:0:0:0:
32,168,20954,1,8,0:0:0:0:
112,112,21270,1,0,0:0:0:0:
192,168,21585,1,0,0:0:0:0:
256,192,22217,12,0,22849,0:0:0:0:
312,144,23638,5,0,0:0:0:0:
312,144,23796,1,0,0:0:0:0:
312,144,24112,2,0,P|192:32|64:176,1,360
256,304,26638,1,2,0:0:0:0:
408,80,27270,1,2,0:0:0:0:
136,88,27901,1,2,0:0:0:0:
16,232,29164,6,0,B|272:232|272:232|288:200|304:112|472:120|472:232,1,540
376,224,31691,1,2,0:0:0:0:
376,256,32322,1,2,0:0:0:0:
376,288,32954,1,2,0:0:0:0:
256,192,39270,12,0,42428,0:0:0:0:
256,192,43059,5,0,0:0:0:0:
256,112,43375,1,0,0:0:0:0:
256,72,43533,1,0,0:0:0:0:
256,32,43691,1,8,0:0:0:0:
352,64,44006,2,0,P|400:64|432:104,2,90,0|0|0,0:0|0:0|0:0,0:0:0:0:
296,152,44954,2,0,P|339:153|373:124,1,90,8|0,0:0|0:0,0:0:0:0:
280,80,45585,5,0,0:0:0:0:
280,80,45743,1,0,0:0:0:0:
280,80,45901,1,0,0:0:0:0:
184,88,46217,2,0,B|128:120|128:120|184:152|184:152|136:192,1,180,8|0,0:0|0:0,0:0:0:0:
48,192,47164,1,0,0:0:0:0:
48,288,47480,1,8,0:0:0:0:
240,344,48112,6,0,B|240:240|240:240|312:232|312:168,1,180,0|8,0:0|0:0,0:0:0:0:
184,40,49375,6,0,B|175:67|247:75|247:75|247:179,1,180,0|8,0:0|0:0,0:0:0:0:
392,40,50638,6,0,B|400:67|328:75|328:75|328:179,1,180,0|8,0:0|0:0,0:0:0:0:
440,336,51901,1,0,0:0:0:0:
368,272,52217,2,0,L|280:184,1,90,0|8,0:0|0:0,0:0:0:0:
272,176,52691,1,0,0:0:0:0:
232,144,52849,1,0,0:0:0:0:
200,112,53006,2,0,L|152:64,1,45,0|0,0:0|0:0,0:0:0:0:
264,72,53480,5,0,0:0:0:0:
264,72,53638,1,0,0:0:0:0:
264,72,53796,1,8,0:0:0:0:
360,104,54112,2,0,P|400:64|456:88,1,90
432,168,54743,2,0,P|472:208|448:264,1,90,0|8,0:0|0:0,0:0:0:0:
368,240,55375,2,0,P|328:280|272:256,1,90
288,176,56006,2,0,P|285:132|250:106,1,90,0|8,0:0|0:0,0:0:0:0:
176,176,56638,1,0,0:0:0:0:
104,240,56954,1,0,0:0:0:0:
80,40,57585,5,8,0:0:0:0:
80,40,57743,1,0,0:0:0:0:
80,40,57901,1,0,0:0:0:0:
72,136,58217,2,0,B|120:136|120:136|120:184|120:184|160:184|160:184|160:232,1,180,0|8,0:0|0:0,0:0:0:0:
336,136,59480,2,0,B|288:136|288:136|288:184|288:184|248:184|248:184|248:232,1,180,0|8,0:0|0:0,0:0:0:0:
448,256,60743,2,0,B|400:256|400:256|400:304|400:304|360:304|360:304|360:352,1,180,0|8,0:0|0:0,0:0:0:0:
448,168,62006,1,4,0:0:0:0:
160,248,73375,5,0,0:0:0:0:
160,200,73533,1,0,0:0:0:0:
160,200,73691,1,0,0:0:0:0:
256,240,74006,2,0,P|296:264|336:248,1,90,2|0,0:0|0:0,0:0:0:0:
296,160,74638,2,0,P|319:123|306:82,1,90
208,112,75270,2,0,P|171:88|130:101,1,90,2|0,0:0|0:0,0:0:0:0:
160,216,75901,1,0,0:0:0:0:
160,216,76059,1,0,0:0:0:0:
160,216,76217,1,0,0:0:0:0:
80,272,76533,5,2,0:0:0:0:
80,176,76849,1,0,0:0:0:0:
80,272,77164,1,0,0:0:0:0:
160,216,77480,2,0,L|256:216,1,90,0|2,0:0|0:0,0:0:0:0:
344,216,78112,1,8,0:0:0:0:
384,184,78270,1,8,0:0:0:0:
384,136,78428,1,0,0:0:0:0:
344,104,78585,1,0,0:0:0:0:
296,120,78743,5,0,0:0:0:0:
248,208,79059,1,8,0:0:0:0:
160,152,79375,1,0,0:0:0:0:
296,120,79691,1,0,0:0:0:0:
248,208,80006,1,0,0:0:0:0:
200,288,80322,1,8,0:0:0:0:
328,288,80638,1,0,0:0:0:0:
424,288,80954,5,0,0:0:0:0:
472,288,81112,1,0,0:0:0:0:
472,288,81270,1,0,0:0:0:0:
456,192,81585,1,8,0:0:0:0:
456,96,81901,1,0,0:0:0:0:
368,144,82217,1,0,0:0:0:0:
272,144,82533,6,0,L|152:144,1,90,0|8,0:0|0:0,0:0:0:0:
136,56,83164,2,0,L|88:24,1,45
64,56,83480,2,0,L|112:24,1,45
101,31,83796,1,0,0:0:0:0:
96,128,84112,2,0,L|96:240,1,90,8|0,0:0|0:0,0:0:0:0:
192,192,84743,2,0,L|320:192,1,90
224,272,85375,2,0,L|136:344,1,90,8|0,0:0|0:0,0:0:0:0:
104,248,86006,1,0,0:0:0:0:
104,248,86164,1,0,0:0:0:0:
104,248,86322,1,0,0:0:0:0:
104,152,86638,6,0,L|224:104,1,90,8|0,0:0|0:0,0:0:0:0:
256,184,87270,1,0,0:0:0:0:
408,152,87585,2,0,L|288:104,1,90,0|8,0:0|0:0,0:0:0:0:
256,184,88217,5,0,0:0:0:0:
256,232,88375,1,0,0:0:0:0:
256,280,88533,1,0,0:0:0:0:
256,328,88691,1,0,0:0:0:0:
256,328,88849,1,0,0:0:0:0:
352,296,89164,2,0,B|416:296|416:296|416:256,1,90,8|0,0:0|0:0,0:0:0:0:
352,192,89796,6,0,B|352:218|352:218|288:218,1,90
240,128,90428,1,8,0:0:0:0:
160,184,90743,1,0,0:0:0:0:
176,280,91059,1,0,0:0:0:0:
176,280,91217,1,0,0:0:0:0:
176,280,91375,1,0,0:0:0:0:
104,352,91691,2,0,P|69:326|79:285,2,90,8|0|0,0:0|0:0|0:0,0:0:0:0:
256,192,92954,12,0,94217,0:0:0:0:
384,280,94533,5,0,0:0:0:0:
312,208,94849,2,0,B|360:208|360:168|360:144|312:144|264:144|264:208|264:264|312:264|360:264|392:264|392:208|392:168|392:144|392:104|328:104|280:104|240:104|240:168|240:224|240:264|320:288,1,540
240,88,97375,2,2,P|112:88|200:256,1,360
352,224,99270,1,0,0:0:0:0:
352,224,99428,1,0,0:0:0:0:
352,224,99585,1,0,0:0:0:0:
352,128,99901,6,2,B|352:80|352:80|296:80|296:80|296:144|296:144|240:144|240:144|240:80|240:80|184:80|184:80|184:144|184:144|128:144|128:144|128:64,1,540
96,264,102428,2,2,P|264:336|432:248,1,360
256,192,109691,12,0,112533,0:0:0:0:
256,192,112849,5,0,0:0:0:0:
256,96,113164,1,0,0:0:0:0:
304,112,113322,1,0,0:0:0:0:
336,144,113480,1,0,0:0:0:0:
344,192,113638,1,0,0:0:0:0:
328,240,113796,1,4,0:0:0:0:
232,256,114112,6,0,L|120:312,1,90,0|8,0:0|0:0,0:0:0:0:
160,200,114743,2,0,L|48:144,1,90
160,104,115375,2,0,L|240:63,1,90,0|8,0:0|0:0,0:0:0:0:
288,152,116006,1,0,0:0:0:0:
344,232,116322,1,0,0:0:0:0:
344,232,116480,1,0,0:0:0:0:
344,232,116638,1,0,0:0:0:0:
256,280,116954,6,0,L|192:320,2,45,8|0|0,0:0|0:0|0:0,0:0:0:0:
344,232,117585,1,0,0:0:0:0:
200,96,118217,1,8,0:0:0:0:
168,56,118375,1,0,0:0:0:0:
136,96,118533,1,0,0:0:0:0:
160,192,118849,2,0,P|152:296|240:288,1,180,0|8,0:0|0:0,0:0:0:0:
352,192,120112,2,0,P|360:296|272:288,1,180,0|8,0:0|0:0,0:0:0:0:
256,120,121375,2,0,L|256:312,1,180,0|8,0:0|0:0,0:0:0:0:
88,192,122638,1,4,0:0:0:0:
96,288,122954,5,0,0:0:0:0:
184,336,123270,1,0,0:0:0:0:
208,296,123428,1,0,0:0:0:0:
200,248,123585,1,0,0:0:0:0:
152,240,123743,1,0,0:0:0:0:
152,240,123901,1,0,0:0:0:0:
208,160,124217,6,0,L|280:160,2,45,0|0|8,0:0|0:0|0:0,0:0:0:0:
120,120,124849,2,0,P|64:128|56:176,1,90
120,224,125480,2,0,P|95:188|52:190,1,90,0|8,0:0|0:0,0:0:0:0:
48,272,126112,1,0,0:0:0:0:
136,320,126428,2,0,L|256:320,1,90
192,224,127059,1,8,0:0:0:0:
192,224,127217,1,0,0:0:0:0:
192,224,127375,1,0,0:0:0:0:
192,128,127691,2,0,L|288:128,1,90
296,224,128322,5,8,0:0:0:0:
296,272,128480,1,0,0:0:0:0:
296,320,128638,1,0,0:0:0:0:
208,272,128954,2,0,L|80:144,1,180,0|8,0:0|0:0,0:0:0:0:
264,216,130217,2,0,L|136:88,1,180,0|8,0:0|0:0,0:0:0:0:
208,272,131480,2,8,L|80:144,1,180,0|8,0:0|0:0,0:0:0:0:
256,192,132428,12,0,134006,0:0:0:0:
