osu file format v9

[General]
AudioFilename: LilyScarlet_Rose.mp3
AudioLeadIn: 0
PreviewTime: 18750
Countdown: 0
SampleSet: Normal
StackLeniency: 0.7
Mode: 0
LetterboxInBreaks: 1

[Editor]
Bookmarks: 90503,152843,152984
DistanceSpacing: 1
BeatDivisor: 8
GridSize: 4

[Metadata]
Title:Scarlet Rose
Artist:Lily
Creator:neko0987
Version:Normal
Source:seleP
Tags:Vocaloid yuukikira

[Difficulty]
HPDrainRate:7
CircleSize:4
OverallDifficulty:7
ApproachRate:9
SliderMultiplier:1.6
SliderTickRate:2

[Events]
//Background and Video events
0,0,"383483-vocaloid_lily_.jpg"
//Break Periods
//Storyboard Layer 0 (Background)
//Storyboard Layer 1 (Fail)
//Storyboard Layer 2 (Pass)
//Storyboard Layer 3 (Foreground)
//Storyboard Sound Samples
//Background Colour Transformations
3,100,163,162,255

[TimingPoints]
-16,187.5,4,1,1,80,1,0
18734,-100,4,1,1,85,0,1
19812,-100,4,1,2,85,0,1
19905,-100,4,1,1,85,0,1
21312,-100,4,1,2,85,0,1
21405,-100,4,1,1,85,0,1
22812,-100,4,1,2,85,0,1
22905,-100,4,1,1,85,0,1
24312,-100,4,1,2,85,0,1
24405,-100,4,1,1,85,0,1
25812,-100,4,1,2,85,0,1
25905,-100,4,1,1,85,0,1
27312,-100,4,1,2,85,0,1
27405,-100,4,1,1,85,0,1
28812,-100,4,1,2,85,0,1
28905,-100,4,1,1,85,0,1
30593,-100,4,1,2,85,0,1
30734,-100,4,1,1,80,0,0
42734,-133.333333333333,4,1,1,65,0,0
43812,-133.333333333333,4,1,2,65,0,0
43905,-133.333333333333,4,1,1,65,0,0
45312,-133.333333333333,4,1,2,65,0,0
45405,-133.333333333333,4,1,1,65,0,0
46812,-133.333333333333,4,1,2,65,0,0
46905,-133.333333333333,4,1,1,65,0,0
48405,-133.333333333333,4,1,2,65,0,0
48593,-133.333333333333,4,1,1,65,0,0
51312,-133.333333333333,4,1,2,65,0,0
51405,-133.333333333333,4,1,1,65,0,0
52812,-133.333333333333,4,1,2,65,0,0
52905,-133.333333333333,4,1,1,65,0,0
54405,-133.333333333333,4,1,2,65,0,0
54593,-133.333333333333,4,1,1,65,0,0
55062,-133.333333333333,4,1,2,65,0,0
55155,-133.333333333333,4,1,1,65,0,0
57312,-133.333333333333,4,1,2,65,0,0
57405,-133.333333333333,4,1,1,65,0,0
58062,-133.333333333333,4,1,2,65,0,0
58155,-133.333333333333,4,1,1,65,0,0
59937,-133.333333333333,4,1,2,65,0,0
60030,-133.333333333333,4,1,1,65,0,0
61062,-133.333333333333,4,1,2,65,0,0
61155,-133.333333333333,4,1,1,65,0,0
63312,-133.333333333333,4,1,2,65,0,0
63405,-133.333333333333,4,1,1,65,0,0
64062,-133.333333333333,4,1,2,65,0,0
64155,-133.333333333333,4,1,1,65,0,0
65890,-133.333333333333,4,2,0,55,0,0
66077,-133.333333333333,4,2,0,65,0,0
66265,-133.333333333333,4,2,0,75,0,0
66452,-133.333333333333,4,2,0,85,0,0
66640,-133.333333333333,4,2,0,95,0,0
66734,-100,4,1,1,85,0,1
67812,-100,4,1,2,85,0,1
67905,-100,4,1,1,85,0,1
69312,-100,4,1,2,85,0,1
69405,-100,4,1,1,85,0,1
70812,-100,4,1,2,85,0,1
70905,-100,4,1,1,85,0,1
72312,-100,4,1,2,85,0,1
72405,-100,4,1,1,85,0,1
73812,-100,4,1,2,85,0,1
73905,-100,4,1,1,85,0,1
75312,-100,4,1,2,85,0,1
75405,-100,4,1,1,85,0,1
76812,-100,4,1,2,85,0,1
76905,-100,4,1,1,85,0,1
78312,-100,4,1,2,85,0,1
78405,-100,4,1,1,85,0,1
78546,-100,4,1,1,85,0,0
78734,-100,4,1,1,85,0,1
79812,-100,4,1,2,85,0,1
79905,-100,4,1,1,85,0,1
81312,-100,4,1,2,85,0,1
81405,-100,4,1,1,85,0,1
82812,-100,4,1,2,85,0,1
82905,-100,4,1,1,85,0,1
84312,-100,4,1,2,85,0,1
84405,-100,4,1,1,85,0,1
85812,-100,4,1,2,85,0,1
85905,-100,4,1,1,85,0,1
87312,-100,4,1,2,85,0,1
87405,-100,4,1,1,85,0,1
88812,-100,4,1,2,85,0,1
88905,-100,4,1,1,85,0,1
90593,-100,4,1,2,85,0,1
90734,-100,4,1,1,80,0,0
102734,-133.333333333333,4,2,1,75,0,0
103812,-133.333333333333,4,2,2,75,0,0
103905,-133.333333333333,4,2,1,75,0,0
105312,-133.333333333333,4,2,2,75,0,0
105405,-133.333333333333,4,2,1,75,0,0
106812,-133.333333333333,4,2,2,75,0,0
106905,-133.333333333333,4,2,1,75,0,0
108499,-133.333333333333,4,2,2,75,0,0
108593,-133.333333333333,4,2,1,75,0,0
108687,-133.333333333333,4,1,1,75,0,0
109812,-133.333333333333,4,1,2,75,0,0
109905,-133.333333333333,4,1,1,75,0,0
111312,-133.333333333333,4,1,2,75,0,0
111499,-133.333333333333,4,1,1,75,0,0
112812,-133.333333333333,4,1,2,75,0,0
112905,-133.333333333333,4,1,1,75,0,0
114405,-133.333333333333,4,1,2,75,0,0
114499,-133.333333333333,4,1,1,75,0,0
115062,-133.333333333333,4,1,2,75,0,0
115155,-133.333333333333,4,1,1,75,0,0
117312,-133.333333333333,4,1,2,75,0,0
117405,-133.333333333333,4,1,1,75,0,0
118062,-133.333333333333,4,1,2,75,0,0
118155,-133.333333333333,4,1,1,75,0,0
119937,-133.333333333333,4,1,2,75,0,0
120030,-133.333333333333,4,1,1,75,0,0
123312,-133.333333333333,4,1,2,75,0,0
123405,-133.333333333333,4,1,1,75,0,0
124062,-133.333333333333,4,1,2,75,0,0
124155,-133.333333333333,4,1,1,75,0,0
125843,-133.333333333333,4,2,1,75,0,0
127109,187.5,4,2,1,75,1,0
128187,-133.333333333333,4,2,2,75,0,0
128280,-133.333333333333,4,2,1,75,0,0
129687,-133.333333333333,4,2,2,75,0,0
129780,-133.333333333333,4,2,1,75,0,0
131187,-133.333333333333,4,2,2,75,0,0
131280,-133.333333333333,4,2,1,75,0,0
132687,-133.333333333333,4,2,2,75,0,0
132780,-133.333333333333,4,2,1,75,0,0
134187,-133.333333333333,4,2,2,75,0,0
134280,-133.333333333333,4,2,1,75,0,0
135687,-133.333333333333,4,2,2,75,0,0
135780,-133.333333333333,4,2,1,75,0,0
137187,-133.333333333333,4,2,2,75,0,0
137280,-133.333333333333,4,2,1,75,0,0
139109,-133.333333333333,4,2,1,85,0,0
140187,-133.333333333333,4,2,2,85,0,0
140280,-133.333333333333,4,2,1,85,0,0
144687,-133.333333333333,4,2,2,85,0,0
144780,-133.333333333333,4,2,1,85,0,0
146187,-133.333333333333,4,2,2,85,0,0
146280,-133.333333333333,4,2,1,85,0,0
147687,-133.333333333333,4,2,2,85,0,0
147780,-133.333333333333,4,2,1,85,0,0
151109,-100,4,1,1,85,0,1
152187,-100,4,1,2,85,0,1
152280,-100,4,1,1,85,0,1
153687,-100,4,1,2,85,0,1
153780,-100,4,1,1,85,0,1
155187,-100,4,1,2,85,0,1
155280,-100,4,1,1,85,0,1
156687,-100,4,1,2,85,0,1
156780,-100,4,1,1,85,0,1
158187,-100,4,1,2,85,0,1
158280,-100,4,1,1,85,0,1
159687,-100,4,1,2,85,0,1
159780,-100,4,1,1,85,0,1
162921,-100,4,1,1,85,0,0
163109,-83.3333333333333,4,1,1,90,0,1
164187,-83.3333333333333,4,1,2,90,0,1
164280,-83.3333333333333,4,1,1,90,0,1
165687,-83.3333333333333,4,1,2,90,0,1
165780,-83.3333333333333,4,1,1,90,0,1
167187,-83.3333333333333,4,1,2,90,0,1
167280,-83.3333333333333,4,1,1,90,0,1
168687,-83.3333333333333,4,1,2,90,0,1
168780,-83.3333333333333,4,1,1,90,0,1
170187,-83.3333333333333,4,1,2,90,0,1
170280,-83.3333333333333,4,1,1,90,0,1
171687,-83.3333333333333,4,1,2,90,0,1
171780,-83.3333333333333,4,1,1,90,0,1
174968,-83.3333333333333,4,1,2,90,0,1
175109,-100,4,1,1,80,0,0
176187,-100,4,1,2,80,0,0
176280,-100,4,1,1,80,0,0
177686,-100,4,1,2,80,0,0
177780,-100,4,1,1,80,0,0
179187,-100,4,1,2,80,0,0
179280,-100,4,1,1,80,0,0
180687,-100,4,1,2,80,0,0
180780,-100,4,1,1,80,0,0
182187,-100,4,1,2,80,0,0
182280,-100,4,1,1,80,0,0
183687,-100,4,1,2,80,0,0
183780,-100,4,1,1,80,0,0
185187,-100,4,1,2,80,0,0
185280,-100,4,1,1,80,0,0
187109,-133.333333333333,4,2,0,30,0,0

[Colours]
Combo1 : 64,64,0
Combo2 : 108,108,183
Combo3 : 155,83,34
Combo4 : 0,108,0
Combo5 : 128,128,0
Combo6 : 44,44,88
Combo7 : 87,47,19
Combo8 : 0,57,0

[HitObjects]
36,84,1812,1,0
136,64,2140,1,0
208,64,2538,1,0
464,284,4015,1,0
388,284,4413,1,0
328,288,4765,1,0
256,192,6968,12,0,7788
256,192,8468,12,0,9194
256,192,9968,12,0,10694
256,192,11538,12,0,12312
256,192,13062,12,0,13812
256,192,14444,12,0,15288
256,192,16015,12,0,16741
256,192,17515,12,0,18241
188,148,19507,5,0
352,144,19835,1,0
364,208,20187,1,0
280,268,20562,1,0
156,208,20960,1,0
132,96,21312,1,0
52,172,21523,1,0
72,256,21710,1,0
236,272,22038,1,0
312,196,22413,1,0
268,128,22812,1,0
188,220,23163,1,0
304,320,23562,1,0
400,232,23937,1,0
336,92,24312,1,0
188,160,24523,1,0
204,300,24710,1,0
336,264,25062,1,0
272,188,25437,1,0
192,240,25788,1,0
204,300,26187,1,0
120,300,26562,1,0
120,232,26937,1,0
196,128,27265,1,0
268,144,27476,1,0
372,208,27687,1,0
280,340,28062,1,0
180,292,28413,1,0
96,220,28765,1,0
216,192,29585,2,0,B|244:196,55,20
132,152,32187,1,0
248,148,32538,1,0
264,288,33265,1,0
116,288,33710,1,0
140,336,34062,1,0
128,168,34765,1,0
56,192,35187,1,0
180,252,36218,2,0,B|320:244,4,140
172,192,38093,1,0
328,160,38491,1,0
368,296,39640,1,0
192,332,39991,1,0
128,124,41046,1,0
244,244,41234,1,0
260,80,41421,1,0
348,200,41679,1,0
352,100,41890,1,0
88,212,43015,1,0
276,204,44679,1,0
476,196,45968,1,0
452,32,47491,1,8
328,132,47866,1,8
196,224,48265,1,8
72,308,48640,1,8
44,56,50234,1,8
208,160,50515,1,8
484,352,51616,1,8
252,216,51991,1,8
32,360,53538,1,8
256,212,54030,1,8
412,72,54335,1,8
288,180,55132,1,8
288,180,56585,1,8
212,228,57054,1,8
288,180,57359,1,8
212,228,57687,1,8
320,168,57991,1,8
216,88,59515,1,8
248,312,59890,1,8
200,152,60312,1,8
292,312,60640,1,8
168,192,61038,1,8
256,196,62538,1,8
352,152,62913,1,8
436,96,63335,1,8
392,208,63710,1,8
364,324,64038,1,8
240,192,65515,1,8
40,216,67015,1,8
152,188,67741,1,8
292,184,68468,1,8
352,92,69241,1,8
412,184,69452,1,8
360,272,69616,1,8
220,264,70015,1,8
136,232,70343,1,8
168,132,70788,1,8
264,248,71140,1,8
184,300,71515,1,8
196,160,71890,1,8
304,108,72265,1,8
384,184,72476,1,8
380,248,72663,1,8
296,272,73015,1,8
228,256,73437,1,8
176,264,73741,1,8
120,308,74421,1,8
104,280,74609,1,8
132,160,74960,1,8
176,140,75312,1,8
224,148,75523,1,8
260,148,75687,1,8
304,200,76038,1,8
288,252,76343,1,8
224,288,76741,1,8
152,296,77140,1,8
204,244,77585,1,8
252,176,77866,1,8
192,160,78288,1,8
244,128,78476,1,8
252,176,78640,1,8
204,244,79015,1,8
180,284,79413,1,8
276,304,79765,1,8
336,232,80140,1,8
244,180,80515,1,8
180,284,80890,1,8
88,292,81265,1,8
112,216,81499,1,8
128,264,81687,1,8
180,284,82062,1,8
276,252,82390,1,8
304,192,82812,1,8
336,256,83140,1,8
308,332,83585,1,8
216,296,83937,1,8
124,264,84359,1,8
152,232,84499,1,8
168,288,84710,1,8
88,308,85155,1,8
48,284,85507,1,8
76,140,85812,1,8
160,112,86140,1,8
256,144,86538,1,8
288,252,86937,1,8
372,224,87288,1,8
384,168,87523,1,8
392,252,87757,1,8
296,296,88085,1,8
224,320,88413,1,8
136,296,88812,1,8
164,152,89163,1,8
248,144,89538,1,8
304,272,89913,1,8
168,288,90265,1,8
88,244,90523,1,8
92,168,90687,1,8
280,228,91062,1,8
256,64,92351,5,8
280,228,92538,1,8
392,112,93851,5,8
236,184,94062,1,8
40,84,95280,5,8
136,204,95444,1,8
136,72,96077,1,8
208,164,96288,1,8
204,36,96804,1,8
268,112,97038,1,8
396,192,98280,5,8
280,280,98515,1,8
344,124,99734,5,8
216,220,99991,1,8
284,88,101280,5,8
164,152,101491,1,8
232,52,102077,1,8
128,76,102265,1,8
192,8,102780,1,8
192,8,103062,1,8
200,180,104491,1,8
256,276,105874,1,8
308,108,107491,1,8
180,160,108312,1,8
328,180,108663,1,8
156,140,109015,1,8
256,172,110304,1,8
256,172,110491,1,8
284,276,111921,1,8
284,276,112062,1,8
52,192,113491,1,8
188,196,114265,1,8
256,192,115202,12,8,118062
16,188,119655,5,8
160,196,119937,1,8
256,196,120359,1,8
388,180,121038,1,8
264,148,122538,1,8
248,320,124132,1,8
152,197,126991,1,0
241,201,127882,1,0
254,267,128632,1,0
241,201,129312,1,0
325,200,129687,1,0
393,200,130062,1,0
395,120,130765,1,0
299,125,131655,1,0
212,137,132382,1,0
117,144,132734,1,0
120,219,132921,1,0
236,247,133132,1,0
300,224,133460,1,0
388,237,134210,1,0
352,343,134866,1,0
165,302,135710,1,0
171,339,135851,1,0
165,302,136109,1,0
241,329,136437,1,0
269,232,137257,1,0
192,208,137960,1,0
102,136,138710,1,0
255,107,139085,1,0
366,198,139390,1,0
357,311,139788,1,0
173,306,140140,1,0
187,224,140538,1,0
289,319,140890,1,0
314,212,141241,1,0
424,136,141616,1,0
424,136,141804,1,0
430,274,142015,1,0
320,294,142390,1,0
256,235,142812,1,0
237,105,143187,1,0
118,213,143538,1,0
246,296,143866,1,0
357,165,144241,1,0
398,76,144616,1,0
398,76,144804,1,0
398,76,144991,1,0
398,156,145155,1,0
136,194,145530,1,0
136,194,145812,1,0
209,248,146210,1,0
321,205,146562,1,0
264,73,146937,1,0
419,108,147265,1,0
419,108,147663,1,0
419,108,147874,1,0
420,207,148132,1,0
224,188,148460,1,0
205,88,148882,1,0
129,228,149280,1,0
229,274,149585,1,0
345,196,149937,1,0
337,67,150288,1,0
429,77,150616,1,0
429,77,150827,1,0
419,212,151109,1,0
224,236,151413,1,0
160,156,151859,1,0
133,261,152234,1,0
288,264,152538,1,0
362,104,153007,1,0
209,99,153312,1,0
132,105,153710,1,0
132,105,153898,1,0
145,195,154179,1,0
305,164,154507,1,0
305,164,154882,1,0
236,320,155257,1,0
150,289,155679,1,0
175,242,156054,1,0
271,228,156429,1,0
403,140,156710,1,0
388,282,157226,1,0
217,261,157530,1,0
208,132,157976,1,0
108,220,158280,1,0
116,281,158702,1,0
259,282,159054,1,0
309,206,159405,1,0
260,111,159734,1,0
260,111,159898,1,0
154,284,160179,1,0
218,239,160601,1,0
363,290,160905,1,0
388,179,161280,1,0
290,143,161655,1,0
202,184,162030,1,0
237,281,162452,1,0
292,277,162640,1,0
332,240,162851,1,0
290,143,163062,1,0
175,258,163273,1,0
136,357,164937,1,0
115,198,165288,1,0
258,164,165663,1,0
258,164,165851,1,0
252,358,166155,1,0
411,260,166507,1,0
404,146,166882,1,0
258,164,167210,1,0
273,289,167562,1,0
140,272,167960,1,0
144,130,168288,1,0
198,120,168593,1,0
198,120,168851,1,0
326,150,169155,1,0
251,323,169484,1,0
206,337,169812,1,0
135,215,170210,1,0
239,179,170515,1,0
304,309,170890,1,0
454,272,171218,1,0
391,148,171616,1,0
391,148,171827,1,0
239,179,172132,1,0
247,296,172460,1,0
161,292,172812,1,0
171,131,173187,1,0
271,118,173562,1,0
332,245,173890,1,0
161,292,174265,1,0
184,172,174616,1,0
241,284,174851,1,0
251,187,175062,1,0
295,274,175296,1,0
