osu file format v13

[General]
AudioFilename: Scarlet Rose.mp3
AudioLeadIn: 0
PreviewTime: 66734
Countdown: 1
SampleSet: Normal
StackLeniency: 0.7
Mode: 1
LetterboxInBreaks: 1
WidescreenStoryboard: 1

[Editor]
DistanceSpacing: 1
BeatDivisor: 4
GridSize: 4
TimelineZoom: 4.999998

[Metadata]
Title:Scarlet Rose
TitleUnicode:Scarlet Rose
Artist:Lily
ArtistUnicode:Lily
Creator:ll-oscar
Version:ll-taiko Sp.
Source:
Tags:
BeatmapID:463330
BeatmapSetID:195238

[Difficulty]
HPDrainRate:4
CircleSize:5
OverallDifficulty:6
ApproachRate:5
SliderMultiplier:1.4
SliderTickRate:4

[Events]
//Background and Video events
0,0,"383483-vocaloid_lily_.jpg",0,0
//Break Periods
2,30930,41536
2,90929,101536
//Storyboard Layer 0 (Background)
//Storyboard Layer 1 (Fail)
//Storyboard Layer 2 (Pass)
//Storyboard Layer 3 (Foreground)
//Storyboard Sound Samples
//Background Colour Transformations
3,100,163,162,255

[TimingPoints]
-16,187.5,4,1,0,100,1,0
0,-111.111111111111,4,1,0,100,0,0
18734,-100,4,1,0,100,0,1
23187,-100,4,1,0,100,0,0
23189,-100,4,1,0,100,0,0
23234,-97.0873786407767,4,1,0,100,0,1
23374,-100,4,1,0,100,0,0
23421,-94.3396226415094,4,1,0,100,0,1
23562,-100,4,1,0,100,0,0
23609,-91.743119266055,4,1,0,100,0,1
23749,-100,4,1,0,100,0,0
23796,-89.2857142857143,4,1,0,100,0,1
23937,-100,4,1,0,100,0,0
23984,-86.9565217391304,4,1,0,100,0,1
24030,-86.9565217391304,4,1,0,100,0,0
24077,-86.9565217391304,4,1,0,100,0,1
24218,-100,4,1,0,100,0,0
24265,-83.3333333333333,4,1,0,100,0,1
24452,-81.3008130081301,4,1,0,100,0,1
24546,-81.3008130081301,4,1,0,100,0,1
24734,-100,4,1,0,100,0,1
30546,-100,4,1,0,100,0,0
30730,93.75,4,1,0,100,1,1
30730,-83.3333333333333,4,1,0,100,0,1
30734,-100,4,1,0,100,0,1
30735,187.5,4,1,0,100,1,1
30782,-66.6666666666667,4,1,0,100,0,0
31486,187.5,4,1,0,100,1,0
31486,-76.9230769230769,4,1,0,100,0,0
35986,-100,4,1,0,100,0,0
36736,-100,4,1,0,100,0,0
42782,-100,4,1,0,100,0,0
42923,-100,4,1,0,100,0,0
66736,-100,4,1,0,100,0,1
71191,-100,4,1,0,100,0,0
71191,-97.0873786407767,4,1,0,100,0,0
71238,-97.0873786407767,4,1,0,100,0,1
71378,-94.3396226415094,4,1,0,100,0,0
71425,-94.3396226415094,4,1,0,100,0,1
71566,-91.743119266055,4,1,0,100,0,0
71613,-91.743119266055,4,1,0,100,0,1
71753,-89.2857142857143,4,1,0,100,0,0
71800,-89.2857142857143,4,1,0,100,0,1
71941,-86.9565217391304,4,1,0,100,0,0
71988,-86.9565217391304,4,1,0,100,0,1
72034,-86.9565217391304,4,1,0,100,0,0
72081,-86.9565217391304,4,1,0,100,0,1
72222,-83.3333333333333,4,1,0,100,0,0
72269,-83.3333333333333,4,1,0,100,0,1
72454,-81.3008130081301,4,1,0,100,0,1
72548,-81.3008130081301,4,1,0,100,0,1
72736,-100,4,1,0,100,0,1
78548,-100,4,1,0,100,0,0
78736,-100,4,1,0,100,0,1
90729,93.75,4,1,0,100,1,1
90729,-83.3333333333333,4,1,0,100,0,0
90736,187.5,4,1,0,100,1,1
90736,-100,4,1,0,100,0,0
90782,-66.6666666666667,4,1,0,100,0,0
92236,-76.9230769230769,4,1,0,100,0,0
96736,-100,4,1,0,100,0,0
127109,375,4,1,0,100,1,0
127109,-50,4,1,0,100,0,0
127202,-51.2820512820513,4,1,0,100,0,0
127296,-52.6315789473684,4,1,0,100,0,0
127390,-54.054054054054,4,1,0,100,0,0
127484,-55.5555555555556,4,1,0,100,0,0
127671,-58.8235294117647,4,1,0,100,0,0
127859,-62.5,4,1,0,100,0,0
127952,-64.5161290322581,4,1,0,100,0,0
128046,-66.6666666666667,4,1,0,100,0,0
128140,-68.9655172413793,4,1,0,100,0,0
128234,-71.4285714285714,4,1,0,100,0,0
128327,-74.0740740740741,4,1,0,100,0,0
128421,-76.9230769230769,4,1,0,100,0,0
128609,-83.3333333333333,4,1,0,100,0,0
133109,-80,4,1,0,100,0,0
133202,-76.9230769230769,4,1,0,100,0,0
133296,-74.0740740740741,4,1,0,100,0,0
133484,-71.4285714285714,4,1,0,100,0,0
139109,-62.5,4,1,0,100,0,0
145109,-55.5555555555556,4,1,0,100,0,0
149984,187.5,4,1,0,100,1,0
149984,-111.111111111111,4,1,0,100,0,0
150359,-100,4,1,0,100,0,1
150405,-100,4,1,0,100,0,0
150452,-100,4,1,0,100,0,1
150499,-100,4,1,0,100,0,0
150640,-90.9090909090909,4,1,0,100,0,1
150687,-90.9090909090909,4,1,0,100,0,0
150827,-83.3333333333333,4,1,0,100,0,1
150874,-83.3333333333333,4,1,0,100,0,0
150921,-76.9230769230769,4,1,0,100,0,0
150968,-76.9230769230769,4,1,0,100,0,1
151109,187.5,4,1,0,100,1,1
162780,-90.9090909090909,4,1,0,100,0,0
162827,-86.9565217391304,4,1,0,100,0,1
162874,-76.9230769230769,4,1,0,100,0,0
162921,-76.9230769230769,4,1,0,100,0,1
162968,-76.9230769230769,4,1,0,100,0,0
163109,-90.9090909090909,4,1,0,100,0,1
174780,-90.9090909090909,4,1,0,100,0,0
174827,-76.9230769230769,4,1,0,100,0,1
174874,-76.9230769230769,4,1,0,100,0,0
174921,-62.5,4,1,0,100,0,1
174968,-66.6666666666667,4,1,0,100,0,0
175109,-100,4,1,0,100,0,0
180359,-98.0392156862745,4,1,0,100,0,0
180452,-95.2380952380952,4,1,0,100,0,0
180640,-90.9090909090909,4,1,0,100,0,0
180827,-86.9565217391304,4,1,0,100,0,0
180921,-83.3333333333333,4,1,0,100,0,0
181109,-83.3333333333333,4,1,0,100,0,1
190109,-83.3333333333333,4,1,0,100,0,0

[HitObjects]
256,188,3,5,4,0:0:0:0:
256,192,1484,5,0,0:0:0:0:
256,192,1859,1,0,0:0:0:0:
256,192,2234,1,4,0:0:0:0:
256,192,3734,1,0,0:0:0:0:
256,192,4109,1,0,0:0:0:0:
256,192,4484,1,4,0:0:0:0:
256,192,4859,1,0,0:0:0:0:
248,192,5046,1,0,0:0:0:0:
248,192,5140,1,0,0:0:0:0:
248,192,5234,1,8,0:0:0:0:
248,192,5609,1,0,0:0:0:0:
248,192,5796,1,0,0:0:0:0:
248,192,5890,1,0,0:0:0:0:
248,192,5984,1,8,0:0:0:0:
248,192,6171,1,0,0:0:0:0:
252,192,6359,1,0,0:0:0:0:
248,192,6452,1,0,0:0:0:0:
248,192,6546,1,0,0:0:0:0:
248,192,6640,1,8,0:0:0:0:
248,188,6734,1,4,0:0:0:0:
248,192,6921,1,8,0:0:0:0:
248,192,7109,1,0,0:0:0:0:
248,192,7202,1,0,0:0:0:0:
244,188,7296,1,8,0:0:0:0:
248,192,7480,1,8,0:0:0:0:
248,192,7573,1,0,0:0:0:0:
248,192,7669,1,0,0:0:0:0:
256,184,7763,1,8,0:0:0:0:
248,192,7857,1,0,0:0:0:0:
248,192,8048,1,8,0:0:0:0:
248,192,8234,1,8,0:0:0:0:
248,192,8327,1,0,0:0:0:0:
248,192,8421,1,8,0:0:0:0:
248,192,8609,1,0,0:0:0:0:
248,192,8704,1,0,0:0:0:0:
248,192,8798,1,8,0:0:0:0:
248,192,8984,1,8,0:0:0:0:
248,192,9077,1,0,0:0:0:0:
248,192,9169,1,0,0:0:0:0:
248,192,9263,1,8,0:0:0:0:
248,192,9357,1,0,0:0:0:0:
248,192,9452,1,0,0:0:0:0:
248,192,9546,1,8,0:0:0:0:
248,192,9732,1,8,0:0:0:0:
248,192,9825,1,8,0:0:0:0:
248,192,9919,1,0,0:0:0:0:
248,192,10015,1,0,0:0:0:0:
248,192,10107,1,8,0:0:0:0:
248,192,10294,1,0,0:0:0:0:
248,192,10388,1,0,0:0:0:0:
248,192,10482,1,8,0:0:0:0:
248,192,10671,1,8,0:0:0:0:
248,192,10857,1,8,0:0:0:0:
248,192,10950,1,8,0:0:0:0:
248,192,11044,1,0,0:0:0:0:
248,192,11138,1,8,0:0:0:0:
248,192,11232,1,0,0:0:0:0:
248,192,11419,1,0,0:0:0:0:
248,192,11607,1,0,0:0:0:0:
248,192,11700,1,0,0:0:0:0:
248,192,11794,1,8,0:0:0:0:
248,192,11890,1,0,0:0:0:0:
248,192,11982,1,8,0:0:0:0:
248,192,12169,1,8,0:0:0:0:
248,192,12357,1,8,0:0:0:0:
248,192,12450,1,0,0:0:0:0:
248,192,12544,1,8,0:0:0:0:
236,192,12640,1,8,0:0:0:0:
256,188,12732,1,0,0:0:0:0:
248,192,12827,1,0,0:0:0:0:
248,192,12919,1,8,0:0:0:0:
248,192,13107,1,0,0:0:0:0:
248,192,13202,1,0,0:0:0:0:
256,184,13298,1,8,0:0:0:0:
248,192,13486,1,8,0:0:0:0:
248,192,13579,1,8,0:0:0:0:
248,192,13673,1,8,0:0:0:0:
248,192,13767,1,0,0:0:0:0:
248,192,13859,1,8,0:0:0:0:
248,192,13952,1,8,0:0:0:0:
248,192,14048,1,0,0:0:0:0:
248,188,14236,1,8,0:0:0:0:
248,188,14329,1,8,0:0:0:0:
248,192,14423,1,8,0:0:0:0:
256,184,14517,1,0,0:0:0:0:
248,192,14611,1,8,0:0:0:0:
248,192,14798,1,0,0:0:0:0:
248,192,14892,1,0,0:0:0:0:
248,192,14986,1,8,0:0:0:0:
248,192,15173,1,8,0:0:0:0:
248,192,15361,1,8,0:0:0:0:
248,192,15454,1,0,0:0:0:0:
248,192,15548,1,8,0:0:0:0:
248,192,15736,1,8,0:0:0:0:
248,188,15829,1,8,0:0:0:0:
248,188,15923,1,8,0:0:0:0:
248,192,16017,1,0,0:0:0:0:
248,192,16111,1,8,0:0:0:0:
248,192,16296,1,8,0:0:0:0:
244,188,16390,1,8,0:0:0:0:
244,188,16484,1,0,0:0:0:0:
244,188,16577,1,8,0:0:0:0:
244,188,16671,1,0,0:0:0:0:
240,192,16765,1,0,0:0:0:0:
248,192,16859,1,8,0:0:0:0:
248,192,16952,1,0,0:0:0:0:
248,192,17046,1,8,0:0:0:0:
248,192,17234,1,4,0:0:0:0:
248,188,17419,1,4,0:0:0:0:
248,192,17607,1,4,0:0:0:0:
248,192,17794,1,4,0:0:0:0:
244,188,17982,1,12,0:0:0:0:
244,188,18171,1,12,0:0:0:0:
248,192,18357,1,4,0:0:0:0:
248,192,18544,1,12,0:0:0:0:
248,192,18734,1,4,0:0:0:0:
248,192,18827,1,0,0:0:0:0:
248,188,18921,1,8,0:0:0:0:
248,188,19015,1,0,0:0:0:0:
248,188,19062,1,0,0:0:0:0:
244,188,19109,1,8,0:0:0:0:
240,192,19202,1,0,0:0:0:0:
244,188,19296,1,8,0:0:0:0:
248,192,19343,1,8,0:0:0:0:
248,192,19390,1,0,0:0:0:0:
244,188,19484,1,8,0:0:0:0:
244,188,19577,1,8,0:0:0:0:
244,188,19624,1,8,0:0:0:0:
244,188,19671,1,0,0:0:0:0:
244,188,19718,1,0,0:0:0:0:
244,188,19765,1,8,0:0:0:0:
240,188,19812,1,8,0:0:0:0:
244,188,19859,1,0,0:0:0:0:
232,192,19952,1,0,0:0:0:0:
232,196,20046,1,0,0:0:0:0:
232,196,20140,1,8,0:0:0:0:
240,188,20234,1,0,0:0:0:0:
248,188,20280,1,0,0:0:0:0:
236,188,20327,1,0,0:0:0:0:
248,188,20374,1,0,0:0:0:0:
236,188,20421,1,8,0:0:0:0:
240,188,20515,1,0,0:0:0:0:
240,188,20609,1,8,0:0:0:0:
240,188,20655,1,8,0:0:0:0:
244,188,20702,1,0,0:0:0:0:
240,192,20749,1,0,0:0:0:0:
240,192,20796,1,8,0:0:0:0:
236,184,20890,1,0,0:0:0:0:
236,184,20984,1,8,0:0:0:0:
236,184,21030,1,0,0:0:0:0:
236,184,21077,1,8,0:0:0:0:
236,184,21124,1,8,0:0:0:0:
236,184,21171,1,0,0:0:0:0:
236,184,21265,1,0,0:0:0:0:
236,184,21359,1,0,0:0:0:0:
236,184,21452,1,0,0:0:0:0:
236,184,21499,1,0,0:0:0:0:
236,184,21546,1,8,0:0:0:0:
234,183,21640,1,0,0:0:0:0:
236,184,21734,1,0,0:0:0:0:
248,184,21780,1,8,0:0:0:0:
240,188,21827,1,8,0:0:0:0:
236,180,21874,1,8,0:0:0:0:
236,188,21921,1,0,0:0:0:0:
236,184,22015,1,0,0:0:0:0:
236,184,22109,1,8,0:0:0:0:
236,184,22202,1,0,0:0:0:0:
236,184,22296,1,8,0:0:0:0:
236,184,22343,1,0,0:0:0:0:
236,184,22390,1,0,0:0:0:0:
236,184,22437,1,0,0:0:0:0:
236,184,22484,1,8,0:0:0:0:
236,184,22577,1,8,0:0:0:0:
236,184,22671,1,0,0:0:0:0:
236,184,22765,1,0,0:0:0:0:
236,184,22812,1,0,0:0:0:0:
236,184,22859,1,8,0:0:0:0:
236,184,22952,1,0,0:0:0:0:
236,184,23046,1,0,0:0:0:0:
236,184,23140,1,8,0:0:0:0:
236,184,23234,1,4,0:0:0:0:
240,188,23421,1,4,0:0:0:0:
236,184,23609,1,4,0:0:0:0:
236,184,23796,1,12,0:0:0:0:
236,184,23984,1,12,0:0:0:0:
236,184,24077,1,4,0:0:0:0:
236,184,24265,1,12,0:0:0:0:
236,184,24452,1,0,0:0:0:0:
236,184,24499,1,0,0:0:0:0:
236,184,24546,1,8,0:0:0:0:
240,184,24734,1,0,0:0:0:0:
232,180,24780,1,0,0:0:0:0:
240,184,24827,1,0,0:0:0:0:
240,184,24921,1,8,0:0:0:0:
248,192,25015,1,0,0:0:0:0:
244,188,25109,1,8,0:0:0:0:
248,188,25155,1,8,0:0:0:0:
240,192,25202,1,0,0:0:0:0:
248,188,25249,1,0,0:0:0:0:
244,188,25296,1,8,0:0:0:0:
248,192,25390,1,0,0:0:0:0:
244,188,25484,1,0,0:0:0:0:
240,192,25530,1,0,0:0:0:0:
244,188,25577,1,0,0:0:0:0:
244,188,25671,1,8,0:0:0:0:
244,188,25765,1,0,0:0:0:0:
240,188,25812,1,0,0:0:0:0:
244,188,25859,1,8,0:0:0:0:
232,192,25952,1,0,0:0:0:0:
232,196,26046,1,0,0:0:0:0:
232,196,26140,1,8,0:0:0:0:
240,188,26234,1,0,0:0:0:0:
248,188,26280,1,0,0:0:0:0:
248,188,26327,1,0,0:0:0:0:
236,188,26421,1,8,0:0:0:0:
240,188,26515,1,0,0:0:0:0:
240,188,26609,1,8,0:0:0:0:
240,188,26655,1,8,0:0:0:0:
244,188,26702,1,0,0:0:0:0:
240,192,26749,1,8,0:0:0:0:
240,192,26796,1,0,0:0:0:0:
236,184,26890,1,0,0:0:0:0:
236,184,26984,1,8,0:0:0:0:
236,184,27030,1,8,0:0:0:0:
236,184,27077,1,0,0:0:0:0:
236,184,27171,1,0,0:0:0:0:
236,184,27218,1,8,0:0:0:0:
236,184,27265,1,0,0:0:0:0:
236,184,27359,1,8,0:0:0:0:
240,184,27405,1,8,0:0:0:0:
236,184,27452,1,0,0:0:0:0:
236,184,27499,1,0,0:0:0:0:
236,184,27546,1,8,0:0:0:0:
234,183,27640,1,0,0:0:0:0:
236,184,27734,1,8,0:0:0:0:
240,188,27780,1,8,0:0:0:0:
240,188,27827,1,0,0:0:0:0:
236,180,27874,1,0,0:0:0:0:
236,188,27921,1,8,0:0:0:0:
236,184,28015,1,0,0:0:0:0:
236,184,28109,1,8,0:0:0:0:
236,184,28202,1,0,0:0:0:0:
236,184,28296,1,0,0:0:0:0:
236,184,28343,1,8,0:0:0:0:
236,184,28390,1,0,0:0:0:0:
236,184,28437,1,0,0:0:0:0:
236,184,28484,1,8,0:0:0:0:
236,184,28577,1,0,0:0:0:0:
236,184,28671,1,8,0:0:0:0:
236,184,28765,1,0,0:0:0:0:
236,184,28812,1,8,0:0:0:0:
236,184,28859,1,8,0:0:0:0:
236,184,28952,1,0,0:0:0:0:
236,184,29046,1,8,0:0:0:0:
236,184,29140,1,0,0:0:0:0:
240,180,29234,1,0,0:0:0:0:
240,180,29280,1,0,0:0:0:0:
240,180,29327,1,0,0:0:0:0:
240,180,29374,1,0,0:0:0:0:
240,180,29421,1,8,0:0:0:0:
236,188,29515,1,0,0:0:0:0:
236,184,29609,1,8,0:0:0:0:
236,184,29655,1,8,0:0:0:0:
236,184,29702,1,0,0:0:0:0:
236,184,29749,1,0,0:0:0:0:
236,184,29796,1,8,0:0:0:0:
236,184,29890,1,0,0:0:0:0:
236,184,29984,1,8,0:0:0:0:
236,184,30030,1,0,0:0:0:0:
236,184,30077,1,8,0:0:0:0:
236,184,30171,1,0,0:0:0:0:
236,184,30265,1,8,0:0:0:0:
236,184,30312,1,8,0:0:0:0:
236,184,30359,1,0,0:0:0:0:
228,184,30405,1,0,0:0:0:0:
236,184,30452,1,8,0:0:0:0:
236,184,30499,1,0,0:0:0:0:
236,184,30546,1,8,0:0:0:0:
240,184,30730,1,4,0:0:0:0:
228,180,42736,5,4,0:0:0:0:
224,180,42829,1,0,0:0:0:0:
224,180,42923,1,8,0:0:0:0:
228,180,43017,1,0,0:0:0:0:
228,180,43111,1,8,0:0:0:0:
228,180,43204,1,0,0:0:0:0:
228,180,43298,1,0,0:0:0:0:
228,180,43392,1,0,0:0:0:0:
228,180,43486,1,8,0:0:0:0:
228,180,43579,1,8,0:0:0:0:
228,180,43673,1,0,0:0:0:0:
232,184,43767,1,8,0:0:0:0:
232,184,43861,1,0,0:0:0:0:
232,184,43954,1,0,0:0:0:0:
232,184,44048,1,8,0:0:0:0:
232,184,44142,1,8,0:0:0:0:
232,184,44236,1,8,0:0:0:0:
232,184,44329,1,0,0:0:0:0:
232,184,44423,1,0,0:0:0:0:
232,184,44517,1,8,0:0:0:0:
232,184,44611,1,0,0:0:0:0:
232,184,44704,1,0,0:0:0:0:
224,184,44798,1,8,0:0:0:0:
224,184,44892,1,0,0:0:0:0:
224,184,44986,1,8,0:0:0:0:
224,184,45079,1,8,0:0:0:0:
224,184,45173,1,0,0:0:0:0:
224,184,45267,1,0,0:0:0:0:
224,184,45314,1,0,0:0:0:0:
224,184,45361,1,8,0:0:0:0:
224,184,45548,1,8,0:0:0:0:
220,184,45736,1,4,0:0:0:0:
224,184,45829,1,0,0:0:0:0:
224,184,45923,1,0,0:0:0:0:
220,184,45970,1,0,0:0:0:0:
224,184,46017,1,0,0:0:0:0:
224,184,46111,1,8,0:0:0:0:
216,184,46298,1,0,0:0:0:0:
224,184,46486,1,4,0:0:0:0:
224,180,46579,1,0,0:0:0:0:
224,184,46673,1,0,0:0:0:0:
224,184,46720,1,0,0:0:0:0:
224,184,46767,1,0,0:0:0:0:
224,184,46861,1,8,0:0:0:0:
224,184,46954,1,0,0:0:0:0:
224,184,47048,1,8,0:0:0:0:
220,184,47236,1,4,0:0:0:0:
224,188,47329,1,0,0:0:0:0:
224,184,47423,1,0,0:0:0:0:
224,184,47517,1,0,0:0:0:0:
224,184,47611,1,8,0:0:0:0:
224,184,47704,1,8,0:0:0:0:
216,192,47798,1,8,0:0:0:0:
224,188,47985,1,4,0:0:0:0:
224,188,48079,1,0,0:0:0:0:
224,184,48173,1,0,0:0:0:0:
224,184,48266,1,0,0:0:0:0:
224,184,48360,1,8,0:0:0:0:
224,184,48454,1,8,0:0:0:0:
216,184,48548,1,8,0:0:0:0:
216,188,48736,1,4,0:0:0:0:
216,188,48829,1,0,0:0:0:0:
216,188,48923,1,8,0:0:0:0:
216,188,48970,1,8,0:0:0:0:
216,188,49017,1,0,0:0:0:0:
216,188,49064,1,0,0:0:0:0:
216,188,49111,1,8,0:0:0:0:
216,184,49204,1,0,0:0:0:0:
216,184,49298,1,8,0:0:0:0:
216,184,49392,1,0,0:0:0:0:
216,184,49486,1,0,0:0:0:0:
216,184,49579,1,8,0:0:0:0:
212,184,49673,1,8,0:0:0:0:
212,184,49720,1,8,0:0:0:0:
212,184,49767,1,0,0:0:0:0:
212,184,49861,1,8,0:0:0:0:
224,184,49907,1,0,0:0:0:0:
224,184,49954,1,0,0:0:0:0:
220,184,50001,1,0,0:0:0:0:
220,184,50048,1,8,0:0:0:0:
224,184,50236,1,4,0:0:0:0:
228,184,50329,1,0,0:0:0:0:
228,184,50423,1,8,0:0:0:0:
228,184,50517,1,0,0:0:0:0:
228,184,50611,1,4,0:0:0:0:
224,184,50704,1,0,0:0:0:0:
224,184,50798,1,8,0:0:0:0:
224,184,50892,1,0,0:0:0:0:
228,184,50986,1,4,0:0:0:0:
224,184,51079,1,0,0:0:0:0:
224,184,51173,1,8,0:0:0:0:
224,184,51267,1,0,0:0:0:0:
228,184,51361,1,4,0:0:0:0:
224,184,51454,1,0,0:0:0:0:
224,184,51548,1,8,0:0:0:0:
224,184,51642,1,0,0:0:0:0:
224,184,51736,1,4,0:0:0:0:
216,184,51829,1,0,0:0:0:0:
224,180,51923,1,8,0:0:0:0:
228,184,52017,1,0,0:0:0:0:
224,184,52111,1,8,0:0:0:0:
212,184,52204,1,0,0:0:0:0:
216,188,52298,1,0,0:0:0:0:
224,184,52392,1,0,0:0:0:0:
224,184,52486,1,8,0:0:0:0:
224,184,52579,1,0,0:0:0:0:
224,184,52673,1,0,0:0:0:0:
224,184,52767,1,8,0:0:0:0:
224,184,52861,1,0,0:0:0:0:
224,184,52954,1,0,0:0:0:0:
224,184,53001,1,0,0:0:0:0:
224,184,53048,1,8,0:0:0:0:
224,184,53095,1,8,0:0:0:0:
224,184,53142,1,0,0:0:0:0:
220,180,53236,1,8,0:0:0:0:
220,180,53329,1,0,0:0:0:0:
220,180,53423,1,8,0:0:0:0:
224,180,53517,1,0,0:0:0:0:
220,180,53611,1,8,0:0:0:0:
220,180,53704,1,0,0:0:0:0:
220,180,53798,1,0,0:0:0:0:
220,184,53845,1,0,0:0:0:0:
220,184,53892,1,0,0:0:0:0:
224,184,53986,1,8,0:0:0:0:
224,184,54079,1,0,0:0:0:0:
224,184,54173,1,8,0:0:0:0:
232,192,54267,1,0,0:0:0:0:
224,184,54361,1,8,0:0:0:0:
224,192,54454,1,0,0:0:0:0:
224,184,54548,1,8,0:0:0:0:
220,184,54595,1,8,0:0:0:0:
220,192,54642,1,0,0:0:0:0:
76,88,54736,2,0,L|364:140,2,280,0|0|0,0:0|0:0|0:0,0:0:0:0:
232,184,55673,1,0,0:0:0:0:
224,184,55767,1,0,0:0:0:0:
220,184,55861,1,8,0:0:0:0:
224,184,55954,1,8,0:0:0:0:
220,184,56048,1,0,0:0:0:0:
224,184,56142,1,0,0:0:0:0:
220,184,56236,1,8,0:0:0:0:
220,176,56282,1,8,0:0:0:0:
220,188,56329,1,0,0:0:0:0:
220,188,56423,1,8,0:0:0:0:
220,188,56517,1,0,0:0:0:0:
220,184,56611,1,8,0:0:0:0:
220,184,56657,1,8,0:0:0:0:
220,184,56704,1,0,0:0:0:0:
224,188,56798,1,8,0:0:0:0:
224,188,56892,1,0,0:0:0:0:
224,188,56986,1,8,0:0:0:0:
216,184,57079,1,0,0:0:0:0:
224,188,57173,1,0,0:0:0:0:
224,188,57220,1,8,0:0:0:0:
224,188,57267,1,0,0:0:0:0:
224,184,57361,1,0,0:0:0:0:
216,192,57548,1,8,0:0:0:0:
216,192,57642,1,8,0:0:0:0:
216,192,57736,1,0,0:0:0:0:
220,184,57782,1,0,0:0:0:0:
220,184,57829,1,0,0:0:0:0:
220,188,57923,1,8,0:0:0:0:
216,192,58017,1,8,0:0:0:0:
96,88,58111,2,0,L|376:128,1,280
216,192,58673,1,8,0:0:0:0:
216,192,58720,1,8,0:0:0:0:
216,192,58767,1,0,0:0:0:0:
216,192,58861,1,0,0:0:0:0:
216,192,58907,1,0,0:0:0:0:
216,192,58954,1,0,0:0:0:0:
216,192,59048,1,8,0:0:0:0:
216,192,59095,1,8,0:0:0:0:
216,192,59142,1,0,0:0:0:0:
216,192,59236,1,8,0:0:0:0:
216,192,59329,1,0,0:0:0:0:
216,192,59423,1,8,0:0:0:0:
216,192,59470,1,8,0:0:0:0:
216,192,59517,1,0,0:0:0:0:
216,192,59611,1,8,0:0:0:0:
216,192,59657,1,8,0:0:0:0:
216,192,59704,1,0,0:0:0:0:
220,192,59751,1,0,0:0:0:0:
220,192,59798,1,8,0:0:0:0:
220,192,59845,1,0,0:0:0:0:
220,192,59892,1,0,0:0:0:0:
220,192,59939,1,0,0:0:0:0:
220,188,59986,1,8,0:0:0:0:
224,184,60173,1,0,0:0:0:0:
224,184,60361,1,8,0:0:0:0:
216,192,60454,1,8,0:0:0:0:
232,192,60548,1,0,0:0:0:0:
224,188,60736,1,8,0:0:0:0:
220,192,60829,1,8,0:0:0:0:
220,192,60923,1,0,0:0:0:0:
220,192,61017,1,8,0:0:0:0:
220,192,61111,1,0,0:0:0:0:
220,192,61204,1,0,0:0:0:0:
220,192,61298,1,0,0:0:0:0:
220,192,61392,1,8,0:0:0:0:
220,192,61486,1,0,0:0:0:0:
220,192,61532,1,0,0:0:0:0:
220,192,61579,1,0,0:0:0:0:
232,184,61673,1,0,0:0:0:0:
224,184,61767,1,0,0:0:0:0:
220,184,61861,1,8,0:0:0:0:
224,184,61954,1,8,0:0:0:0:
220,184,62048,1,0,0:0:0:0:
224,184,62142,1,0,0:0:0:0:
220,184,62236,1,8,0:0:0:0:
220,176,62282,1,8,0:0:0:0:
220,188,62329,1,0,0:0:0:0:
216,180,62376,1,0,0:0:0:0:
220,188,62423,1,8,0:0:0:0:
220,188,62517,1,0,0:0:0:0:
220,184,62611,1,8,0:0:0:0:
220,184,62657,1,8,0:0:0:0:
220,184,62704,1,0,0:0:0:0:
216,184,62751,1,0,0:0:0:0:
224,188,62798,1,8,0:0:0:0:
224,188,62892,1,0,0:0:0:0:
224,188,62986,1,8,0:0:0:0:
216,184,63079,1,0,0:0:0:0:
224,188,63173,1,0,0:0:0:0:
224,188,63220,1,8,0:0:0:0:
224,188,63267,1,0,0:0:0:0:
216,184,63314,1,0,0:0:0:0:
224,184,63361,1,0,0:0:0:0:
224,188,63454,1,0,0:0:0:0:
216,192,63548,5,8,0:0:0:0:
216,192,63642,1,8,0:0:0:0:
216,192,63736,1,0,0:0:0:0:
220,184,63782,1,0,0:0:0:0:
220,184,63829,1,0,0:0:0:0:
220,188,63923,1,8,0:0:0:0:
216,192,64017,1,8,0:0:0:0:
216,184,64111,1,0,0:0:0:0:
220,184,64157,1,0,0:0:0:0:
220,184,64204,1,0,0:0:0:0:
220,184,64298,1,8,0:0:0:0:
216,184,64392,1,8,0:0:0:0:
216,184,64486,1,0,0:0:0:0:
216,184,64579,1,0,0:0:0:0:
216,192,64673,1,8,0:0:0:0:
216,192,64720,1,8,0:0:0:0:
216,192,64767,1,0,0:0:0:0:
216,192,64861,1,0,0:0:0:0:
216,192,64907,1,0,0:0:0:0:
216,192,64954,1,0,0:0:0:0:
224,188,65001,1,0,0:0:0:0:
216,192,65048,1,8,0:0:0:0:
216,192,65095,1,8,0:0:0:0:
216,192,65142,1,0,0:0:0:0:
216,192,65236,1,8,0:0:0:0:
216,192,65329,1,0,0:0:0:0:
216,192,65423,1,8,0:0:0:0:
216,192,65470,1,8,0:0:0:0:
216,192,65517,1,0,0:0:0:0:
216,192,65611,1,8,0:0:0:0:
216,192,65657,1,8,0:0:0:0:
216,192,65704,1,0,0:0:0:0:
220,192,65751,1,0,0:0:0:0:
220,192,65798,1,8,0:0:0:0:
220,192,65845,1,0,0:0:0:0:
220,192,65892,1,8,0:0:0:0:
220,192,65939,1,8,0:0:0:0:
220,188,65986,1,0,0:0:0:0:
256,192,66079,12,0,66642,0:0:0:0:
248,192,66736,5,4,0:0:0:0:
220,188,66829,1,0,0:0:0:0:
216,192,66923,1,8,0:0:0:0:
216,192,67017,1,0,0:0:0:0:
244,188,67111,1,8,0:0:0:0:
248,188,67157,1,8,0:0:0:0:
216,192,67204,1,0,0:0:0:0:
216,192,67298,1,8,0:0:0:0:
248,192,67345,1,8,0:0:0:0:
220,192,67392,1,0,0:0:0:0:
244,188,67486,1,8,0:0:0:0:
244,188,67579,1,0,0:0:0:0:
244,188,67626,1,0,0:0:0:0:
244,188,67673,1,8,0:0:0:0:
244,188,67720,1,0,0:0:0:0:
244,188,67767,1,0,0:0:0:0:
240,188,67814,1,0,0:0:0:0:
244,188,67861,1,8,0:0:0:0:
232,192,67954,1,0,0:0:0:0:
232,196,68048,1,8,0:0:0:0:
232,196,68142,1,8,0:0:0:0:
240,188,68236,1,0,0:0:0:0:
248,188,68282,1,0,0:0:0:0:
236,188,68329,1,8,0:0:0:0:
248,188,68376,1,0,0:0:0:0:
236,188,68423,1,8,0:0:0:0:
240,188,68517,1,0,0:0:0:0:
240,188,68611,1,8,0:0:0:0:
240,188,68657,1,0,0:0:0:0:
244,188,68704,1,0,0:0:0:0:
240,192,68751,1,0,0:0:0:0:
240,192,68798,1,8,0:0:0:0:
236,184,68892,1,0,0:0:0:0:
236,184,68986,1,8,0:0:0:0:
236,184,69079,1,0,0:0:0:0:
236,184,69126,1,0,0:0:0:0:
236,184,69173,1,8,0:0:0:0:
236,184,69267,1,0,0:0:0:0:
236,184,69361,1,8,0:0:0:0:
236,184,69407,1,8,0:0:0:0:
236,184,69454,1,0,0:0:0:0:
236,184,69501,1,0,0:0:0:0:
236,184,69548,1,8,0:0:0:0:
234,183,69642,1,0,0:0:0:0:
236,184,69736,1,0,0:0:0:0:
248,184,69782,1,8,0:0:0:0:
240,188,69829,1,0,0:0:0:0:
236,180,69876,1,0,0:0:0:0:
236,188,69923,1,0,0:0:0:0:
236,184,70017,1,0,0:0:0:0:
236,184,70111,1,8,0:0:0:0:
236,184,70204,1,0,0:0:0:0:
236,184,70298,1,8,0:0:0:0:
236,184,70345,1,8,0:0:0:0:
236,184,70392,1,0,0:0:0:0:
236,184,70439,1,0,0:0:0:0:
236,184,70486,1,8,0:0:0:0:
236,184,70579,1,8,0:0:0:0:
236,184,70673,1,0,0:0:0:0:
236,184,70767,1,0,0:0:0:0:
236,184,70814,1,8,0:0:0:0:
236,184,70861,1,0,0:0:0:0:
236,184,70954,1,0,0:0:0:0:
236,184,71048,1,0,0:0:0:0:
236,184,71142,1,8,0:0:0:0:
236,184,71236,1,4,0:0:0:0:
240,188,71423,1,4,0:0:0:0:
236,184,71611,1,4,0:0:0:0:
236,184,71798,1,12,0:0:0:0:
236,184,71986,1,12,0:0:0:0:
236,184,72079,1,4,0:0:0:0:
236,184,72267,1,12,0:0:0:0:
236,184,72454,1,0,0:0:0:0:
236,184,72501,1,0,0:0:0:0:
236,184,72548,1,8,0:0:0:0:
240,184,72736,1,8,0:0:0:0:
232,180,72782,1,0,0:0:0:0:
240,184,72829,1,8,0:0:0:0:
240,184,72923,1,0,0:0:0:0:
248,192,73017,1,8,0:0:0:0:
244,188,73111,1,0,0:0:0:0:
248,188,73157,1,0,0:0:0:0:
240,192,73204,1,8,0:0:0:0:
248,188,73251,1,8,0:0:0:0:
244,188,73298,1,0,0:0:0:0:
248,192,73392,1,0,0:0:0:0:
244,188,73486,1,0,0:0:0:0:
240,192,73532,1,0,0:0:0:0:
244,188,73579,1,8,0:0:0:0:
244,188,73673,1,0,0:0:0:0:
244,188,73767,1,0,0:0:0:0:
240,188,73814,1,8,0:0:0:0:
244,188,73861,1,0,0:0:0:0:
232,192,73954,1,0,0:0:0:0:
232,196,74048,1,8,0:0:0:0:
232,196,74142,1,0,0:0:0:0:
240,188,74236,1,0,0:0:0:0:
248,188,74282,1,0,0:0:0:0:
248,188,74329,1,0,0:0:0:0:
236,188,74423,1,8,0:0:0:0:
240,188,74517,1,0,0:0:0:0:
240,188,74611,1,8,0:0:0:0:
240,188,74657,1,8,0:0:0:0:
244,188,74704,1,0,0:0:0:0:
240,192,74751,1,0,0:0:0:0:
240,192,74798,1,0,0:0:0:0:
236,184,74892,1,0,0:0:0:0:
236,184,74986,1,8,0:0:0:0:
236,184,75032,1,8,0:0:0:0:
236,184,75079,1,0,0:0:0:0:
236,184,75173,1,0,0:0:0:0:
236,184,75220,1,8,0:0:0:0:
236,184,75267,1,0,0:0:0:0:
236,184,75361,1,8,0:0:0:0:
240,184,75407,1,8,0:0:0:0:
236,184,75454,1,0,0:0:0:0:
236,184,75501,1,0,0:0:0:0:
236,184,75548,1,8,0:0:0:0:
234,183,75642,1,0,0:0:0:0:
236,184,75736,1,8,0:0:0:0:
240,188,75782,1,8,0:0:0:0:
240,188,75829,1,0,0:0:0:0:
236,180,75876,1,8,0:0:0:0:
236,188,75923,1,8,0:0:0:0:
236,184,76017,1,8,0:0:0:0:
236,184,76111,1,0,0:0:0:0:
236,184,76204,1,0,0:0:0:0:
236,184,76298,1,8,0:0:0:0:
236,184,76345,1,8,0:0:0:0:
236,184,76392,1,0,0:0:0:0:
236,184,76439,1,0,0:0:0:0:
236,184,76486,1,8,0:0:0:0:
236,184,76579,1,0,0:0:0:0:
236,184,76673,1,8,0:0:0:0:
236,184,76767,1,0,0:0:0:0:
236,184,76814,1,0,0:0:0:0:
236,184,76861,1,8,0:0:0:0:
236,184,76954,1,0,0:0:0:0:
236,184,77048,1,8,0:0:0:0:
236,184,77142,1,0,0:0:0:0:
240,180,77236,1,8,0:0:0:0:
240,180,77282,1,0,0:0:0:0:
240,180,77329,1,0,0:0:0:0:
240,180,77376,1,0,0:0:0:0:
240,180,77423,1,8,0:0:0:0:
236,188,77517,1,0,0:0:0:0:
236,184,77611,1,8,0:0:0:0:
236,184,77657,1,8,0:0:0:0:
236,184,77704,1,0,0:0:0:0:
236,184,77751,1,0,0:0:0:0:
236,184,77798,1,8,0:0:0:0:
236,184,77892,1,0,0:0:0:0:
236,184,77986,1,8,0:0:0:0:
236,184,78032,1,0,0:0:0:0:
236,184,78079,1,8,0:0:0:0:
236,184,78173,1,0,0:0:0:0:
236,184,78267,1,0,0:0:0:0:
236,184,78314,1,0,0:0:0:0:
236,184,78361,1,0,0:0:0:0:
228,184,78407,1,0,0:0:0:0:
236,184,78454,1,8,0:0:0:0:
236,184,78501,1,0,0:0:0:0:
236,184,78548,1,8,0:0:0:0:
248,192,78736,1,12,0:0:0:0:
248,192,78829,1,8,0:0:0:0:
248,188,78923,1,0,0:0:0:0:
248,188,79017,1,0,0:0:0:0:
248,188,79064,1,0,0:0:0:0:
244,188,79111,1,8,0:0:0:0:
240,192,79204,1,0,0:0:0:0:
244,188,79298,1,0,0:0:0:0:
248,192,79345,1,0,0:0:0:0:
248,192,79392,1,8,0:0:0:0:
244,188,79486,1,0,0:0:0:0:
244,188,79579,1,8,0:0:0:0:
244,188,79626,1,0,0:0:0:0:
244,188,79673,1,0,0:0:0:0:
244,188,79720,1,0,0:0:0:0:
244,188,79767,1,8,0:0:0:0:
240,188,79814,1,8,0:0:0:0:
244,188,79861,1,0,0:0:0:0:
232,192,79954,1,0,0:0:0:0:
232,196,80048,1,0,0:0:0:0:
232,196,80142,1,8,0:0:0:0:
240,188,80236,1,0,0:0:0:0:
248,188,80282,1,0,0:0:0:0:
236,188,80329,1,0,0:0:0:0:
248,188,80376,1,0,0:0:0:0:
236,188,80423,1,8,0:0:0:0:
240,188,80517,1,0,0:0:0:0:
240,188,80611,1,8,0:0:0:0:
240,188,80657,1,8,0:0:0:0:
244,188,80704,1,0,0:0:0:0:
240,192,80751,1,0,0:0:0:0:
240,192,80798,1,8,0:0:0:0:
236,184,80892,1,0,0:0:0:0:
236,184,80986,1,8,0:0:0:0:
236,184,81032,1,0,0:0:0:0:
236,184,81079,1,8,0:0:0:0:
236,184,81173,1,0,0:0:0:0:
236,184,81267,1,8,0:0:0:0:
236,184,81361,1,0,0:0:0:0:
236,184,81407,1,0,0:0:0:0:
236,184,81454,1,0,0:0:0:0:
236,184,81501,1,0,0:0:0:0:
236,184,81548,1,8,0:0:0:0:
234,183,81642,1,0,0:0:0:0:
236,184,81736,1,0,0:0:0:0:
248,184,81782,1,0,0:0:0:0:
240,188,81829,1,8,0:0:0:0:
236,180,81876,1,8,0:0:0:0:
236,188,81923,1,0,0:0:0:0:
236,184,82017,1,0,0:0:0:0:
236,184,82111,1,8,0:0:0:0:
236,184,82204,1,0,0:0:0:0:
236,184,82298,1,8,0:0:0:0:
236,184,82345,1,0,0:0:0:0:
236,184,82392,1,0,0:0:0:0:
236,184,82439,1,0,0:0:0:0:
236,184,82486,1,8,0:0:0:0:
236,184,82579,1,8,0:0:0:0:
236,184,82673,1,0,0:0:0:0:
236,184,82767,1,0,0:0:0:0:
236,184,82814,1,0,0:0:0:0:
236,184,82861,1,8,0:0:0:0:
236,184,82954,1,0,0:0:0:0:
236,184,83048,1,8,0:0:0:0:
248,184,83142,1,0,0:0:0:0:
236,184,83236,1,0,0:0:0:0:
228,184,83282,1,0,0:0:0:0:
236,184,83329,1,0,0:0:0:0:
236,184,83423,1,8,0:0:0:0:
236,180,83470,1,8,0:0:0:0:
236,184,83517,1,0,0:0:0:0:
236,184,83611,1,0,0:0:0:0:
236,184,83657,1,0,0:0:0:0:
236,184,83704,1,0,0:0:0:0:
236,184,83798,1,8,0:0:0:0:
236,184,83845,1,8,0:0:0:0:
236,184,83892,1,0,0:0:0:0:
236,184,83986,1,8,0:0:0:0:
236,184,84032,1,8,0:0:0:0:
228,180,84079,1,0,0:0:0:0:
228,180,84126,1,0,0:0:0:0:
228,180,84173,1,8,0:0:0:0:
224,176,84267,1,0,0:0:0:0:
224,176,84361,1,8,0:0:0:0:
224,176,84455,1,0,0:0:0:0:
232,176,84501,1,0,0:0:0:0:
224,176,84548,1,8,0:0:0:0:
240,184,84736,1,0,0:0:0:0:
232,180,84782,1,8,0:0:0:0:
240,184,84829,1,0,0:0:0:0:
240,184,84923,1,0,0:0:0:0:
248,192,85017,1,8,0:0:0:0:
244,188,85111,1,0,0:0:0:0:
248,188,85157,1,0,0:0:0:0:
240,192,85204,1,8,0:0:0:0:
248,188,85251,1,8,0:0:0:0:
244,188,85298,1,0,0:0:0:0:
248,192,85392,1,8,0:0:0:0:
244,188,85486,1,0,0:0:0:0:
240,192,85532,1,0,0:0:0:0:
244,188,85579,1,0,0:0:0:0:
244,188,85673,1,0,0:0:0:0:
244,188,85767,1,8,0:0:0:0:
240,188,85814,1,8,0:0:0:0:
244,188,85861,1,0,0:0:0:0:
232,192,85954,1,8,0:0:0:0:
232,196,86048,1,0,0:0:0:0:
232,196,86142,1,0,0:0:0:0:
240,188,86236,1,0,0:0:0:0:
248,188,86282,1,8,0:0:0:0:
248,188,86329,1,0,0:0:0:0:
236,188,86423,1,8,0:0:0:0:
240,188,86517,1,0,0:0:0:0:
240,188,86611,1,8,0:0:0:0:
240,188,86657,1,8,0:0:0:0:
244,188,86704,1,0,0:0:0:0:
240,192,86751,1,8,0:0:0:0:
240,192,86798,1,0,0:0:0:0:
236,184,86892,1,0,0:0:0:0:
236,184,86986,1,8,0:0:0:0:
236,184,87032,1,8,0:0:0:0:
236,184,87079,1,0,0:0:0:0:
236,184,87173,1,0,0:0:0:0:
236,184,87220,1,8,0:0:0:0:
236,184,87267,1,8,0:0:0:0:
236,184,87361,1,8,0:0:0:0:
240,184,87407,1,0,0:0:0:0:
236,184,87454,1,0,0:0:0:0:
236,184,87501,1,0,0:0:0:0:
236,184,87548,1,8,0:0:0:0:
234,183,87642,1,0,0:0:0:0:
236,184,87736,1,8,0:0:0:0:
240,188,87782,1,8,0:0:0:0:
240,188,87829,1,0,0:0:0:0:
236,180,87876,1,0,0:0:0:0:
236,188,87923,1,8,0:0:0:0:
236,184,88017,1,0,0:0:0:0:
236,184,88111,1,8,0:0:0:0:
236,184,88204,1,0,0:0:0:0:
236,184,88298,1,0,0:0:0:0:
236,184,88345,1,0,0:0:0:0:
236,184,88392,1,8,0:0:0:0:
236,184,88439,1,8,0:0:0:0:
236,184,88486,1,0,0:0:0:0:
236,184,88579,1,8,0:0:0:0:
236,184,88673,1,0,0:0:0:0:
236,184,88767,1,8,0:0:0:0:
236,184,88814,1,0,0:0:0:0:
236,184,88861,1,0,0:0:0:0:
236,184,88954,1,0,0:0:0:0:
236,184,89048,1,8,0:0:0:0:
236,184,89142,1,0,0:0:0:0:
240,180,89236,1,8,0:0:0:0:
240,180,89282,1,8,0:0:0:0:
240,180,89329,1,0,0:0:0:0:
240,180,89376,1,0,0:0:0:0:
240,180,89423,1,8,0:0:0:0:
236,188,89517,1,0,0:0:0:0:
236,184,89611,1,8,0:0:0:0:
236,184,89657,1,8,0:0:0:0:
236,184,89704,1,8,0:0:0:0:
236,184,89751,1,8,0:0:0:0:
236,184,89798,1,0,0:0:0:0:
236,184,89892,1,8,0:0:0:0:
236,184,89986,1,0,0:0:0:0:
236,184,90032,1,0,0:0:0:0:
236,184,90079,1,8,0:0:0:0:
236,184,90173,1,0,0:0:0:0:
236,184,90267,1,8,0:0:0:0:
236,184,90314,1,8,0:0:0:0:
236,184,90361,1,0,0:0:0:0:
228,184,90407,1,0,0:0:0:0:
236,184,90454,1,8,0:0:0:0:
236,184,90501,1,8,0:0:0:0:
236,184,90548,1,0,0:0:0:0:
240,184,90729,1,4,0:0:0:0:
228,180,102736,5,4,0:0:0:0:
224,180,102829,1,0,0:0:0:0:
224,180,102923,1,8,0:0:0:0:
228,180,103017,1,0,0:0:0:0:
228,180,103111,1,8,0:0:0:0:
228,180,103204,1,0,0:0:0:0:
228,180,103298,1,0,0:0:0:0:
228,180,103392,1,0,0:0:0:0:
228,180,103486,1,8,0:0:0:0:
228,180,103579,1,8,0:0:0:0:
228,180,103673,1,0,0:0:0:0:
232,184,103767,1,8,0:0:0:0:
232,184,103861,1,0,0:0:0:0:
232,184,103954,1,0,0:0:0:0:
232,184,104048,1,8,0:0:0:0:
232,184,104142,1,8,0:0:0:0:
232,184,104236,1,8,0:0:0:0:
232,184,104329,1,0,0:0:0:0:
232,184,104423,1,0,0:0:0:0:
232,184,104517,1,8,0:0:0:0:
232,184,104611,1,0,0:0:0:0:
232,184,104704,1,0,0:0:0:0:
224,184,104798,1,8,0:0:0:0:
224,184,104892,1,0,0:0:0:0:
224,184,104986,1,8,0:0:0:0:
224,184,105079,1,8,0:0:0:0:
224,184,105173,1,0,0:0:0:0:
224,184,105267,1,0,0:0:0:0:
224,184,105314,1,0,0:0:0:0:
224,184,105361,1,8,0:0:0:0:
224,184,105548,1,8,0:0:0:0:
220,184,105736,1,4,0:0:0:0:
224,184,105829,1,0,0:0:0:0:
224,184,105923,1,0,0:0:0:0:
220,184,105970,1,0,0:0:0:0:
224,184,106017,1,0,0:0:0:0:
224,184,106111,1,8,0:0:0:0:
216,184,106298,1,0,0:0:0:0:
224,184,106486,1,4,0:0:0:0:
224,180,106579,1,0,0:0:0:0:
224,184,106673,1,0,0:0:0:0:
224,184,106720,1,0,0:0:0:0:
224,184,106767,1,0,0:0:0:0:
224,184,106861,1,8,0:0:0:0:
224,184,106954,1,0,0:0:0:0:
224,184,107048,1,8,0:0:0:0:
220,184,107236,1,4,0:0:0:0:
224,188,107329,1,0,0:0:0:0:
224,184,107423,1,0,0:0:0:0:
224,184,107517,1,0,0:0:0:0:
224,184,107611,1,8,0:0:0:0:
224,184,107704,1,8,0:0:0:0:
216,192,107798,1,8,0:0:0:0:
224,188,107985,1,4,0:0:0:0:
224,188,108079,1,0,0:0:0:0:
224,184,108173,1,0,0:0:0:0:
224,184,108266,1,0,0:0:0:0:
224,184,108360,1,8,0:0:0:0:
224,184,108454,1,8,0:0:0:0:
216,184,108548,1,8,0:0:0:0:
216,188,108736,1,4,0:0:0:0:
216,188,108829,1,0,0:0:0:0:
216,188,108923,1,8,0:0:0:0:
216,188,108970,1,8,0:0:0:0:
216,188,109017,1,0,0:0:0:0:
216,188,109064,1,0,0:0:0:0:
216,188,109111,1,8,0:0:0:0:
216,184,109204,1,0,0:0:0:0:
216,184,109298,1,8,0:0:0:0:
216,184,109392,1,0,0:0:0:0:
216,184,109486,1,0,0:0:0:0:
216,184,109579,1,8,0:0:0:0:
212,184,109673,1,8,0:0:0:0:
212,184,109720,1,8,0:0:0:0:
212,184,109767,1,0,0:0:0:0:
212,184,109861,1,8,0:0:0:0:
224,184,109907,1,0,0:0:0:0:
224,184,109954,1,0,0:0:0:0:
220,184,110001,1,0,0:0:0:0:
220,184,110048,1,8,0:0:0:0:
224,184,110236,1,4,0:0:0:0:
228,184,110329,1,0,0:0:0:0:
228,184,110423,1,8,0:0:0:0:
228,184,110517,1,0,0:0:0:0:
228,184,110611,1,4,0:0:0:0:
224,184,110704,1,0,0:0:0:0:
224,184,110798,1,8,0:0:0:0:
224,184,110892,1,0,0:0:0:0:
228,184,110986,1,4,0:0:0:0:
224,184,111079,1,0,0:0:0:0:
224,184,111173,1,8,0:0:0:0:
224,184,111267,1,0,0:0:0:0:
228,184,111361,1,4,0:0:0:0:
224,184,111454,1,0,0:0:0:0:
224,184,111548,1,8,0:0:0:0:
224,184,111642,1,0,0:0:0:0:
224,184,111736,1,4,0:0:0:0:
216,184,111829,1,0,0:0:0:0:
224,180,111923,1,8,0:0:0:0:
228,184,112017,1,0,0:0:0:0:
224,184,112111,1,8,0:0:0:0:
212,184,112204,1,0,0:0:0:0:
216,188,112298,1,0,0:0:0:0:
224,184,112392,1,0,0:0:0:0:
224,184,112486,1,8,0:0:0:0:
224,184,112579,1,0,0:0:0:0:
224,184,112673,1,0,0:0:0:0:
224,184,112767,1,8,0:0:0:0:
224,184,112861,1,0,0:0:0:0:
224,184,112954,1,0,0:0:0:0:
224,184,113001,1,0,0:0:0:0:
224,184,113048,1,8,0:0:0:0:
224,184,113095,1,8,0:0:0:0:
224,184,113142,1,0,0:0:0:0:
220,180,113236,1,8,0:0:0:0:
220,180,113329,1,0,0:0:0:0:
220,180,113423,1,8,0:0:0:0:
224,180,113517,1,0,0:0:0:0:
220,180,113611,1,8,0:0:0:0:
220,180,113704,1,0,0:0:0:0:
220,180,113798,1,0,0:0:0:0:
220,184,113845,1,0,0:0:0:0:
220,184,113892,1,0,0:0:0:0:
224,184,113986,1,8,0:0:0:0:
224,184,114079,1,0,0:0:0:0:
224,184,114173,1,8,0:0:0:0:
232,192,114267,1,0,0:0:0:0:
224,184,114361,1,8,0:0:0:0:
224,192,114454,1,0,0:0:0:0:
224,184,114548,1,8,0:0:0:0:
220,184,114595,1,8,0:0:0:0:
220,192,114642,1,0,0:0:0:0:
76,88,114736,2,0,L|364:140,2,280,0|0|0,0:0|0:0|0:0,0:0:0:0:
232,184,115673,1,0,0:0:0:0:
224,184,115767,1,0,0:0:0:0:
220,184,115861,1,8,0:0:0:0:
224,184,115954,1,8,0:0:0:0:
220,184,116048,1,0,0:0:0:0:
224,184,116142,1,0,0:0:0:0:
220,184,116236,1,8,0:0:0:0:
220,176,116282,1,8,0:0:0:0:
220,188,116329,1,0,0:0:0:0:
220,188,116423,1,8,0:0:0:0:
220,188,116517,1,0,0:0:0:0:
220,184,116611,1,8,0:0:0:0:
220,184,116657,1,8,0:0:0:0:
220,184,116704,1,0,0:0:0:0:
224,188,116798,1,8,0:0:0:0:
224,188,116892,1,0,0:0:0:0:
224,188,116986,1,8,0:0:0:0:
216,184,117079,1,0,0:0:0:0:
224,188,117173,1,0,0:0:0:0:
224,188,117220,1,8,0:0:0:0:
224,188,117267,1,0,0:0:0:0:
224,184,117361,1,0,0:0:0:0:
216,192,117548,1,8,0:0:0:0:
216,192,117642,1,8,0:0:0:0:
216,192,117736,1,0,0:0:0:0:
220,184,117782,1,0,0:0:0:0:
220,184,117829,1,0,0:0:0:0:
220,188,117923,1,8,0:0:0:0:
216,192,118017,1,8,0:0:0:0:
96,88,118111,2,0,L|376:128,1,280
216,192,118673,1,8,0:0:0:0:
216,192,118720,1,8,0:0:0:0:
216,192,118767,1,0,0:0:0:0:
216,192,118861,1,0,0:0:0:0:
216,192,118907,1,0,0:0:0:0:
216,192,118954,1,0,0:0:0:0:
216,192,119048,1,8,0:0:0:0:
216,192,119095,1,8,0:0:0:0:
216,192,119142,1,0,0:0:0:0:
216,192,119236,1,8,0:0:0:0:
216,192,119329,1,0,0:0:0:0:
216,192,119423,1,8,0:0:0:0:
216,192,119470,1,8,0:0:0:0:
216,192,119517,1,0,0:0:0:0:
216,192,119611,1,8,0:0:0:0:
216,192,119657,1,8,0:0:0:0:
216,192,119704,1,0,0:0:0:0:
220,192,119751,1,0,0:0:0:0:
220,192,119798,1,8,0:0:0:0:
220,192,119845,1,0,0:0:0:0:
220,192,119892,1,0,0:0:0:0:
220,192,119939,1,0,0:0:0:0:
220,188,119986,1,8,0:0:0:0:
224,184,120173,1,0,0:0:0:0:
224,184,120361,1,8,0:0:0:0:
216,192,120454,1,8,0:0:0:0:
232,192,120548,1,0,0:0:0:0:
224,188,120736,1,8,0:0:0:0:
220,192,120829,1,8,0:0:0:0:
220,192,120923,1,0,0:0:0:0:
220,192,121017,1,8,0:0:0:0:
220,192,121111,1,0,0:0:0:0:
220,192,121204,1,0,0:0:0:0:
220,192,121298,1,0,0:0:0:0:
220,192,121392,1,8,0:0:0:0:
220,192,121486,1,0,0:0:0:0:
220,192,121532,1,0,0:0:0:0:
220,192,121579,1,0,0:0:0:0:
232,184,121673,1,0,0:0:0:0:
224,184,121767,1,0,0:0:0:0:
220,184,121861,1,8,0:0:0:0:
224,184,121954,1,8,0:0:0:0:
220,184,122048,1,0,0:0:0:0:
224,184,122142,1,0,0:0:0:0:
220,184,122236,1,8,0:0:0:0:
220,176,122282,1,8,0:0:0:0:
220,188,122329,1,0,0:0:0:0:
216,180,122376,1,0,0:0:0:0:
220,188,122423,1,8,0:0:0:0:
220,188,122517,1,0,0:0:0:0:
220,184,122611,1,8,0:0:0:0:
220,184,122657,1,8,0:0:0:0:
220,184,122704,1,0,0:0:0:0:
216,184,122751,1,0,0:0:0:0:
224,188,122798,1,8,0:0:0:0:
224,188,122892,1,0,0:0:0:0:
224,188,122986,1,8,0:0:0:0:
216,184,123079,1,0,0:0:0:0:
224,188,123173,1,0,0:0:0:0:
224,188,123220,1,8,0:0:0:0:
224,188,123267,1,0,0:0:0:0:
216,184,123314,1,0,0:0:0:0:
224,184,123361,1,0,0:0:0:0:
224,188,123454,1,0,0:0:0:0:
216,192,123548,5,8,0:0:0:0:
216,192,123642,1,8,0:0:0:0:
216,192,123736,1,0,0:0:0:0:
220,184,123782,1,0,0:0:0:0:
220,184,123829,1,0,0:0:0:0:
220,188,123923,1,8,0:0:0:0:
216,192,124017,1,8,0:0:0:0:
216,184,124111,1,0,0:0:0:0:
220,184,124157,1,0,0:0:0:0:
220,184,124204,1,0,0:0:0:0:
220,184,124298,1,8,0:0:0:0:
216,184,124392,1,8,0:0:0:0:
216,184,124486,1,0,0:0:0:0:
216,184,124579,1,0,0:0:0:0:
216,192,124673,1,8,0:0:0:0:
216,192,124720,1,8,0:0:0:0:
216,192,124767,1,0,0:0:0:0:
216,192,124861,1,0,0:0:0:0:
216,192,124907,5,0,0:0:0:0:
216,192,124954,1,0,0:0:0:0:
224,188,125001,1,0,0:0:0:0:
216,192,125048,1,8,0:0:0:0:
216,192,125095,1,8,0:0:0:0:
216,192,125142,1,0,0:0:0:0:
216,192,125236,1,8,0:0:0:0:
216,192,125329,1,0,0:0:0:0:
216,192,125423,1,8,0:0:0:0:
216,192,125470,1,8,0:0:0:0:
216,192,125517,1,0,0:0:0:0:
216,192,125611,1,8,0:0:0:0:
216,192,125657,1,8,0:0:0:0:
216,192,125704,1,0,0:0:0:0:
220,192,125751,1,0,0:0:0:0:
220,192,125798,1,8,0:0:0:0:
220,192,125845,1,0,0:0:0:0:
220,192,125892,1,8,0:0:0:0:
220,192,125939,1,8,0:0:0:0:
220,188,125986,1,0,0:0:0:0:
256,192,126079,12,0,126970,0:0:0:0:
216,192,127109,5,8,0:0:0:0:
220,192,127202,1,8,0:0:0:0:
220,192,127296,1,0,0:0:0:0:
220,192,127390,1,0,0:0:0:0:
220,192,127484,1,8,0:0:0:0:
216,192,127671,1,0,0:0:0:0:
216,192,127859,1,8,0:0:0:0:
216,192,127952,1,8,0:0:0:0:
216,192,128046,1,0,0:0:0:0:
216,192,128140,1,8,0:0:0:0:
216,192,128234,1,0,0:0:0:0:
216,192,128327,1,0,0:0:0:0:
216,192,128421,1,8,0:0:0:0:
216,192,128609,1,0,0:0:0:0:
216,192,128702,1,0,0:0:0:0:
220,192,128796,1,8,0:0:0:0:
220,192,128984,1,0,0:0:0:0:
224,188,129171,1,0,0:0:0:0:
220,196,129359,1,8,0:0:0:0:
216,196,129452,1,8,0:0:0:0:
216,196,129640,1,8,0:0:0:0:
216,196,129827,1,0,0:0:0:0:
216,196,129921,1,8,0:0:0:0:
216,196,130109,1,8,0:0:0:0:
216,196,130202,1,0,0:0:0:0:
216,196,130296,1,0,0:0:0:0:
216,196,130390,1,0,0:0:0:0:
212,200,130484,1,8,0:0:0:0:
208,200,130671,1,8,0:0:0:0:
208,200,130859,1,0,0:0:0:0:
208,200,130952,1,8,0:0:0:0:
208,200,131140,1,8,0:0:0:0:
212,196,131327,1,8,0:0:0:0:
212,196,131421,1,0,0:0:0:0:
212,196,131515,1,8,0:0:0:0:
212,196,131609,1,0,0:0:0:0:
212,196,131796,1,0,0:0:0:0:
212,196,131984,1,0,0:0:0:0:
212,196,132077,1,0,0:0:0:0:
212,196,132171,1,8,0:0:0:0:
212,196,132359,1,8,0:0:0:0:
212,196,132452,1,0,0:0:0:0:
212,196,132546,1,0,0:0:0:0:
212,196,132640,1,8,0:0:0:0:
216,200,132734,1,0,0:0:0:0:
212,196,132827,1,8,0:0:0:0:
212,196,132921,1,8,0:0:0:0:
212,196,133109,1,8,0:0:0:0:
204,196,133202,1,8,0:0:0:0:
204,196,133296,1,0,0:0:0:0:
204,200,133484,1,0,0:0:0:0:
204,200,133671,1,8,0:0:0:0:
204,200,133859,1,8,0:0:0:0:
204,200,133952,1,8,0:0:0:0:
200,200,134140,1,8,0:0:0:0:
200,200,134327,1,0,0:0:0:0:
200,200,134421,1,8,0:0:0:0:
204,200,134515,1,8,0:0:0:0:
200,200,134609,1,0,0:0:0:0:
200,204,134702,1,0,0:0:0:0:
200,204,134796,1,8,0:0:0:0:
200,204,134984,1,8,0:0:0:0:
204,200,135171,1,0,0:0:0:0:
200,200,135359,1,8,0:0:0:0:
200,200,135452,1,8,0:0:0:0:
200,200,135546,1,0,0:0:0:0:
200,200,135640,1,8,0:0:0:0:
200,200,135827,1,0,0:0:0:0:
200,200,135921,1,8,0:0:0:0:
204,200,136109,1,8,0:0:0:0:
200,200,136202,1,8,0:0:0:0:
200,204,136296,1,0,0:0:0:0:
200,204,136390,1,8,0:0:0:0:
200,200,136484,1,8,0:0:0:0:
200,200,136671,1,8,0:0:0:0:
200,200,136859,1,8,0:0:0:0:
200,200,136952,1,8,0:0:0:0:
200,200,137046,1,0,0:0:0:0:
200,200,137140,1,8,0:0:0:0:
200,200,137234,1,0,0:0:0:0:
200,200,137327,1,0,0:0:0:0:
200,200,137421,1,8,0:0:0:0:
200,200,137609,1,8,0:0:0:0:
204,200,137702,1,0,0:0:0:0:
200,200,137796,1,0,0:0:0:0:
200,204,137890,1,0,0:0:0:0:
200,204,137984,1,8,0:0:0:0:
200,200,138171,1,8,0:0:0:0:
200,200,138359,1,8,0:0:0:0:
200,200,138452,1,8,0:0:0:0:
200,200,138546,1,0,0:0:0:0:
200,200,138640,1,8,0:0:0:0:
200,200,138734,1,0,0:0:0:0:
200,200,138827,1,8,0:0:0:0:
200,200,138921,1,8,0:0:0:0:
216,192,139109,5,8,0:0:0:0:
220,192,139202,1,8,0:0:0:0:
220,192,139296,1,0,0:0:0:0:
220,192,139390,1,0,0:0:0:0:
220,192,139484,1,8,0:0:0:0:
204,188,139577,1,0,0:0:0:0:
216,192,139671,1,0,0:0:0:0:
204,188,139765,1,0,0:0:0:0:
216,192,139859,1,8,0:0:0:0:
216,192,139952,1,8,0:0:0:0:
216,192,140046,1,0,0:0:0:0:
216,192,140140,1,8,0:0:0:0:
216,192,140234,1,0,0:0:0:0:
216,192,140327,1,0,0:0:0:0:
216,192,140421,1,8,0:0:0:0:
204,188,140515,1,8,0:0:0:0:
216,192,140609,1,0,0:0:0:0:
216,192,140702,1,0,0:0:0:0:
220,192,140796,1,8,0:0:0:0:
204,188,140890,1,8,0:0:0:0:
220,192,140984,1,0,0:0:0:0:
204,188,141077,1,8,0:0:0:0:
224,188,141171,1,0,0:0:0:0:
204,188,141265,1,8,0:0:0:0:
220,196,141359,1,8,0:0:0:0:
216,196,141452,1,8,0:0:0:0:
204,188,141546,1,0,0:0:0:0:
216,196,141640,1,8,0:0:0:0:
204,188,141734,1,0,0:0:0:0:
216,196,141827,1,0,0:0:0:0:
216,196,141921,1,8,0:0:0:0:
204,188,142015,1,0,0:0:0:0:
216,196,142109,1,8,0:0:0:0:
216,196,142202,1,0,0:0:0:0:
216,196,142296,1,0,0:0:0:0:
216,196,142390,1,0,0:0:0:0:
212,200,142484,1,8,0:0:0:0:
204,188,142577,1,0,0:0:0:0:
208,200,142671,1,8,0:0:0:0:
204,188,142765,1,8,0:0:0:0:
208,200,142859,1,0,0:0:0:0:
208,200,142952,1,8,0:0:0:0:
204,188,143046,1,0,0:0:0:0:
208,200,143140,1,8,0:0:0:0:
204,188,143234,1,0,0:0:0:0:
212,196,143327,1,8,0:0:0:0:
212,196,143421,1,0,0:0:0:0:
212,196,143515,1,0,0:0:0:0:
212,196,143609,1,0,0:0:0:0:
204,188,143702,1,8,0:0:0:0:
212,196,143796,1,0,0:0:0:0:
204,188,143890,1,8,0:0:0:0:
212,196,143984,1,0,0:0:0:0:
212,196,144077,1,0,0:0:0:0:
212,196,144171,1,8,0:0:0:0:
204,188,144265,1,0,0:0:0:0:
212,196,144359,1,8,0:0:0:0:
212,196,144452,1,0,0:0:0:0:
212,196,144546,1,0,0:0:0:0:
212,196,144640,1,8,0:0:0:0:
216,200,144734,1,0,0:0:0:0:
212,196,144827,1,8,0:0:0:0:
212,196,144921,1,8,0:0:0:0:
212,188,145015,1,0,0:0:0:0:
212,196,145109,1,8,0:0:0:0:
204,196,145202,1,8,0:0:0:0:
204,196,145296,1,0,0:0:0:0:
204,188,145390,1,8,0:0:0:0:
204,200,145484,1,0,0:0:0:0:
204,188,145577,1,0,0:0:0:0:
204,200,145671,1,8,0:0:0:0:
204,188,145765,1,0,0:0:0:0:
204,200,145859,1,8,0:0:0:0:
204,200,145952,1,8,0:0:0:0:
204,188,146046,1,0,0:0:0:0:
200,200,146140,1,8,0:0:0:0:
204,188,146234,1,0,0:0:0:0:
200,200,146327,1,0,0:0:0:0:
200,200,146421,1,8,0:0:0:0:
204,200,146515,1,8,0:0:0:0:
200,200,146609,1,4,0:0:0:0:
200,204,146702,1,0,0:0:0:0:
200,204,146796,1,8,0:0:0:0:
204,188,146890,1,0,0:0:0:0:
200,204,146984,1,8,0:0:0:0:
204,188,147077,1,8,0:0:0:0:
204,200,147171,1,0,0:0:0:0:
204,188,147265,1,8,0:0:0:0:
200,200,147359,1,8,0:0:0:0:
200,200,147452,1,8,0:0:0:0:
200,200,147546,1,0,0:0:0:0:
200,200,147640,1,8,0:0:0:0:
204,188,147734,1,0,0:0:0:0:
200,200,147827,1,0,0:0:0:0:
200,200,147921,1,8,0:0:0:0:
204,188,148015,1,8,0:0:0:0:
204,200,148109,1,4,0:0:0:0:
200,200,148202,1,0,0:0:0:0:
200,204,148296,1,0,0:0:0:0:
200,204,148390,1,8,0:0:0:0:
200,200,148484,1,8,0:0:0:0:
204,188,148577,1,0,0:0:0:0:
200,200,148671,1,8,0:0:0:0:
204,188,148765,1,8,0:0:0:0:
200,200,148859,1,4,0:0:0:0:
200,200,148952,1,8,0:0:0:0:
204,188,149046,1,0,0:0:0:0:
200,200,149140,1,8,0:0:0:0:
204,188,149234,1,0,0:0:0:0:
200,200,149327,1,0,0:0:0:0:
200,200,149421,1,8,0:0:0:0:
204,188,149515,1,8,0:0:0:0:
200,200,149609,1,4,0:0:0:0:
208,192,149702,1,8,0:0:0:0:
200,200,149796,1,4,0:0:0:0:
204,192,149890,1,8,0:0:0:0:
200,204,149984,1,4,0:0:0:0:
204,188,150077,1,8,0:0:0:0:
200,200,150171,1,4,0:0:0:0:
200,192,150359,1,12,0:0:0:0:
200,192,150452,1,4,0:0:0:0:
200,192,150640,1,12,0:0:0:0:
200,192,150827,1,4,0:0:0:0:
200,192,150921,1,12,0:0:0:0:
248,192,151109,1,4,0:0:0:0:
248,192,151202,1,0,0:0:0:0:
248,188,151296,1,8,0:0:0:0:
248,188,151390,1,0,0:0:0:0:
248,188,151437,1,0,0:0:0:0:
244,188,151484,1,8,0:0:0:0:
240,192,151577,1,0,0:0:0:0:
244,188,151671,1,8,0:0:0:0:
248,192,151718,1,8,0:0:0:0:
248,192,151765,1,0,0:0:0:0:
244,188,151859,1,8,0:0:0:0:
244,188,151952,1,8,0:0:0:0:
244,188,151999,1,8,0:0:0:0:
244,188,152046,1,0,0:0:0:0:
244,188,152093,1,0,0:0:0:0:
244,188,152140,1,8,0:0:0:0:
240,188,152187,1,8,0:0:0:0:
244,188,152234,1,0,0:0:0:0:
232,192,152327,1,0,0:0:0:0:
232,196,152421,1,0,0:0:0:0:
232,196,152515,1,8,0:0:0:0:
240,188,152609,1,0,0:0:0:0:
248,188,152655,1,0,0:0:0:0:
236,188,152702,1,0,0:0:0:0:
248,188,152749,1,0,0:0:0:0:
236,188,152796,1,8,0:0:0:0:
240,188,152890,1,0,0:0:0:0:
240,188,152984,1,8,0:0:0:0:
240,188,153030,1,8,0:0:0:0:
244,188,153077,1,0,0:0:0:0:
240,192,153124,1,0,0:0:0:0:
240,192,153171,1,8,0:0:0:0:
236,184,153265,1,0,0:0:0:0:
236,184,153359,1,8,0:0:0:0:
236,184,153405,1,0,0:0:0:0:
236,184,153452,1,8,0:0:0:0:
236,184,153499,1,8,0:0:0:0:
236,184,153546,1,0,0:0:0:0:
236,184,153640,1,0,0:0:0:0:
236,184,153734,1,0,0:0:0:0:
236,184,153827,1,0,0:0:0:0:
236,184,153874,1,0,0:0:0:0:
236,184,153921,1,8,0:0:0:0:
234,183,154015,1,0,0:0:0:0:
236,184,154109,1,0,0:0:0:0:
248,184,154155,1,8,0:0:0:0:
240,188,154202,1,8,0:0:0:0:
236,180,154249,1,8,0:0:0:0:
236,188,154296,1,0,0:0:0:0:
236,184,154390,1,0,0:0:0:0:
236,184,154484,1,8,0:0:0:0:
236,184,154577,1,0,0:0:0:0:
236,184,154671,1,8,0:0:0:0:
236,184,154718,1,0,0:0:0:0:
236,184,154765,1,0,0:0:0:0:
236,184,154812,1,0,0:0:0:0:
236,184,154859,1,8,0:0:0:0:
236,184,154952,1,8,0:0:0:0:
236,184,155046,1,0,0:0:0:0:
236,184,155140,1,0,0:0:0:0:
236,184,155187,1,0,0:0:0:0:
236,184,155234,1,8,0:0:0:0:
236,184,155327,1,0,0:0:0:0:
236,184,155421,1,0,0:0:0:0:
236,184,155515,1,8,0:0:0:0:
236,184,155609,1,0,0:0:0:0:
228,184,155655,1,0,0:0:0:0:
236,184,155702,1,0,0:0:0:0:
236,184,155796,1,8,0:0:0:0:
236,180,155843,1,8,0:0:0:0:
236,184,155890,1,0,0:0:0:0:
236,184,155984,1,0,0:0:0:0:
236,184,156030,1,0,0:0:0:0:
236,184,156077,1,0,0:0:0:0:
236,184,156171,1,8,0:0:0:0:
236,184,156218,1,8,0:0:0:0:
236,184,156265,1,0,0:0:0:0:
236,184,156359,1,8,0:0:0:0:
236,184,156405,1,8,0:0:0:0:
228,180,156452,1,0,0:0:0:0:
228,180,156499,1,0,0:0:0:0:
228,180,156546,1,8,0:0:0:0:
224,176,156640,1,0,0:0:0:0:
224,176,156734,1,8,0:0:0:0:
224,176,156828,1,0,0:0:0:0:
232,176,156874,1,0,0:0:0:0:
224,176,156921,1,8,0:0:0:0:
240,184,157109,1,8,0:0:0:0:
232,180,157155,1,0,0:0:0:0:
240,184,157202,1,8,0:0:0:0:
240,184,157296,1,0,0:0:0:0:
248,192,157390,1,8,0:0:0:0:
244,188,157484,1,0,0:0:0:0:
248,188,157530,1,0,0:0:0:0:
240,192,157577,1,8,0:0:0:0:
248,188,157624,1,8,0:0:0:0:
244,188,157671,1,0,0:0:0:0:
248,192,157765,1,0,0:0:0:0:
244,188,157859,1,0,0:0:0:0:
240,192,157905,1,0,0:0:0:0:
244,188,157952,1,8,0:0:0:0:
244,188,158046,1,0,0:0:0:0:
244,188,158140,1,0,0:0:0:0:
240,188,158187,1,8,0:0:0:0:
244,188,158234,1,0,0:0:0:0:
232,192,158327,1,0,0:0:0:0:
232,196,158421,1,8,0:0:0:0:
232,196,158515,1,0,0:0:0:0:
240,188,158609,1,0,0:0:0:0:
248,188,158655,1,0,0:0:0:0:
248,188,158702,1,0,0:0:0:0:
236,188,158796,1,8,0:0:0:0:
240,188,158890,1,0,0:0:0:0:
240,188,158984,1,8,0:0:0:0:
240,188,159030,1,0,0:0:0:0:
244,188,159077,1,0,0:0:0:0:
240,192,159124,1,0,0:0:0:0:
240,192,159171,1,0,0:0:0:0:
236,184,159265,1,0,0:0:0:0:
236,184,159359,1,8,0:0:0:0:
236,184,159405,1,8,0:0:0:0:
236,184,159452,1,0,0:0:0:0:
236,184,159546,1,0,0:0:0:0:
236,184,159593,1,8,0:0:0:0:
236,184,159640,1,0,0:0:0:0:
236,184,159734,1,8,0:0:0:0:
240,184,159780,1,8,0:0:0:0:
236,184,159827,1,0,0:0:0:0:
236,184,159874,1,0,0:0:0:0:
236,184,159921,1,8,0:0:0:0:
234,183,160015,1,0,0:0:0:0:
236,184,160109,1,8,0:0:0:0:
240,188,160155,1,8,0:0:0:0:
240,188,160202,1,0,0:0:0:0:
236,180,160249,1,8,0:0:0:0:
236,188,160296,1,8,0:0:0:0:
236,184,160390,1,8,0:0:0:0:
236,184,160484,1,0,0:0:0:0:
236,184,160577,1,0,0:0:0:0:
236,184,160671,1,8,0:0:0:0:
236,184,160718,1,8,0:0:0:0:
236,184,160765,1,0,0:0:0:0:
236,184,160812,1,0,0:0:0:0:
236,184,160859,1,8,0:0:0:0:
236,184,160952,1,0,0:0:0:0:
236,184,161046,1,8,0:0:0:0:
236,184,161140,1,0,0:0:0:0:
236,184,161187,1,0,0:0:0:0:
236,184,161234,1,8,0:0:0:0:
236,184,161327,1,0,0:0:0:0:
236,184,161421,1,8,0:0:0:0:
236,184,161515,1,0,0:0:0:0:
240,180,161609,1,8,0:0:0:0:
240,180,161655,1,8,0:0:0:0:
240,180,161702,1,0,0:0:0:0:
240,180,161749,1,0,0:0:0:0:
240,180,161796,1,8,0:0:0:0:
236,188,161890,1,0,0:0:0:0:
236,184,161984,1,8,0:0:0:0:
236,184,162030,1,8,0:0:0:0:
236,184,162077,1,0,0:0:0:0:
236,184,162124,1,0,0:0:0:0:
236,184,162171,1,8,0:0:0:0:
236,184,162265,1,0,0:0:0:0:
236,184,162359,1,8,0:0:0:0:
236,184,162405,1,0,0:0:0:0:
236,184,162452,1,8,0:0:0:0:
236,184,162546,1,0,0:0:0:0:
236,184,162640,1,0,0:0:0:0:
236,184,162687,1,0,0:0:0:0:
236,184,162734,1,0,0:0:0:0:
236,184,162827,1,12,0:0:0:0:
236,184,162921,1,12,0:0:0:0:
248,192,163109,1,4,0:0:0:0:
248,192,163202,1,0,0:0:0:0:
248,188,163296,1,8,0:0:0:0:
248,188,163390,1,0,0:0:0:0:
248,188,163437,1,0,0:0:0:0:
244,188,163484,1,8,0:0:0:0:
240,192,163577,1,0,0:0:0:0:
244,188,163671,1,0,0:0:0:0:
248,192,163718,1,0,0:0:0:0:
248,192,163765,1,8,0:0:0:0:
244,188,163859,1,0,0:0:0:0:
244,188,163952,1,8,0:0:0:0:
244,188,163999,1,8,0:0:0:0:
244,188,164046,1,8,0:0:0:0:
244,188,164093,1,8,0:0:0:0:
244,188,164140,1,0,0:0:0:0:
240,188,164187,1,0,0:0:0:0:
244,188,164234,1,8,0:0:0:0:
232,192,164327,1,0,0:0:0:0:
232,196,164421,1,0,0:0:0:0:
232,196,164515,1,8,0:0:0:0:
240,188,164609,1,0,0:0:0:0:
248,188,164655,1,0,0:0:0:0:
236,188,164702,1,0,0:0:0:0:
248,188,164749,1,0,0:0:0:0:
236,188,164796,1,8,0:0:0:0:
240,188,164890,1,0,0:0:0:0:
240,188,164984,1,8,0:0:0:0:
240,188,165030,1,8,0:0:0:0:
244,188,165077,1,0,0:0:0:0:
240,192,165124,1,0,0:0:0:0:
240,192,165171,1,8,0:0:0:0:
236,184,165265,1,0,0:0:0:0:
236,184,165359,1,8,0:0:0:0:
236,184,165405,1,0,0:0:0:0:
236,184,165452,1,8,0:0:0:0:
236,184,165546,1,0,0:0:0:0:
236,184,165640,1,8,0:0:0:0:
236,184,165734,1,0,0:0:0:0:
236,184,165780,1,0,0:0:0:0:
236,184,165827,1,0,0:0:0:0:
236,184,165874,1,0,0:0:0:0:
236,184,165921,1,8,0:0:0:0:
234,183,166015,1,0,0:0:0:0:
236,184,166109,1,0,0:0:0:0:
248,184,166155,1,0,0:0:0:0:
240,188,166202,1,8,0:0:0:0:
236,180,166249,1,8,0:0:0:0:
236,188,166296,1,0,0:0:0:0:
236,184,166390,1,0,0:0:0:0:
236,184,166484,1,8,0:0:0:0:
236,184,166577,1,0,0:0:0:0:
236,184,166671,1,8,0:0:0:0:
236,184,166718,1,0,0:0:0:0:
236,184,166765,1,0,0:0:0:0:
236,184,166812,1,0,0:0:0:0:
236,184,166859,1,8,0:0:0:0:
236,184,166952,1,8,0:0:0:0:
236,184,167046,1,0,0:0:0:0:
236,184,167140,1,0,0:0:0:0:
236,184,167187,1,0,0:0:0:0:
236,184,167234,1,8,0:0:0:0:
236,184,167327,1,0,0:0:0:0:
236,184,167421,1,8,0:0:0:0:
248,184,167515,1,0,0:0:0:0:
236,184,167609,1,0,0:0:0:0:
228,184,167655,1,0,0:0:0:0:
236,184,167702,1,0,0:0:0:0:
236,184,167796,1,8,0:0:0:0:
236,180,167843,1,8,0:0:0:0:
236,184,167890,1,0,0:0:0:0:
236,184,167984,1,0,0:0:0:0:
236,184,168030,1,0,0:0:0:0:
236,184,168077,1,0,0:0:0:0:
236,184,168171,1,8,0:0:0:0:
236,184,168218,1,8,0:0:0:0:
236,184,168265,1,0,0:0:0:0:
236,184,168359,1,8,0:0:0:0:
236,184,168405,1,8,0:0:0:0:
228,180,168452,1,0,0:0:0:0:
228,180,168499,1,0,0:0:0:0:
228,180,168546,1,8,0:0:0:0:
224,176,168640,1,0,0:0:0:0:
224,176,168734,1,8,0:0:0:0:
224,176,168828,1,0,0:0:0:0:
232,176,168874,1,0,0:0:0:0:
224,176,168921,1,8,0:0:0:0:
240,184,169109,1,0,0:0:0:0:
232,180,169155,1,0,0:0:0:0:
240,184,169202,1,0,0:0:0:0:
240,184,169296,1,8,0:0:0:0:
248,192,169390,1,0,0:0:0:0:
244,188,169484,1,8,0:0:0:0:
248,188,169530,1,8,0:0:0:0:
240,192,169577,1,0,0:0:0:0:
248,188,169624,1,0,0:0:0:0:
244,188,169671,1,8,0:0:0:0:
248,192,169765,1,0,0:0:0:0:
244,188,169859,1,0,0:0:0:0:
240,192,169905,1,0,0:0:0:0:
244,188,169952,1,0,0:0:0:0:
244,188,170046,1,8,0:0:0:0:
244,188,170140,1,0,0:0:0:0:
240,188,170187,1,0,0:0:0:0:
244,188,170234,1,8,0:0:0:0:
232,192,170327,1,0,0:0:0:0:
232,196,170421,1,0,0:0:0:0:
232,196,170515,1,8,0:0:0:0:
240,188,170609,1,0,0:0:0:0:
248,188,170655,1,0,0:0:0:0:
248,188,170702,1,0,0:0:0:0:
236,188,170796,1,8,0:0:0:0:
240,188,170890,1,0,0:0:0:0:
240,188,170984,1,8,0:0:0:0:
240,188,171030,1,8,0:0:0:0:
244,188,171077,1,0,0:0:0:0:
240,192,171124,1,8,0:0:0:0:
240,192,171171,1,0,0:0:0:0:
236,184,171265,1,0,0:0:0:0:
236,184,171359,1,8,0:0:0:0:
236,184,171405,1,8,0:0:0:0:
236,184,171452,1,0,0:0:0:0:
236,184,171546,1,0,0:0:0:0:
236,184,171593,1,8,0:0:0:0:
236,184,171640,1,0,0:0:0:0:
236,184,171734,1,8,0:0:0:0:
240,184,171780,1,8,0:0:0:0:
236,184,171827,1,0,0:0:0:0:
236,184,171874,1,0,0:0:0:0:
236,184,171921,1,8,0:0:0:0:
234,183,172015,1,0,0:0:0:0:
236,184,172109,1,8,0:0:0:0:
240,188,172155,1,8,0:0:0:0:
240,188,172202,1,0,0:0:0:0:
236,180,172249,1,0,0:0:0:0:
236,188,172296,1,8,0:0:0:0:
236,184,172390,1,0,0:0:0:0:
236,184,172484,1,8,0:0:0:0:
236,184,172577,1,0,0:0:0:0:
236,184,172671,1,0,0:0:0:0:
236,184,172718,1,8,0:0:0:0:
236,184,172765,1,0,0:0:0:0:
236,184,172812,1,0,0:0:0:0:
236,184,172859,1,8,0:0:0:0:
236,184,172952,1,0,0:0:0:0:
236,184,173046,1,8,0:0:0:0:
236,184,173140,1,0,0:0:0:0:
236,184,173187,1,8,0:0:0:0:
236,184,173234,1,8,0:0:0:0:
236,184,173327,1,0,0:0:0:0:
236,184,173421,1,8,0:0:0:0:
236,184,173515,1,0,0:0:0:0:
240,180,173609,1,8,0:0:0:0:
240,180,173655,1,0,0:0:0:0:
240,180,173702,1,0,0:0:0:0:
240,180,173749,1,0,0:0:0:0:
240,180,173796,1,8,0:0:0:0:
236,188,173890,1,0,0:0:0:0:
236,184,173984,1,8,0:0:0:0:
236,184,174030,1,8,0:0:0:0:
236,184,174077,1,0,0:0:0:0:
236,184,174124,1,0,0:0:0:0:
236,184,174171,1,8,0:0:0:0:
236,184,174265,1,0,0:0:0:0:
236,184,174359,1,8,0:0:0:0:
236,184,174405,1,0,0:0:0:0:
236,184,174452,1,8,0:0:0:0:
236,184,174546,1,8,0:0:0:0:
236,184,174593,1,8,0:0:0:0:
236,184,174640,1,0,0:0:0:0:
236,184,174687,1,0,0:0:0:0:
236,184,174734,1,0,0:0:0:0:
236,184,174827,1,12,0:0:0:0:
244,188,174921,1,12,0:0:0:0:
236,184,175109,1,0,0:0:0:0:
232,184,175296,1,0,0:0:0:0:
232,184,175484,1,0,0:0:0:0:
236,184,175671,1,0,0:0:0:0:
236,184,175859,1,8,0:0:0:0:
236,184,175952,1,0,0:0:0:0:
236,184,176140,1,8,0:0:0:0:
236,184,176327,1,0,0:0:0:0:
236,184,176421,1,8,0:0:0:0:
236,184,176515,1,0,0:0:0:0:
236,184,176609,1,0,0:0:0:0:
232,184,176796,1,0,0:0:0:0:
232,184,176984,1,0,0:0:0:0:
236,184,177171,1,0,0:0:0:0:
236,184,177359,1,8,0:0:0:0:
236,184,177452,1,0,0:0:0:0:
236,184,177640,1,8,0:0:0:0:
236,184,177827,1,0,0:0:0:0:
236,184,177921,1,8,0:0:0:0:
236,184,178015,1,0,0:0:0:0:
236,184,178109,1,0,0:0:0:0:
232,184,178296,1,0,0:0:0:0:
232,184,178484,1,0,0:0:0:0:
236,184,178671,1,0,0:0:0:0:
236,184,178859,1,8,0:0:0:0:
236,184,178952,1,0,0:0:0:0:
236,184,179140,1,8,0:0:0:0:
232,192,179327,1,8,0:0:0:0:
224,184,179421,1,0,0:0:0:0:
224,184,179515,1,8,0:0:0:0:
224,184,179609,1,4,0:0:0:0:
224,184,179796,1,4,0:0:0:0:
224,176,179984,1,4,0:0:0:0:
224,176,180171,1,4,0:0:0:0:
224,176,180359,1,12,0:0:0:0:
224,176,180452,1,4,0:0:0:0:
224,176,180640,1,12,0:0:0:0:
224,176,180827,1,4,0:0:0:0:
224,176,180921,1,12,0:0:0:0:
236,180,181109,1,0,0:0:0:0:
232,180,181202,1,0,0:0:0:0:
236,180,181296,1,0,0:0:0:0:
232,180,181390,1,0,0:0:0:0:
232,180,181484,1,0,0:0:0:0:
232,180,181577,1,0,0:0:0:0:
232,180,181671,1,0,0:0:0:0:
232,180,181765,1,0,0:0:0:0:
232,184,181859,1,8,0:0:0:0:
228,184,181952,1,8,0:0:0:0:
228,184,182046,1,0,0:0:0:0:
228,184,182140,1,8,0:0:0:0:
228,180,182234,1,0,0:0:0:0:
228,184,182327,1,8,0:0:0:0:
228,184,182421,1,8,0:0:0:0:
228,184,182609,1,0,0:0:0:0:
228,184,182702,1,0,0:0:0:0:
232,180,182796,1,0,0:0:0:0:
228,184,182890,1,0,0:0:0:0:
232,180,182984,1,0,0:0:0:0:
232,180,183077,1,0,0:0:0:0:
232,180,183171,1,0,0:0:0:0:
232,180,183265,1,0,0:0:0:0:
232,180,183359,1,8,0:0:0:0:
232,184,183452,1,8,0:0:0:0:
228,184,183546,1,0,0:0:0:0:
228,184,183640,1,8,0:0:0:0:
228,184,183734,1,0,0:0:0:0:
228,184,183827,1,8,0:0:0:0:
228,184,183921,1,8,0:0:0:0:
228,180,184109,1,0,0:0:0:0:
228,184,184202,1,0,0:0:0:0:
228,184,184296,1,0,0:0:0:0:
232,180,184390,1,0,0:0:0:0:
228,184,184484,1,0,0:0:0:0:
232,180,184577,1,0,0:0:0:0:
232,180,184671,1,0,0:0:0:0:
232,180,184765,1,0,0:0:0:0:
232,180,184859,1,8,0:0:0:0:
232,180,184952,1,8,0:0:0:0:
228,180,185046,1,0,0:0:0:0:
228,184,185140,1,8,0:0:0:0:
228,184,185234,1,0,0:0:0:0:
228,184,185327,1,8,0:0:0:0:
228,184,185421,1,8,0:0:0:0:
228,184,185515,1,8,0:0:0:0:
228,180,185609,1,4,0:0:0:0:
228,184,185796,1,4,0:0:0:0:
232,180,185984,1,12,0:0:0:0:
232,180,186171,1,12,0:0:0:0:
232,180,186359,1,12,0:0:0:0:
232,180,186546,1,8,0:0:0:0:
228,180,186640,1,8,0:0:0:0:
228,184,186734,1,8,0:0:0:0:
228,184,186921,1,8,0:0:0:0:
256,192,187109,12,0,190109,0:0:0:0:
