osu file format v12

[General]
AudioFilename: [Megafileupload]plane theory.mp3
AudioLeadIn: 0
PreviewTime: -1
Countdown: 1
SampleSet: Normal
StackLeniency: 0.6
Mode: 0
LetterboxInBreaks: 1
WidescreenStoryboard: 0

[Editor]
DistanceSpacing: 0.5
BeatDivisor: 4
GridSize: 8
TimelineZoom: 2.6

[Metadata]
Title:Plane Theory
TitleUnicode:Plane Theory
Artist:Lily
ArtistUnicode:Lily
Creator:CoRTeXD
Version:Big Plane
Source:
Tags:
BeatmapID:420928
BeatmapSetID:174315

[Difficulty]
HPDrainRate:8
CircleSize:4
OverallDifficulty:8
ApproachRate:9
SliderMultiplier:1.7
SliderTickRate:1

[Events]
//Background and Video events
0,0,"lily_vocaloid_by_uchiih4killer96-d5wwh4b.png",0,0
//Break Periods
//Storyboard Layer 0 (Background)
//Storyboard Layer 1 (Fail)
//Storyboard Layer 2 (Pass)
//Storyboard Layer 3 (Foreground)
//Storyboard Sound Samples
//Background Colour Transformations
3,100,163,162,255

[TimingPoints]
90,307.692307692308,4,1,0,100,1,0

[HitObjects]
80,80,7474,5,0,0:0:0:0:
96,80,7782,1,0,0:0:0:0:
176,96,8090,1,0,0:0:0:0:
192,128,8166,1,0,0:0:0:0:
208,160,8243,1,0,0:0:0:0:
336,80,8397,2,0,P|384:112|384:160,1,85
352,240,8859,5,0,0:0:0:0:
240,272,9013,1,0,0:0:0:0:
128,176,9166,2,0,P|95:128|113:83,1,85
240,64,9474,1,0,0:0:0:0:
256,112,9551,1,0,0:0:0:0:
256,160,9628,1,0,0:0:0:0:
224,288,9782,1,0,0:0:0:0:
336,80,10090,6,0,P|384:112|384:160,1,85
384,256,10397,1,0,0:0:0:0:
288,336,10551,1,0,0:0:0:0:
144,336,10705,2,0,P|93:308|87:260,1,85
176,256,11013,1,0,0:0:0:0:
48,128,11320,6,0,P|96:160|96:208,1,85
176,80,11628,1,0,0:0:0:0:
224,64,11705,1,0,0:0:0:0:
272,64,11782,1,0,0:0:0:0:
368,128,11936,1,0,0:0:0:0:
384,256,12090,2,0,P|380:296|349:323,1,85
176,288,12551,5,0,0:0:0:0:
256,112,12705,1,0,0:0:0:0:
336,288,12859,1,0,0:0:0:0:
128,192,13013,1,0,0:0:0:0:
368,192,13166,1,0,0:0:0:0:
256,192,13320,2,0,L|256:304,1,85
80,112,13782,6,0,P|107:61|155:56,1,85
272,64,14090,1,0,0:0:0:0:
320,80,14166,1,0,0:0:0:0:
368,96,14243,1,0,0:0:0:0:
432,176,14397,1,0,0:0:0:0:
384,288,14551,2,0,P|331:312|290:287,1,85
320,144,15013,5,0,0:0:0:0:
240,240,15166,1,0,0:0:0:0:
160,320,15320,2,0,P|88:314|69:284,2,85
80,192,15782,1,0,0:0:0:0:
80,64,15936,1,0,0:0:0:0:
384,288,16243,6,0,P|331:312|290:287,1,85,0|0,0:0|0:0,0:0:0:0:
176,256,16551,1,0,0:0:0:0:
96,112,16705,1,0,0:0:0:0:
240,48,16859,2,0,P|320:64|336:96,1,85
368,160,17166,1,0,0:0:0:0:
128,112,17474,6,0,P|169:105|208:136,1,85
144,208,17782,1,0,0:0:0:0:
128,240,17859,1,0,0:0:0:0:
112,272,17936,1,0,0:0:0:0:
288,304,18090,2,0,P|329:310|363:287,1,85
256,192,18397,5,0,0:0:0:0:
256,80,18705,1,0,0:0:0:0:
320,96,18859,2,0,P|336:128|344:184,1,85
160,160,19166,2,0,P|143:187|136:240,1,85
384,272,19474,2,0,P|399:304|392:368,1,85
240,336,19782,2,0,P|204:341|152:320,1,85
256,200,20090,2,0,P|255:156|276:113,1,85
168,48,20397,1,0,0:0:0:0:
344,88,20551,1,0,0:0:0:0:
168,120,20705,1,0,0:0:0:0:
344,160,20859,1,0,0:0:0:0:
416,272,21320,5,0,0:0:0:0:
384,176,21628,1,0,0:0:0:0:
288,112,21936,1,0,0:0:0:0:
192,112,22243,1,0,0:0:0:0:
152,112,22320,1,0,0:0:0:0:
112,128,22397,1,0,0:0:0:0:
80,160,22474,1,0,0:0:0:0:
64,200,22551,1,0,0:0:0:0:
64,240,22628,1,0,0:0:0:0:
176,312,22859,2,0,P|217:318|251:295,1,85
184,216,23166,1,0,0:0:0:0:
304,184,23320,1,0,0:0:0:0:
88,320,23628,6,0,P|129:326|163:303,1,85
184,232,23936,2,0,P|143:226|109:249,1,85
304,296,24243,1,0,0:0:0:0:
360,280,24320,1,0,0:0:0:0:
392,232,24397,1,0,0:0:0:0:
408,96,24551,1,0,0:0:0:0:
288,40,24705,2,0,P|248:34|208:64,1,85
176,168,25013,1,0,0:0:0:0:
192,280,25166,1,0,0:0:0:0:
312,328,25320,2,0,L|424:304,1,85
448,208,25628,1,0,0:0:0:0:
368,104,25782,1,0,0:0:0:0:
256,56,25936,6,0,L|168:56,1,85
112,144,26243,1,0,0:0:0:0:
216,144,26397,1,0,0:0:0:0:
256,232,26551,2,0,L|168:232,1,85
208,328,26859,1,0,0:0:0:0:
312,328,27013,1,0,0:0:0:0:
424,312,27166,2,0,P|445:276|408:122,1,170
360,96,27628,1,0,0:0:0:0:
264,80,27782,1,0,0:0:0:0:
168,104,27936,1,0,0:0:0:0:
88,176,28090,1,0,0:0:0:0:
200,80,28551,6,0,P|159:74|125:97,1,85
312,80,28859,2,0,P|353:74|387:97,1,85
328,176,29166,1,0,0:0:0:0:
304,264,29320,1,0,0:0:0:0:
216,296,29474,1,0,0:0:0:0:
128,264,29628,1,0,0:0:0:0:
96,176,29782,1,0,0:0:0:0:
136,96,29936,2,0,P|169:58|224:32,1,85
312,48,30243,1,0,0:0:0:0:
400,120,30397,1,0,0:0:0:0:
416,216,30551,2,0,P|392:280|368:312,1,85
304,352,30859,1,0,0:0:0:0:
192,344,31013,1,0,0:0:0:0:
112,272,31166,5,0,0:0:0:0:
136,176,31320,1,0,0:0:0:0:
224,152,31474,2,0,L|328:152,2,85
192,48,31936,1,0,0:0:0:0:
296,56,32243,1,0,0:0:0:0:
328,80,32320,1,0,0:0:0:0:
352,112,32397,1,0,0:0:0:0:
360,152,32474,1,0,0:0:0:0:
352,192,32551,1,0,0:0:0:0:
328,224,32628,1,0,0:0:0:0:
296,248,32705,1,0,0:0:0:0:
144,264,33013,2,0,P|112:237|106:196,1,85
240,112,33320,1,0,0:0:0:0:
344,120,33474,1,0,0:0:0:0:
432,184,33628,5,0,0:0:0:0:
424,288,33782,1,0,0:0:0:0:
320,320,33936,2,0,P|281:317|240:288,1,85
192,200,34243,1,0,0:0:0:0:
96,168,34397,1,0,0:0:0:0:
32,232,34551,1,0,0:0:0:0:
128,320,34705,2,0,P|113:285|120:240,1,85
152,144,35013,6,0,P|177:109|248:88,1,85
320,96,35320,1,0,0:0:0:0:
400,144,35474,1,0,0:0:0:0:
416,232,35628,1,0,0:0:0:0:
352,288,35782,1,0,0:0:0:0:
264,280,35936,1,0,0:0:0:0:
184,224,36090,2,0,P|153:197|147:156,1,85
240,112,36397,1,0,0:0:0:0:
168,56,36551,1,0,0:0:0:0:
80,48,36705,2,0,P|39:47|4:70,1,85
72,136,37013,5,0,0:0:0:0:
88,224,37166,1,0,0:0:0:0:
248,304,37320,2,0,P|168:304|136:280,1,85
328,224,37628,1,0,0:0:0:0:
360,136,37782,1,0,0:0:0:0:
408,48,37936,6,0,P|450:46|485:69,1,85
424,120,38243,2,0,P|420:161|392:192,1,85
272,144,38551,2,0,P|309:122|350:126,1,85
320,200,38859,2,0,P|313:241|284:270,1,85
164,232,39166,2,0,P|199:207|240:208,1,85
216,280,39474,2,0,P|230:319|264:344,1,85
368,296,39782,2,0,P|333:273|292:274,1,85
184,128,40090,1,0,0:0:0:0:
328,256,40243,1,0,0:0:0:0:
304,96,40397,5,0,0:0:0:0:
456,232,40551,1,0,0:0:0:0:
272,176,41013,1,0,0:0:0:0:
400,128,41320,1,0,0:0:0:0:
328,56,41474,1,0,0:0:0:0:
304,144,41628,2,0,L|224:224,1,85
96,248,42243,5,0,0:0:0:0:
288,328,42551,1,0,0:0:0:0:
360,264,42705,1,0,0:0:0:0:
280,240,42859,2,0,L|208:152,1,85
256,96,43166,5,0,0:0:0:0:
176,96,43320,2,0,L|96:176,1,85
336,96,43628,2,0,L|416:176,1,85
256,160,43936,2,0,L|256:256,1,85
80,240,44243,1,0,0:0:0:0:
160,296,44397,1,0,0:0:0:0:
256,352,44551,2,0,L|341:352,1,85
304,264,44859,1,0,0:0:0:0:
232,208,45013,1,0,0:0:0:0:
32,160,45166,6,0,L|117:160,1,85
144,256,45474,2,0,L|229:256,1,85
208,80,45782,2,0,L|293:80,1,85
256,176,46090,2,0,L|341:176,1,85
376,64,46397,1,0,0:0:0:0:
304,304,46551,1,0,0:0:0:0:
240,104,46705,1,0,0:0:0:0:
184,224,46859,1,0,0:0:0:0:
96,160,47013,1,0,0:0:0:0:
88,264,47166,1,0,0:0:0:0:
176,312,47320,2,0,L|272:320|272:320,1,85
360,320,47628,5,0,0:0:0:0:
448,304,47782,1,0,0:0:0:0:
384,224,47936,2,0,L|296:144,1,85
312,80,48243,1,0,0:0:0:0:
240,128,48397,1,0,0:0:0:0:
237,216,48551,2,0,L|152:216,1,85
72,232,48859,1,0,0:0:0:0:
96,152,49013,1,0,0:0:0:0:
144,88,49166,2,0,L|224:40,1,85
272,128,49474,1,0,0:0:0:0:
296,232,49628,1,0,0:0:0:0:
320,312,49782,2,0,L|392:240,1,85
416,176,50090,5,0,0:0:0:0:
416,96,50243,1,0,0:0:0:0:
336,56,50397,2,0,L|192:288,1,255
120,288,51166,5,0,0:0:0:0:
88,208,51320,1,0,0:0:0:0:
104,120,51474,1,0,0:0:0:0:
184,64,51628,2,0,L|368:264,1,255
424,144,52551,6,0,P|416:72|376:48,1,85
336,104,52859,1,0,0:0:0:0:
264,168,53166,1,0,0:0:0:0:
232,200,53320,1,0,0:0:0:0:
216,280,53628,5,0,0:0:0:0:
272,88,53782,1,0,0:0:0:0:
160,240,53936,1,0,0:0:0:0:
328,128,54090,1,0,0:0:0:0:
144,136,54243,2,0,L|40:104,1,85
336,192,54551,2,0,L|456:224,1,85
256,192,54859,2,0,L|256:280,1,85
208,104,55166,1,0,0:0:0:0:
109,91,55474,6,0,P|58:119|24:153,1,85
104,176,55782,2,0,P|101:234|111:280,1,85
176,224,56090,2,0,P|219:262|263:282,1,85
256,200,56397,2,0,P|314:204|361:194,1,85
304,136,56705,2,0,P|354:106|387:72,1,85
304,56,57013,2,0,P|248:75|209:102,1,85
176,152,57320,2,0,P|160:208|160:256,1,85
248,216,57628,2,0,P|248:272|232:320,1,85
152,248,57936,5,0,0:0:0:0:
328,112,58090,1,0,0:0:0:0:
128,184,58243,1,0,0:0:0:0:
352,176,58397,1,0,0:0:0:0:
136,112,58551,1,0,0:0:0:0:
344,240,58705,1,0,0:0:0:0:
240,80,58859,1,0,0:0:0:0:
224,176,59013,2,0,P|232:232|256:272,1,85
80,96,59782,5,0,0:0:0:0:
184,296,60090,1,0,0:0:0:0:
64,80,60397,1,0,0:0:0:0:
72,120,60551,2,0,P|104:168|152:200,1,85
208,176,60859,2,0,P|216:232|248:272,1,85
328,176,61166,2,0,P|312:232|312:280,1,85
440,208,61474,2,0,P|400:256|384:296,1,85
304,320,61782,2,0,P|256:328|200:320,1,85
256,256,62090,2,0,P|260:213|273:173,1,85
136,240,62397,5,0,0:0:0:0:
248,72,62551,1,0,0:0:0:0:
352,240,62705,1,0,0:0:0:0:
176,184,62859,1,0,0:0:0:0:
288,128,63013,1,0,0:0:0:0:
280,240,63166,1,0,0:0:0:0:
232,160,63320,1,0,0:0:0:0:
280,184,63474,1,0,0:0:0:0:
232,216,63628,1,0,0:0:0:0:
256,184,63782,1,0,0:0:0:0:
224,152,63936,2,0,P|168:152|128:176,1,85
64,208,64397,5,0,0:0:0:0:
160,240,64705,1,0,0:0:0:0:
280,200,65013,1,0,0:0:0:0:
344,160,65166,1,0,0:0:0:0:
344,232,65320,2,0,P|312:272|328:336,1,85
416,312,65628,2,0,P|450:287|475:253,1,85
424,152,65936,2,0,P|376:104|328:88,1,85
248,72,66243,2,0,P|216:112|176:136,1,85
144,64,66551,2,0,P|104:104|88:144,1,85
8,152,66859,2,0,P|32:208|64:224,1,85
144,240,67166,2,0,P|112:280|72:304,1,85
312,296,67474,5,0,0:0:0:0:
240,80,67628,1,0,0:0:0:0:
160,296,67782,1,0,0:0:0:0:
232,200,67936,1,0,0:0:0:0:
336,144,68090,1,0,0:0:0:0:
312,280,68243,1,0,0:0:0:0:
424,216,68397,1,0,0:0:0:0:
424,328,68551,1,0,0:0:0:0:
296,360,68705,2,0,P|224:328|192:296,1,85
224,256,69013,2,0,P|176:224|128:208,1,85
56,184,69320,5,0,0:0:0:0:
176,88,69628,1,0,0:0:0:0:
328,48,69936,1,0,0:0:0:0:
408,160,70243,1,0,0:0:0:0:
376,240,70397,1,0,0:0:0:0:
312,288,70551,2,0,P|272:304|224:296,1,85
320,168,70859,1,0,0:0:0:0:
248,216,71013,1,0,0:0:0:0:
160,248,71166,2,0,P|112:240|72:208,1,85
96,128,71474,1,0,0:0:0:0:
192,64,71628,1,0,0:0:0:0:
296,80,71782,2,0,P|334:109|366:149,1,85
272,168,72090,1,0,0:0:0:0:
200,216,72243,1,0,0:0:0:0:
136,272,72397,6,0,P|112:320|152:352,1,85
216,320,72705,1,0,0:0:0:0:
304,288,72859,1,0,0:0:0:0:
359,199,73013,2,0,P|341:162|304:144,1,85
144,128,73320,2,0,P|168:160|216:184,1,85
240,80,73628,1,0,0:0:0:0:
328,48,73782,1,0,0:0:0:0:
432,64,73936,2,0,P|448:112|416:160,1,85
336,160,74243,2,0,P|312:208|352:240,1,85
440,240,74551,1,0,0:0:0:0:
376,336,74705,1,0,0:0:0:0:
264,336,74859,1,0,0:0:0:0:
40,192,75320,6,0,P|64:224|104:256,1,85
88,88,75628,2,0,P|136:168|240:208,1,170
312,168,76090,1,0,0:0:0:0:
392,96,76243,1,0,0:0:0:0:
424,208,76397,2,0,P|448:248|440:304,1,85
344,344,76705,2,0,P|329:305|328:256,1,85
232,184,77013,2,0,P|160:216|208:288,2,170
336,200,77782,5,0,0:0:0:0:
344,184,77859,1,0,0:0:0:0:
352,168,77936,2,0,P|344:96|304:72,1,85
296,72,78243,2,0,P|252:84|216:120,1,85
200,160,78551,2,0,P|158:162|123:139,1,85
88,152,78859,2,0,P|67:198|80:240,1,85
184,304,79167,5,0,0:0:0:0:
320,144,79320,1,0,0:0:0:0:
264,240,79474,1,0,0:0:0:0:
216,80,79628,1,0,0:0:0:0:
352,48,79782,1,0,0:0:0:0:
408,200,79936,1,0,0:0:0:0:
384,320,80090,6,0,P|312:328|288:304,1,85
232,280,80397,2,0,P|200:256|184:208,1,85
352,200,80705,2,0,P|280:208|256:184,1,85
200,120,81013,2,0,L|160:120,1,21.25
168,120,81166,2,0,L|136:120,1,21.25
88,288,81474,5,0,0:0:0:0:
128,296,81551,1,0,0:0:0:0:
168,296,81628,1,0,0:0:0:0:
208,288,81705,1,0,0:0:0:0:
240,264,81782,1,0,0:0:0:0:
256,224,81859,1,0,0:0:0:0:
264,184,81936,1,0,0:0:0:0:
288,152,82013,1,0,0:0:0:0:
328,144,82090,1,0,0:0:0:0:
176,192,82243,5,0,0:0:0:0:
344,224,82397,1,0,0:0:0:0:
344,64,82551,2,0,P|272:56|248:80,1,85
224,136,82859,2,0,P|152:144|128:120,1,85
152,48,83166,1,0,0:0:0:0:
48,88,83320,1,0,0:0:0:0:
32,128,83397,1,0,0:0:0:0:
24,168,83474,1,0,0:0:0:0:
112,224,83628,2,0,L|48:312,2,85
224,232,84090,1,0,0:0:0:0:
360,248,84243,2,0,P|408:216|424:192,1,85
424,104,84551,5,0,0:0:0:0:
400,64,84628,1,0,0:0:0:0:
352,48,84705,1,0,0:0:0:0:
264,48,84859,2,0,P|224:61|189:87,1,85
192,192,85166,2,0,P|248:168|272:144,1,85
112,248,85474,2,0,P|96:184|96:152,1,85
224,304,85782,1,0,0:0:0:0:
320,112,85936,1,0,0:0:0:0:
280,312,86090,1,0,0:0:0:0:
256,104,86243,1,0,0:0:0:0:
384,272,86397,1,0,0:0:0:0:
440,176,86551,2,0,P|480:208|496:256,2,85
248,152,87013,6,0,P|251:194|264:234,1,85
168,248,87320,2,0,P|152:184|152:152,1,85
48,112,87628,1,0,0:0:0:0:
136,48,87781,1,0,0:0:0:0:
240,64,87935,1,0,0:0:0:0:
336,64,88089,1,0,0:0:0:0:
400,152,88243,1,0,0:0:0:0:
288,184,88397,6,0,P|284:226|271:266,1,85
168,176,88705,2,0,P|152:240|152:272,1,85
224,344,89013,1,0,0:0:0:0:
352,328,89166,1,0,0:0:0:0:
392,304,89243,1,0,0:0:0:0:
416,264,89320,1,0,0:0:0:0:
376,144,89474,1,0,0:0:0:0:
224,112,89628,2,0,P|208:48|208:16,2,85
160,168,90090,5,0,0:0:0:0:
296,176,90243,1,0,0:0:0:0:
336,256,90397,1,0,0:0:0:0:
344,296,90474,1,0,0:0:0:0:
336,336,90551,1,0,0:0:0:0:
176,336,90705,1,0,0:0:0:0:
168,296,90782,1,0,0:0:0:0:
176,256,90859,1,0,0:0:0:0:
80,168,91013,2,0,P|104:112|136:80,1,85
256,64,91320,1,0,0:0:0:0:
176,176,91474,1,0,0:0:0:0:
399,85,91628,2,0,P|403:127|416:168,1,85
