osu file format v8

[General]
AudioFilename: LiLiLiLi Burning Night.mp3
AudioLeadIn: 0
PreviewTime: 62915
Countdown: 0
SampleSet: Normal
StackLeniency: 0.7
Mode: 0
LetterboxInBreaks: 1

[Editor]
DistanceSpacing: 0.9
BeatDivisor: 2
GridSize: 8

[Metadata]
Title:Lily Lily Burning Night
Artist:Lily
Creator:MForever
Version:Normal
Source:VOCALOID2
Tags:samfree vocaloid banvi samiljul

[Difficulty]
HPDrainRate:2
CircleSize:3
OverallDifficulty:1
ApproachRate:3
SliderMultiplier:1
SliderTickRate:2

[Events]
//Background and Video events
0,0,"BG3.jpg"
//Break Periods
2,26388,36748
2,86023,96384
2,145660,150202
//Storyboard Layer 0 (Background)
//Storyboard Layer 1 (Fail)
//Storyboard Layer 2 (Pass)
//Storyboard Layer 3 (Foreground)
//Storyboard Sound Samples
//Background Colour Transformations
3,100,163,162,255

[TimingPoints]
370,363.636363636364,4,1,0,60,1,0
62917,-100,4,1,0,70,0,1
86014,-100,4,1,0,60,0,0
122559,-100,4,1,0,70,0,1
145650,-100,4,1,0,60,0,0
183642,-100,4,1,0,70,0,1
215460,-100,4,1,0,0,0,0

[Colours]
Combo1 : 255,0,255
Combo2 : 243,1,1
Combo3 : 243,116,1

[HitObjects]
168,144,23642,2,0,B|168:264,1,100,0|0
168,336,24370,2,4,B|328:336,2,150,0|0|0
80,336,25824,1,4
80,248,26188,1,2
168,56,38188,6,0,B|280:56|336:184,1,200,4|0
352,248,39279,1,8
280,304,39642,2,0,B|184:304|112:160,1,200
120,88,40733,1,8
208,88,41097,2,0,B|424:88,1,200
408,176,42188,1,8
320,176,42551,2,0,B|160:176,2,150,0|0|8
320,264,44006,6,0,B|120:264,1,200,4|0
32,264,45097,1,8
32,176,45460,2,0,B|248:176,1,200
320,176,46551,1,8
360,256,46915,2,0,B|56:256,1,300,0|8
56,168,48370,2,0,B|232:168,2,150,0|0|8
56,80,49824,6,0,B|192:80,1,100,4|8
248,80,50551,2,0,B|360:80,1,100,0|8
352,168,51279,2,0,B|240:168,1,100,0|8
160,168,52006,2,0,B|48:168,1,100,0|8
64,256,52733,1,0
64,344,53097,1,8
152,344,53460,2,0,B|264:344,2,100,0|8|4
448,80,55279,5,8
360,80,55642,2,0,B|152:80,1,200
72,80,56733,1,8
72,168,57097,2,0,B|280:168,1,200
360,168,58188,1,8
448,168,58551,2,0,B|448:72,6,50,0|0|0|0|0|0|4
256,192,59824,12,4,61460
248,192,62188,5,4
160,192,62551,1,6
160,280,62915,2,0,B|288:280,1,100,4|8
352,280,63642,2,0,B|464:280,2,100,0|8|0
352,184,64733,1,8
264,184,65097,2,0,B|96:184,2,150,0|0|8
264,272,66551,2,0,B|208:272,2,50,0|0|8
352,272,67279,2,0,B|352:152,1,100,0|8
352,80,68006,2,0,B|424:80,2,50,0|0|8
264,80,68733,6,0,B|152:80,1,100,0|8
168,168,69460,2,0,B|288:168,3,100,0|8|0|8
360,168,70915,1,0
360,296,71460,6,0,B|200:296,1,150,0|8
120,296,72370,2,0,B|120:192,2,100,0|8|0
32,296,73460,2,0,B|32:192,1,100,8|0
32,104,74188,1,10
120,104,74551,2,0,B|248:104,3,100,0|8|0|8
312,104,76006,1,0
400,104,76370,1,8
400,192,76733,2,0,B|400:272,2,50,0|0|8
312,192,77460,6,0,B|88:192,1,200
112,104,78551,1,8
200,104,78915,2,0,B|344:104,1,100,0|8
392,104,79642,2,0,B|392:208,1,100,0|8
392,296,80370,2,0,B|264:296,3,100,0|8|0|8
200,296,81824,2,0,B|200:168,3,100,0|8|0|8
112,192,83279,6,0,B|56:192,1,50,0|4
56,104,83824,2,8,B|56:32,1,50,8|4
144,56,84370,2,0,B|200:56,1,50,0|4
288,56,84915,2,0,B|288:120,1,50,0|4
288,200,85460,2,0,B|176:200,1,100,4|6
336,56,97824,6,0,B|128:56,1,200
88,128,98915,1,8
168,160,99279,2,0,B|272:144|368:240,1,200
360,312,100369,1,8
272,312,100733,2,0,B|112:312,2,150,0|0|8
360,312,102188,1,0
360,176,102733,1,0
360,40,103279,1,8
272,40,103642,6,0,B|272:240,1,200
272,328,104733,1,8
184,328,105097,2,0,B|184:120,1,200
184,40,106188,1,8
272,40,106551,2,0,B|352:120,1,100,0|8
344,200,107279,2,0,B|256:288,1,100,0|8
184,272,108006,2,0,B|48:272,3,100,0|8|0|8
80,184,109460,6,0,B|184:128,1,100,0|8
256,136,110188,2,0,B|368:200,1,100,0|8
416,232,110915,2,0,B|416:336,1,100,0|8
328,336,111642,2,0,B|216:336,1,100,0|8
136,336,112369,1,0
136,248,112733,1,8
224,248,113097,1,0
312,248,113460,1,8
400,248,113824,2,0,B|400:128,2,100,0|8|0
400,336,114915,5,8
312,336,115279,2,0,B|104:336,1,200
112,248,116369,1,8
112,160,116733,2,0,B|344:160,1,200
400,160,117824,1,8
400,248,118188,2,0,B|400:352,3,100,0|8|0|8
256,192,119460,12,4,121097
256,192,121824,5,4
344,192,122188,1,4
344,280,122551,2,0,B|224:280,1,100,4|8
152,280,123279,2,0,B|152:120,2,150,0|0|8
240,280,124733,2,0,B|400:280,2,150,0|0|8
152,280,126188,2,0,B|80:280,2,50,0|0|8
152,192,126915,2,0,B|152:80,3,100,0|8|0|8
240,88,128369,6,0,B|352:88,1,100,0|8
432,88,129097,2,0,B|432:192,1,100,0|8
432,280,129824,1,0
344,280,130188,1,8
256,280,130551,2,0,B|256:128,2,150,0|0|8
168,280,132006,2,0,B|48:280,2,100,0|8|0
168,192,133097,2,0,B|168:80,1,100,8|0
256,88,133824,1,10
256,176,134188,6,0,B|256:296,1,100,0|8
344,272,134915,1,0
344,184,135279,1,8
432,184,135642,2,0,B|432:32,2,150,0|0|8
344,184,137097,6,0,B|272:184,6,50,0|0|8|0|0|0|8
432,184,138551,2,0,B|432:312,1,100,0|8
344,288,139279,2,0,B|208:288,1,100,0|8
152,288,140006,2,0,B|152:168,3,100,0|8|0|8
64,192,141460,2,0,B|64:320,3,100,0|8|0|8
152,288,142915,6,0,B|216:288,1,50,0|4
296,288,143460,2,0,B|296:224,1,50,0|4
296,144,144006,2,0,B|376:144,1,50,0|4
440,144,144551,2,0,B|440:224,1,50,0|4
440,288,145097,2,4,B|328:288,1,100,4|6
192,192,151642,5,4
280,192,152006,1,0
368,192,152370,1,0
456,192,152733,1,0
456,280,153097,5,0
368,280,153460,1,0
280,280,153824,1,0
192,280,154188,1,0
104,280,154551,6,0,B|104:160,1,100
160,104,155279,2,0,B|272:104,1,100
328,168,156006,2,0,B|328:280,1,100
248,304,156733,2,0,B|248:360,4,50
168,256,157824,6,0,B|168:144,2,100
80,264,158915,2,0,B|80:368,2,100
40,184,160006,1,0
72,96,160370,2,0,B|24:56,2,50
136,160,161097,2,0,B|184:200,2,50
160,72,161824,2,0,B|200:24,2,50
240,120,162551,2,0,B|448:120,1,200
464,208,163642,5,0
424,288,164006,1,0
336,312,164370,1,0
248,304,164733,2,0,B|248:232,2,50
168,264,165460,2,0,B|168:64,2,200
168,352,167279,1,0
256,352,167642,2,0,B|288:232|264:136,1,200,0|4
240,72,168733,1,4
152,88,169097,6,0,B|96:112|80:176,1,100,0|8
88,248,169824,2,0,B|112:304|176:320,1,100,0|8
248,312,170551,2,0,B|304:288|320:224,1,100,0|8
312,152,171279,2,0,B|288:96|224:80,1,100,0|8
152,64,172006,1,0
152,64,172370,1,8
152,152,172733,2,0,B|120:232|160:352,2,200
200,72,174551,5,8
288,72,174915,2,0,B|488:72,1,200
488,160,176006,1,8
488,248,176370,2,0,B|280:248,1,200
200,248,177460,1,8
112,248,177824,2,0,B|56:248,5,50
256,192,178915,12,0,180370
256,192,180733,12,4,182188
256,192,182915,5,4
256,192,183279,1,4
344,192,183642,2,0,B|344:64,1,100,0|8
432,120,184370,2,0,B|432:280|432:280,2,150,0|0|8
432,32,185824,1,0
344,32,186188,1,8
256,32,186551,2,0,B|144:32,1,100,0|8
200,112,187279,2,0,B|88:112|88:112,1,100,0|8
104,200,188006,2,0,B|208:200,1,100,0|8
208,288,188733,2,0,B|320:288,1,100,0|8
400,288,189460,6,0,B|416:160|320:72,1,200
264,72,190551,1,8
176,104,190915,2,0,B|160:232|256:320,1,200
312,320,192006,1,8
376,256,192370,2,0,B|376:152,3,100,0|8|0|8
296,192,193824,2,0,B|296:88,3,100,0|8|0|8
208,88,195279,6,0,B|152:88,6,50,0|0|8|0|0|0|8
296,88,196733,2,0,B|296:200,1,100,0|8
384,168,197460,2,0,B|384:296,1,100,0|8
312,320,198188,6,0,B|240:320,6,50,0|0|8|0|0|0|8
400,320,199642,2,0,B|400:192,1,100,0|8
312,216,200370,2,0,B|312:104,1,100,0|8
232,72,201097,5,0
144,80,201460,1,8
80,144,201824,1,0
88,232,202188,1,8
160,288,202551,2,0,B|272:288,1,100,0|8
352,288,203279,2,0,B|464:288,1,100,0|8
456,200,204006,6,0,B|456:144,1,50,4|0
368,144,204551,2,0,B|368:80,1,50,0|0
280,96,205097,2,0,B|280:168,1,50,0|0
192,152,205642,2,0,B|192:224,1,50,0|0
104,208,206188,2,4,B|104:312,1,100
192,304,206915,6,0,B|264:304,1,50,4|0
240,216,207460,2,0,B|312:216,1,50,0|0
288,128,208006,2,0,B|216:128,1,50,0|0
240,40,208551,2,0,B|168:40,1,50,0|0
96,40,209097,2,4,B|96:152,1,100
256,192,209824,12,0,215642
