osu file format v9

[General]
AudioFilename: LiLiLiLi Burning Night.mp3
AudioLeadIn: 0
PreviewTime: 62915
Countdown: 0
SampleSet: Normal
StackLeniency: 0.7
Mode: 0
LetterboxInBreaks: 1

[Editor]
DistanceSpacing: 0.9
BeatDivisor: 4
GridSize: 8

[Metadata]
Title:Lily Lily Burning Night
Artist:Lily
Creator:MForever
Version:Insane
Source:VOCALOID2
Tags:samfree vocaloid banvi samiljul

[Difficulty]
HPDrainRate:8
CircleSize:4
OverallDifficulty:7
ApproachRate:8
SliderMultiplier:2
SliderTickRate:1

[Events]
//Background and Video events
0,0,"BG1.jpg"
//Break Periods
2,26388,37074
2,86024,96710
2,145660,153801
//Storyboard Layer 0 (Background)
//Storyboard Layer 1 (Fail)
//Storyboard Layer 2 (Pass)
//Storyboard Layer 3 (Foreground)
//Storyboard Sound Samples
//Background Colour Transformations
3,100,163,162,255

[TimingPoints]
370,363.636363636364,4,1,0,60,1,0
49423,-100,4,1,0,40,0,0
49514,-100,4,1,0,45,0,0
49605,-100,4,1,0,50,0,0
49696,-100,4,1,0,55,0,0
49787,-100,4,1,0,60,0,0
59968,-100,4,1,0,30,0,0
60150,-100,4,1,0,35,0,0
60332,-100,4,1,0,40,0,0
60514,-100,4,1,0,45,0,0
60696,-100,4,1,0,50,0,0
60878,-100,4,1,0,55,0,0
61059,-100,4,1,0,60,0,0
62920,-100,4,1,0,70,0,1
76287,-100,4,1,0,60,0,1
76650,-100,4,1,0,65,0,1
77014,-100,4,1,0,70,0,1
79196,-100,4,1,0,60,0,1
79559,-100,4,1,0,65,0,1
79923,-100,4,1,0,70,0,1
82468,-100,4,1,0,60,0,1
82832,-100,4,1,0,70,0,1
83196,-100,4,1,0,80,0,1
86011,-100,4,1,0,60,0,0
109059,-100,4,1,0,40,0,0
109150,-100,4,1,0,45,0,0
109241,-100,4,1,0,50,0,0
109332,-100,4,1,0,55,0,0
109423,-100,4,1,0,60,0,0
119605,-100,4,1,0,30,0,0
119787,-100,4,1,0,35,0,0
119968,-100,4,1,0,40,0,0
120150,-100,4,1,0,45,0,0
120332,-100,4,1,0,50,0,0
120514,-100,4,1,0,55,0,0
120696,-100,4,1,0,60,0,0
122556,-100,4,1,0,70,0,1
122650,-100,4,1,0,70,0,1
135923,-100,4,1,0,60,0,1
136287,-100,4,1,0,65,0,1
136650,-100,4,1,0,70,0,1
138832,-100,4,1,0,60,0,1
139196,-100,4,1,0,65,0,1
139559,-100,4,1,0,70,0,1
142105,-100,4,1,0,75,0,1
142468,-100,4,1,0,80,0,1
142832,-100,4,1,0,85,0,1
145647,-100,4,1,0,60,0,0
179241,-100,4,1,0,35,0,0
179423,-100,4,1,0,40,0,0
179605,-100,4,1,0,45,0,0
179787,-100,4,1,0,50,0,0
179968,-100,4,1,0,55,0,0
180150,-100,4,1,0,60,0,0
180332,-100,4,1,0,65,0,0
183647,-100,4,1,0,75,0,1
197020,-100,4,1,0,65,0,1
197378,-100,4,1,0,70,0,1
197741,-100,4,1,0,75,0,1
199933,-100,4,1,0,65,0,1
200287,-100,4,1,0,70,0,1
200650,-100,4,1,0,75,0,1
203196,-100,4,1,0,80,0,1
203923,-100,4,1,0,85,0,1
215460,-100,4,1,0,0,0,0

[Colours]
Combo1 : 255,0,255
Combo2 : 243,1,1
Combo3 : 243,116,1

[HitObjects]
104,72,23642,1,8
104,176,23824,1,0
400,120,24370,5,8
400,216,24551,1,0
344,296,24733,1,0
248,272,24915,2,0,L|248:48,1,200,8|0
160,24,25460,1,8
160,128,25642,2,0,L|160:240,1,100,0|8
344,296,26188,5,4
256,192,37824,5,4
408,96,38188,6,0,B|448:136|408:192,1,100,4|0
368,264,38551,2,0,B|264:264,1,100,8|0
264,176,38915,1,0
264,88,39097,1,0
248,88,39188,1,0
232,88,39279,1,8
144,88,39460,1,0
344,128,39642,6,0,B|376:176|344:224,1,100,0|0
296,296,40006,2,0,B|192:296,1,100,8|0
104,296,40370,1,0
104,208,40551,1,0
120,208,40642,1,0
136,208,40733,1,8
224,208,40915,1,0
184,128,41097,6,0,B|296:128,1,100,0|0
376,136,41460,1,8
456,168,41642,2,0,B|480:224|448:288,1,100,0|0
416,344,42006,1,0
328,344,42188,5,8
312,344,42279,1,0
296,344,42369,1,0
280,344,42460,1,0
264,344,42551,1,0
256,72,42915,1,8
256,160,43097,1,0
256,72,43279,1,0
264,344,43642,1,8
88,344,44006,5,4
152,280,44188,1,0
88,216,44369,1,8
144,144,44551,1,0
208,208,44733,1,0
272,144,44915,2,0,B|272:16,2,100,0|8|0
328,208,45460,1,0
392,272,45642,1,0
456,208,45824,1,8
392,144,46006,1,0
328,208,46188,1,0
264,64,46369,6,0,B|152:64,2,100,0|8|0
352,64,46915,1,0
408,136,47097,1,0
352,200,47279,1,8
288,136,47460,2,0,B|176:136|176:136,1,100,0|0
96,136,47824,1,0
40,208,48006,1,8
96,280,48188,1,0
152,208,48369,2,0,B|256:208,1,100,0|0
344,208,48733,1,8
400,280,48915,2,0,B|296:280|296:280,1,100,0|0
200,280,49279,1,0
96,280,49460,5,8
96,264,49551,1,0
96,248,49642,1,0
96,232,49733,1,0
96,216,49824,2,0,B|56:160|96:104,1,100,4|0
144,56,50188,2,0,B|184:112|144:176,1,100,8|0
184,232,50551,2,0,B|304:232,1,100,0|0
376,232,50915,5,8
424,160,51097,1,0
376,88,51279,1,0
424,160,51460,1,0
376,232,51642,2,0,B|416:288|376:352,1,100,8|0
312,288,52006,2,0,B|272:232|312:168,1,100,0|0
288,104,52369,2,0,B|176:104,1,100,8|0
96,104,52733,5,0
144,176,52915,1,0
232,168,53097,1,8
248,248,53279,1,0
184,312,53460,2,0,B|184:96,1,200,0|8
184,24,54006,1,0
256,80,54188,1,0
256,168,54369,1,0
312,240,54551,1,8
256,168,54733,1,0
312,240,54915,1,0
152,312,55279,5,8
64,312,55460,1,0
256,192,55642,12,0,56369
360,72,56733,5,8
368,160,56915,1,0
352,248,57097,2,0,B|344:312|280:320,1,100
200,328,57460,1,8
112,312,57642,2,0,B|48:288|64:216,1,100
288,88,58188,1,8
240,248,58551,6,0,B|288:336,1,100,0|0
376,336,58915,1,8
384,248,59097,1,0
312,192,59279,1,0
288,104,59460,1,0
200,104,59642,1,8
136,168,59824,1,0
80,64,60006,5,0
104,72,60097,1,0
120,88,60188,1,0
144,96,60279,1,0
168,112,60369,1,8
192,112,60460,1,0
216,128,60551,1,0
240,128,60642,1,0
256,144,60733,1,8
264,168,60824,1,0
280,184,60915,2,0,B|320:216,6,50,0|0|8|0|0|0|8
280,272,61642,5,0
168,288,61824,1,12
216,80,62188,2,0,B|160:80|128:144,1,100,8|0
328,176,62551,2,8,B|384:176|416:112,1,100,8|0
216,160,62915,5,4
144,216,63097,2,0,B|48:272,1,100,0|8
72,176,63460,1,0
144,120,63642,2,0,B|240:64,1,100,0|0
304,128,64006,1,8
272,208,64188,2,0,B|272:320,1,100,0|0
352,352,64551,1,0
408,280,64733,1,8
352,208,64915,1,0
408,136,65097,1,0
256,56,65460,1,8
184,112,65642,6,0,B|184:320,1,200,0|0
272,280,66188,2,0,B|272:176,1,100,8|0
272,88,66551,1,0
344,136,66733,1,0
344,224,66915,1,8
272,280,67097,2,0,B|64:280,1,200,0|0
120,200,67642,2,0,B|232:200,1,100,8|0
312,200,68006,1,8
328,200,68097,1,0
344,200,68188,1,0
360,200,68279,1,0
376,200,68369,1,12
256,64,68733,5,4
176,96,68915,2,0,B|120:96|96:160,1,100,0|8
256,320,69279,1,0
336,288,69460,2,0,B|392:288|416:224,1,100,0|0
416,144,69824,1,8
328,144,70006,2,0,B|200:144,1,100,0|0
136,144,70369,1,0
40,144,70551,1,8
64,232,70733,1,0
152,232,70915,1,0
336,232,71279,1,8
392,160,71460,6,0,B|264:160,1,100,0|0
200,160,71824,1,0
192,248,72006,2,0,B|264:336,1,100,8|0
344,328,72369,2,0,B|456:328,2,100,0|0|8
256,328,72915,2,0,B|128:328,1,100,0|0
64,328,73279,1,0
16,256,73460,1,8
64,184,73642,2,0,B|384:184,1,300,0|4
256,128,74551,5,4
256,216,74733,1,0
312,288,74915,1,8
432,264,75097,5,0
432,176,75279,1,0
392,96,75460,1,0
256,216,75824,6,0,B|40:216,1,200
80,128,76369,1,8
160,64,76551,1,0
264,40,76733,1,8
376,48,76915,1,0
480,112,77097,2,0,B|480:232,1,100,8|0
256,256,77460,5,4
256,168,77642,1,0
200,96,77824,1,8
80,120,78006,5,0
80,208,78188,1,0
120,288,78369,1,0
256,168,78733,6,0,B|472:168,1,200
432,256,79279,1,8
352,320,79460,1,0
248,344,79642,1,8
136,336,79824,1,0
24,280,80006,2,0,B|24:168,1,100,8|0
96,96,80369,6,0,B|216:96,1,100,4|0
264,40,80733,2,0,B|376:40,1,100,8|0
416,112,81097,2,0,B|312:112,1,100,0|0
368,184,81460,2,0,B|232:184,1,100,8|0
168,184,81824,5,4
232,120,82006,1,0
296,184,82188,1,8
232,248,82369,1,0
152,184,82551,5,12
232,104,82733,1,0
312,184,82915,1,12
232,264,83097,1,0
96,320,83279,5,4
96,144,83460,1,0
256,56,83824,5,4
256,232,84006,1,0
96,320,84369,5,4
96,144,84551,1,0
256,56,84915,5,4
256,232,85097,1,0
416,320,85460,5,0
416,232,85642,1,0
416,144,85824,1,4
256,192,97460,5,4
408,96,97824,6,0,B|448:144|416:200,1,100,4|0
312,336,98188,2,0,B|272:288|304:232,1,100,8|0
320,152,98551,1,0
248,96,98733,2,0,B|200:136|144:104,2,100,0|8|0
408,96,99279,6,0,B|448:144|416:200,1,100,0|0
312,336,99642,2,0,B|272:288|304:232,1,100,8|0
320,152,100006,1,0
232,152,100188,2,0,B|192:104|224:48,2,100,0|8|0
184,224,100733,6,0,B|96:144|136:40,1,200,0|8
280,152,101279,2,0,B|328:192|312:240,2,100,0|0|0
208,104,101824,1,8
192,96,101915,1,0
176,88,102006,1,0
160,80,102097,1,0
144,72,102188,1,0
296,320,102551,1,8
368,264,102733,1,0
440,320,102915,1,0
368,48,103279,2,0,B|368:176,1,100,8|0
368,240,103642,5,4
208,288,103824,1,0
240,120,104006,1,8
392,192,104188,2,0,B|272:192,1,100
200,192,104551,1,0
344,288,104733,1,0
464,168,104915,1,0
304,208,105097,6,0,B|192:208,1,100
112,208,105460,1,8
248,104,105642,1,0
392,200,105824,1,0
312,288,106006,6,0,B|424:288,2,100,0|8|0
224,288,106551,1,0
264,208,106733,1,0
352,208,106915,1,8
440,208,107097,2,0,B|448:144|368:120,1,100,0|0
304,128,107460,5,0
464,96,107642,1,8
488,256,107824,1,0
328,288,108006,2,0,B|224:288,1,100,0|0
136,288,108369,1,8
80,216,108551,2,0,B|24:184|40:120,2,100
168,216,109097,5,8
176,208,109188,1,0
184,200,109279,1,0
192,192,109369,1,0
200,184,109460,2,0,B|240:128|200:72,1,100,4|0
392,40,109824,2,0,B|352:96|392:160,1,100,8|0
328,208,110188,2,0,B|264:296,1,100,0|0
208,352,110551,5,8
104,248,110733,1,0
224,152,110915,1,0
320,264,111097,1,0
168,288,111279,2,0,B|128:232|168:168,1,100,8|0
32,48,111642,2,0,B|72:104|32:168,1,100,0|0
112,208,112006,2,0,B|224:208,1,100,8|0
312,128,112369,5,0
192,80,112551,1,0
80,152,112733,1,8
88,280,112915,1,0
208,336,113097,2,0,B|336:352|368:216,1,200,0|8
352,152,113642,1,0
280,96,113824,1,0
192,72,114006,1,0
104,96,114188,1,8
32,152,114369,1,0
104,96,114551,1,0
224,208,114915,5,8
136,208,115097,1,0
256,192,115279,12,0,116006
152,72,116369,5,8
64,104,116551,1,0
136,160,116733,2,0,B|136:288,1,100,0|0
136,352,117097,1,8
216,304,117279,2,0,B|296:224,1,100,0|0
408,96,117824,1,8
272,248,118188,6,0,B|224:336,1,100,0|0
136,336,118551,1,8
128,248,118733,1,0
200,192,118915,1,0
224,104,119097,1,0
312,104,119279,1,8
376,168,119460,1,0
432,64,119642,5,0
408,72,119733,1,0
392,88,119824,1,0
368,96,119915,1,0
344,112,120006,1,8
320,112,120097,1,0
296,128,120188,1,0
272,128,120279,1,0
256,144,120369,1,8
248,168,120460,1,0
232,184,120551,2,0,B|192:216,6,50,0|0|8|0|0|0|8
232,272,121279,5,0
344,288,121460,1,12
296,80,121824,2,0,B|352:80|384:144,1,100,8|0
184,176,122188,2,8,B|128:176|96:112,1,100,8|0
296,160,122551,5,4
392,248,122733,1,0
408,120,122915,1,8
392,248,123097,1,0
272,288,123279,1,0
296,160,123460,1,0
272,288,123642,1,8
176,208,123824,2,0,B|176:320,1,100,0|0
88,336,124188,5,0
48,256,124369,1,8
88,176,124551,1,0
48,96,124733,1,0
296,48,125097,1,8
368,104,125279,6,0,B|368:208,2,100,0|0|0
296,248,125824,2,0,B|296:144,1,100,8|0
224,88,126188,1,0
152,136,126369,1,0
136,224,126551,1,8
144,312,126733,2,0,B|32:312,2,100,0|0|0
232,312,127279,2,0,B|360:312,1,100,8|0
424,312,127642,1,8
440,312,127733,1,0
456,312,127824,1,0
472,312,127915,1,0
488,312,128006,1,12
256,200,128369,5,4
368,200,128551,1,0
312,144,128733,1,8
312,256,128915,1,0
240,136,129097,5,0
384,136,129279,1,0
384,264,129460,1,8
240,264,129642,2,0,B|128:264,2,100,0|0|0
384,264,130188,5,8
384,136,130369,1,0
240,136,130551,1,0
136,280,130915,1,8
88,208,131097,6,0,B|48:160|96:88,2,100
160,152,131642,2,0,B|160:16,1,100,8|0
248,32,132006,1,0
248,120,132188,1,0
248,32,132369,1,0
248,120,132551,2,0,B|248:248,1,100,8|0
296,296,132915,1,0
376,256,133097,1,8
424,184,133279,2,0,B|104:184,1,300,0|4
256,128,134188,5,4
176,176,134369,1,0
256,224,134551,1,8
96,56,134733,5,0
176,104,134915,1,0
96,152,135097,1,0
256,224,135460,6,0,B|256:24,1,200
344,40,136006,1,8
416,112,136188,1,0
440,216,136369,1,8
400,328,136551,1,0
272,352,136733,2,0,B|152:352,1,100,8|0
256,128,137097,5,4
336,176,137279,1,0
256,224,137460,1,8
416,56,137642,5,0
336,104,137824,1,0
416,152,138006,1,0
256,224,138369,6,0,B|256:24,1,200
168,40,138915,1,8
96,112,139097,1,0
72,216,139279,1,8
112,328,139460,1,0
240,352,139642,2,0,B|360:352,1,100,8|0
416,96,140006,6,0,B|296:96,1,100,4|0
248,40,140369,2,0,B|136:40,1,100,8|0
96,112,140733,2,0,B|200:112,1,100,0|0
144,184,141097,2,0,B|280:184,1,100,8|0
336,184,141460,5,4
288,256,141642,1,0
200,264,141824,1,8
152,336,142006,1,0
152,192,142188,5,12
200,120,142369,1,0
288,112,142551,1,12
336,40,142733,1,0
416,64,142915,5,8
416,240,143097,1,4
256,328,143460,5,0
256,152,143642,1,4
96,64,144006,5,0
96,248,144188,1,4
256,328,144551,5,0
256,152,144733,1,4
416,64,145097,5,0
416,152,145279,1,0
416,240,145460,1,4
88,48,154551,5,0
88,288,154915,1,0
328,288,155279,1,0
328,48,155642,1,0
120,168,156006,5,0
208,248,156188,1,0
296,168,156369,1,0
208,88,156551,1,0
144,192,156733,5,0
144,208,156824,1,0
144,224,156915,1,0
144,240,157006,1,0
144,256,157097,1,0
144,272,157188,1,0
144,288,157279,1,0
144,304,157369,1,0
144,320,157460,6,0,B|352:320,2,200
56,320,158370,1,0
64,232,158551,1,0
128,168,158733,1,0
208,200,158915,2,0,B|248:256|312:272,2,100
232,112,159460,6,0,B|432:112,1,200
464,200,160006,2,0,B|504:256|456:304,1,100
384,320,160370,2,0,B|384:256,4,50
296,312,160915,2,0,B|296:368,4,50
296,224,161460,2,0,B|240:224,4,50
376,176,162006,2,0,B|440:176,4,50
344,144,162460,1,0
312,112,162551,2,0,B|96:112,1,200
80,336,163279,6,0,B|176:336|184:336,1,100
224,336,163551,1,0
272,336,163642,2,0,B|320:288|288:216,1,100
280,200,163915,1,0
240,192,164006,2,0,B|128:192,1,100
96,184,164279,1,0
64,160,164370,2,0,B|16:112|48:40,1,100
72,40,164642,1,0
120,40,164733,6,0,B|224:40,1,100
368,136,165097,2,0,B|264:136,1,100
176,136,165460,2,0,B|168:256|312:304,1,200
368,264,166006,1,0
328,184,166188,2,0,B|264:152|216:200,1,100
168,248,166551,1,0
208,328,166733,2,0,B|320:360|400:304,1,200
440,224,167279,1,0
376,160,167460,2,0,B|264:128|184:184,1,200
120,248,168006,2,0,B|120:352,1,100
56,192,168369,5,4
456,192,168733,1,4
176,72,169097,6,0,B|128:128|168:184,1,100,0|0
208,240,169460,2,0,B|264:288|320:248,1,100,8|0
368,200,169824,2,0,B|416:144|376:88,1,100,0|0
336,32,170188,1,8
280,96,170369,2,0,B|280:224,1,100,0|0
280,288,170733,1,0
200,336,170915,2,0,B|200:232,1,100,8|0
128,184,171279,2,0,B|96:224|128:280,1,100,0|0
272,280,171642,2,0,B|304:240|272:184,1,100,8|0
200,48,172006,5,0
200,136,172188,1,0
280,96,172369,1,8
200,48,172551,1,0
120,88,172733,1,0
72,168,172915,1,0
80,256,173097,1,8
120,336,173279,1,0
208,336,173460,2,0,B|168:232,1,100,0|0
256,264,173824,2,0,B|216:160,1,100,8|0
304,192,174188,2,0,B|264:88,1,100,0|0
192,48,174551,5,8
120,104,174733,1,0
192,160,174915,2,0,B|72:328,1,200,0|8
256,336,175642,1,0
320,48,176006,5,8
392,104,176188,1,0
320,160,176369,2,0,B|440:328,1,200,0|8
256,248,176915,1,0
256,336,177097,1,0
256,48,177460,1,8
64,144,177824,6,0,B|32:192|64:240,1,100,0|0
256,288,178188,1,8
448,240,178369,2,0,B|480:192|448:144,1,100,0|0
256,96,178733,1,0
64,144,178915,2,0,B|32:192|64:240,1,100,8|0
136,320,179279,5,0
136,304,179369,1,0
144,288,179460,1,0
160,280,179551,1,0
176,280,179642,1,8
192,288,179733,1,0
208,288,179824,1,0
224,280,179915,1,0
240,272,180006,1,8
248,264,180097,1,0
256,256,180188,2,0,B|264:192,6,50,0|0|8|0|0|0|8
256,192,180915,12,0,182188
232,272,182369,5,0
344,288,182551,1,12
296,80,182915,2,4,B|352:80|384:144,1,100,12|4
184,176,183279,2,12,B|128:176|96:112,1,100,12|4
296,160,183642,5,4
248,280,183824,1,0
360,216,184006,1,8
232,208,184188,1,0
336,288,184369,5,0
448,224,184551,1,0
392,344,184733,1,8
360,216,184915,2,0,B|256:216,1,100
168,216,185279,1,0
192,128,185460,1,8
120,80,185642,1,0
48,136,185824,1,0
256,56,186188,1,8
328,112,186369,6,0,B|328:224,2,100,0|0|0
400,168,186915,2,0,B|400:304,1,100,8|0
336,336,187279,1,0
248,336,187460,1,0
160,336,187642,1,8
112,256,187824,2,0,B|8:256,2,100,0|0|0
200,256,188369,2,0,B|312:256,1,100,8|0
392,256,188733,1,8
408,256,188824,1,0
424,256,188915,1,0
440,256,189006,1,0
456,256,189097,1,12
256,64,189460,5,4
256,192,189642,1,0
144,128,189824,1,8
144,256,190006,1,0
256,64,190188,5,0
256,192,190369,1,0
376,136,190551,1,8
376,264,190733,2,0,B|376:368,2,100,0|0|0
440,200,191279,1,8
472,120,191460,1,0
464,32,191642,1,0
176,232,192006,1,8
232,160,192188,6,0,B|360:160,2,100,0|0|0
144,144,192733,2,0,B|40:80,1,100,8|0
176,232,193097,2,0,B|160:336,2,100,0|0|8
232,160,193642,2,0,B|288:272,1,100,0|0
352,304,194006,1,0
440,272,194188,1,8
448,176,194369,2,0,B|128:176,1,300,0|4
256,256,195279,5,4
128,256,195460,1,0
256,256,195642,1,8
376,208,195824,1,0
280,120,196006,1,0
160,168,196188,1,0
176,296,196369,1,8
296,328,196551,6,0,B|296:88,1,200
296,40,197097,1,8
208,80,197279,1,0
176,184,197460,1,8
208,296,197642,1,0
328,352,197824,2,0,B|328:224,1,100,8|0
328,128,198188,5,4
224,72,198369,1,0
144,168,198551,1,8
208,272,198733,1,0
328,248,198915,1,0
328,128,199097,1,0
448,128,199279,1,8
328,128,199460,6,0,B|328:336,1,200
240,336,200006,1,8
160,288,200188,1,0
128,192,200369,1,8
160,88,200551,1,0
264,24,200733,2,0,B|368:24,1,100,8|0
448,184,201097,6,0,B|360:232,1,100,4|0
336,320,201460,2,0,B|232:288,1,100,8|0
160,328,201824,2,0,B|72:224,1,100,0|0
24,192,202188,2,0,B|32:72,1,100,8|0
112,56,202551,5,4
176,160,202733,1,0
64,120,202915,1,8
176,88,203097,1,0
104,184,203279,5,12
104,304,203460,1,0
224,304,203642,1,12
224,184,203824,1,0
104,352,204006,5,8
280,352,204188,1,4
368,192,204551,5,0
192,192,204733,1,4
104,32,205097,5,0
280,32,205279,1,4
368,192,205642,5,0
192,192,205824,1,4
104,352,206188,5,0
192,352,206369,1,0
280,352,206551,1,4
400,64,206915,5,4
400,232,207097,1,0
240,328,207460,5,4
240,152,207642,1,0
80,64,208006,5,4
80,240,208188,1,0
240,328,208551,5,4
240,152,208733,1,0
400,64,209097,5,4
400,152,209279,1,4
400,240,209460,1,4
256,192,209824,12,0,215642
