osu file format v9

[General]
AudioFilename: Lience.mp3
AudioLeadIn: 0
PreviewTime: 78155
Countdown: 0
SampleSet: Soft
StackLeniency: 0.7
Mode: 0
LetterboxInBreaks: 1

[Editor]
DistanceSpacing: 0.8
BeatDivisor: 4
GridSize: 8

[Metadata]
Title:Lience
Artist:Lily
Creator:Zexous
Version:Hard
Source:seleP
Tags:lily lience zexous vocaloid

[Difficulty]
HPDrainRate:3
CircleSize:3
OverallDifficulty:3
ApproachRate:5
SliderMultiplier:1.4
SliderTickRate:4

[Events]
//Background and Video events
0,0,"lience.jpg"
//Break Periods
2,21750,25750
//Storyboard Layer 0 (Background)
//Storyboard Layer 1 (Fail)
//Storyboard Layer 2 (Pass)
//Storyboard Layer 3 (Foreground)
//Storyboard Sound Samples
//Background Colour Transformations
3,100,163,162,255

[TimingPoints]
2350,600,4,2,0,100,1,0
26825,-66.6666666666667,4,1,0,100,0,0
30312,392.156862745098,4,1,0,100,1,1
30361,-66.6666666666667,4,1,0,100,0,0
39625,-66.6666666666667,4,1,0,100,0,1
52174,-66.6666666666667,4,1,0,100,0,0
64674,-66.6666666666667,4,1,0,100,0,1
64723,-66.6666666666667,4,1,0,100,0,0
78743,-66.6666666666667,4,1,0,100,0,1
103939,-66.6666666666667,4,1,0,100,0,0

[HitObjects]
136,88,1750,1,0
192,160,2050,2,0,B|224:200|256:192,1,70
304,40,3250,6,0,B|384:96,1,70
424,128,3850,1,0
368,184,4150,6,0,B|288:240,2,70
368,184,5350,5,0
304,40,5950,1,0
376,296,6550,5,0
320,224,6850,2,0,B|288:184|256:192,1,70
208,344,8050,6,0,B|128:288,1,70
88,256,8650,1,0
144,200,8950,6,0,B|224:144,1,70
200,88,9550,6,0,B|200:168,1,70
248,208,10150,2,0,B|191:151,1,70
144,200,10750,2,0,B|224:144,1,70
256,192,11350,5,0
256,272,11650,2,0,B|256:344,1,70
256,192,12850,6,0,B|328:192,2,70
176,192,13750,2,0,B|128:192|128:136,1,70
128,48,14350,5,0
256,192,14950,1,0
384,336,15550,1,0
256,192,16150,5,0
192,136,16450,1,0
136,72,16750,2,0,B|96:80|56:128|88:187|112:200,1,140
136,248,17650,5,0
192,184,17950,1,0
248,248,18250,1,0
304,184,18550,1,0
352,112,18850,6,0,B|360:64|304:64,1,70
256,192,19750,6,0,B|256:264,2,70
344,168,20650,2,0,B|352:120|296:120,1,70
168,168,21250,2,0,B|160:120|216:120,1,70
256,192,26950,12,0,30100
256,192,30410,6,0,B|256:120,1,70
256,192,30802,2,0,B|328:192,1,70
256,192,31194,2,0,B|256:264,1,70
256,192,31586,2,0,B|184:192,1,70
184,192,31978,6,0,B|184:120,1,70
328,192,32370,2,0,B|328:264,1,70
184,120,32762,2,0,B|256:120,1,70
328,264,33155,1,0
224,264,33351,6,0,B|160:264,4,52.5000020027161
224,264,33841,6,0,B|224:200,4,52.5000020027161
224,264,34331,6,0,B|288:264,4,52.5000020027161
224,264,34821,6,0,B|224:328,4,52.5000020027161
224,176,35410,1,0
224,88,35606,1,0
224,88,35802,2,0,B|272:88|280:80|280:80|280:96|280:96|288:88|288:88|320:88,1,105.000004005432
336,192,36390,5,0
336,192,36586,2,0,B|256:112,1,105.000004005432
336,192,37174,5,0
336,192,37370,2,0,B|256:272,1,105.000004005432
264,120,37959,6,0,B|224:160,4,52.5000020027161
264,264,38547,6,0,B|224:224,4,52.5000020027161
376,72,39625,5,0
376,152,39821,2,0,B|376:288,1,105.000004005432
376,336,40213,1,0
320,272,40410,5,0
272,200,40606,2,0,B|200:96,1,105.000004005432
168,48,40998,1,0
168,136,41194,5,0
168,224,41390,2,0,B|168:280,2,52.5000020027161
168,136,41782,5,0
168,48,41978,1,0
248,88,42174,6,0,B|336:176,2,105.000004005432
256,192,42762,5,0
344,192,42959,2,0,B|448:192,2,105.000004005432
256,192,43547,5,0
168,192,43744,2,0,B|64:192,2,105.000004005432
256,192,44331,5,0
256,104,44527,2,0,B|256:48,2,52.5000020027161
256,192,44919,5,0
256,280,45115,1,0
256,192,45312,5,0
256,104,45508,2,0,B|368:104,1,105.000004005432
448,104,45900,5,0
448,200,46096,1,0
352,200,46292,1,0
352,104,46488,1,0
256,104,46684,1,0
256,192,46880,6,0,B|256:296,1,105.000004005432
352,296,47272,1,0
352,200,47468,5,0
256,192,47664,2,0,B|200:192,2,52.5000020027161
256,104,48057,5,0
352,104,48253,2,0,B|408:104|416:176,1,105.000004005432
344,240,48645,2,0,B|344:184|416:176,1,105.000004005432
336,192,49037,6,0,B|376:152,6,52.5000020027161
256,192,49723,6,0,B|296:152,7,52.5000020027161
176,192,50508,6,0,B|152:216,8,26.2500010013581
136,192,50998,6,0,B|112:216,6,26.2500010013581
176,192,51390,5,0
256,192,52174,5,0
344,144,52370,2,0,B|336:64|264:80,2,105.000004005432
384,224,52959,2,0,B|384:280|384:280|328:280,1,105.000004005432
248,280,53351,1,0
160,216,53547,6,0,B|112:176|104:144|136:96,1,105.000004005432
288,184,53939,6,0,B|248:136|216:128|168:160,1,105.000004005432
176,312,54331,6,0,B|224:272|232:240|200:192,1,105.000004005432
256,48,55312,6,0,B|256:152,1,105.000004005432
256,240,55704,1,0
344,200,55900,2,0,B|400:160|336:120,1,105.000004005432
344,200,56488,6,0,B|320:248|248:240,1,105.000004005432
168,248,56880,1,0
208,168,57076,1,0
256,240,57272,6,0,B|304:256|312:256|312:256|296:200,2,105.000004005432
168,248,58253,5,0
256,240,58449,2,0,B|312:224|320:152,1,105.000004005432
320,64,58841,1,0
224,120,59037,1,0
400,176,59233,6,0,B|432:216|496:192|496:128|463:89|400:80,1,210.000008010865
312,96,59821,1,0
400,176,60017,6,0,B|432:216|432:248|376:248,1,105.000004005432
280,224,60410,1,0
200,152,60606,1,0
136,64,60802,2,0,B|200:48|264:56|336:80|360:128,1,210.000008010865
400,176,61390,5,0
344,264,61586,2,0,B|296:296|240:240|248:160|304:112,1,210.000008010865
384,64,62174,1,0
400,176,62370,5,0
288,128,62566,1,0
160,128,62762,1,0
224,240,62959,1,0
352,240,63155,5,0
256,192,63351,12,0,64527
