osu file format v13

[General]
AudioFilename: _Lily_ FACE _Vocaloid_.mp3
AudioLeadIn: 0
PreviewTime: 154967
Countdown: 0
SampleSet: Soft
StackLeniency: 0.2
Mode: 0
LetterboxInBreaks: 1
WidescreenStoryboard: 0

[Editor]
Bookmarks: 3709,13814,19024,29129,39234,49181,59286,66865,72075,82180,92285,102232,112337,119916,125126,135231,145178,154020,155283,165388,175493,183072,188283
DistanceSpacing: 1.9
BeatDivisor: 4
GridSize: 4
TimelineZoom: 2.68

[Metadata]
Title:Face
TitleUnicode:Face
Artist:Lily
ArtistUnicode:Lily
Creator:Shinobu Oshino
Version:Insane
Source:
Tags:Niki Lily Shinobu Oshino Face Vocaloid
BeatmapID:471560
BeatmapSetID:198804

[Difficulty]
HPDrainRate:6
CircleSize:4
OverallDifficulty:8
ApproachRate:9.3
SliderMultiplier:1.79999990463257
SliderTickRate:2

[Events]
//Background and Video events
0,0,"Lily.jpg",0,0
//Break Periods
2,126589,134361
//Storyboard Layer 0 (Background)
//Storyboard Layer 1 (Fail)
//Storyboard Layer 2 (Pass)
//Storyboard Layer 3 (Foreground)
//Storyboard Sound Samples

[TimingPoints]
3709,315.789473684211,4,2,1,60,1,0
19024,315.789473684211,4,2,1,60,1,0
19024,-125,4,2,1,60,0,0
21550,-76.9230769230769,4,2,1,60,0,0
21866,-125,4,2,1,60,0,0
23445,-100,4,2,1,60,0,0
24076,-125,4,2,1,60,0,0
26602,-76.9230769230769,4,2,1,60,0,0
27076,-125,4,2,1,60,0,0
27708,-125,4,1,2,60,0,0
27866,-125,4,2,1,60,0,0
29129,-83.3333333333333,4,2,1,60,0,0
38129,-83.3333333333333,4,1,2,60,0,0
38208,-83.3333333333333,4,2,1,5,0,0
38287,-83.3333333333333,4,2,1,60,0,0
38445,-83.3333333333333,4,2,2,60,0,0
38524,-83.3333333333333,4,2,1,5,0,0
38602,-83.3333333333333,4,2,1,60,0,0
38760,-83.3333333333333,4,1,2,60,0,0
38839,-83.3333333333333,4,2,1,5,0,0
38918,-83.3333333333333,4,2,1,60,0,0
44287,-100,4,2,1,60,0,0
44918,-100,4,2,2,60,0,0
45076,-100,4,2,1,60,0,0
46813,-66.6666666666667,4,2,1,60,0,0
46971,-66.6666666666667,4,1,2,60,0,0
47129,-66.6666666666667,4,2,1,60,0,0
47760,-100,4,2,1,60,0,0
48076,-100,4,2,1,42,0,0
48708,-100,4,2,1,100,0,0
49181,315.789473684211,4,2,1,100,1,0
49181,-83.3333333333333,4,2,1,100,0,1
50444,-62.5,4,2,1,100,0,1
50681,-62.5,4,2,1,5,0,1
50759,-62.5,4,2,1,100,0,1
50917,-62.5,4,2,2,100,0,1
50996,-62.5,4,2,1,5,0,1
51075,-62.5,4,2,1,100,0,1
51391,-50,4,2,1,100,0,1
51470,-50,4,2,1,50,0,1
51549,-50,4,2,1,100,0,1
51628,-50,4,2,1,50,0,1
51707,-62.5,4,2,1,100,0,1
51944,-62.5,4,2,1,5,0,1
52023,-50,4,2,1,100,0,1
52102,-50,4,2,1,50,0,1
52181,-50,4,2,1,100,0,1
52259,-50,4,2,1,50,0,1
52338,-62.5,4,2,1,100,0,1
52970,-55.5555555555556,4,2,1,100,0,1
53207,-55.5555555555556,4,2,1,5,0,1
53286,-55.5555555555556,4,2,1,100,0,1
53523,-55.5555555555556,4,2,1,5,0,1
53602,-55.5555555555556,4,2,1,100,0,1
53838,-55.5555555555556,4,2,1,5,0,1
53917,-83.3333333333333,4,2,1,100,0,1
55496,-62.5,4,2,1,100,0,1
55733,-62.5,4,2,1,5,0,1
55812,-62.5,4,2,1,100,0,1
56049,-62.5,4,2,1,5,0,1
56128,-62.5,4,2,1,100,0,1
56365,-62.5,4,2,1,5,0,1
56444,-62.5,4,2,1,100,0,1
56759,-83.3333333333333,4,2,1,100,0,1
58023,-71.4285714285714,4,2,1,100,0,0
58259,-71.4285714285714,4,2,1,5,0,0
58338,-62.5,4,2,1,100,0,0
58575,-62.5,4,2,1,5,0,0
58654,-55.5555555555556,4,2,1,100,0,0
58891,-55.5555555555556,4,2,1,5,0,0
58970,-55.5555555555556,4,2,1,100,0,0
59286,-83.3333333333333,4,2,1,100,0,1
60549,-62.5,4,2,1,100,0,1
60786,-62.5,4,2,1,5,0,1
60865,-62.5,4,2,1,100,0,1
61102,-62.5,4,2,1,5,0,1
61181,-62.5,4,2,1,100,0,1
61496,-50,4,2,1,100,0,1
61575,-50,4,2,1,50,0,1
61654,-50,4,2,1,100,0,1
61733,-50,4,2,1,50,0,1
61812,-62.5,4,2,1,100,0,1
62049,-62.5,4,2,1,5,0,1
62128,-50,4,2,1,100,0,1
62207,-50,4,2,1,50,0,1
62286,-50,4,2,1,100,0,1
62365,-50,4,2,1,50,0,1
62444,-62.5,4,2,1,100,0,1
63075,-55.5555555555556,4,2,1,100,0,1
63312,-55.5555555555556,4,2,1,5,0,1
63391,-55.5555555555556,4,2,1,100,0,1
63628,-55.5555555555556,4,2,1,5,0,1
63707,-55.5555555555556,4,2,1,100,0,1
63944,-55.5555555555556,4,2,1,5,0,1
64023,-83.3333333333333,4,2,1,100,0,1
65602,-62.5,4,2,1,100,0,1
65838,-62.5,4,2,1,5,0,1
65917,-62.5,4,2,1,100,0,1
66154,-62.5,4,2,1,5,0,1
66233,-62.5,4,2,1,100,0,1
66470,-62.5,4,2,1,5,0,1
66549,-83.3333333333333,4,2,1,100,0,1
72075,315.789473684211,4,2,1,100,1,0
72075,-125,4,2,1,100,0,0
74364,-125,4,2,1,25,0,0
74601,-125,4,2,1,100,0,0
75864,-76.9230769230769,4,2,1,100,0,0
76180,-125,4,2,1,100,0,0
76496,-76.9230769230769,4,2,1,100,0,0
77127,-125,4,2,1,100,0,0
77443,-76.9230769230769,4,2,1,100,0,0
77917,-125,4,2,1,100,0,0
78232,-76.9230769230769,4,2,1,100,0,0
78548,-125,4,2,1,100,0,0
80759,-76.9230769230769,4,2,1,100,0,0
80996,-76.9230769230769,4,2,1,5,0,0
81075,-76.9230769230769,4,2,1,100,0,0
81311,-76.9230769230769,4,2,1,5,0,0
81390,-76.9230769230769,4,2,1,100,0,0
81627,-76.9230769230769,4,2,1,5,0,0
81706,-76.9230769230769,4,2,1,40,0,0
81785,-76.9230769230769,4,2,1,50,0,0
81864,-76.9230769230769,4,2,1,60,0,0
81943,-76.9230769230769,4,2,1,70,0,0
82022,-76.9230769230769,4,2,1,80,0,0
82101,-76.9230769230769,4,2,1,90,0,0
82180,-83.3333333333333,4,2,1,100,0,0
84075,-71.4285714285714,4,2,1,100,0,0
84548,-83.3333333333333,4,2,1,100,0,0
88496,-71.4285714285714,4,2,1,100,0,0
89127,-83.3333333333333,4,2,1,100,0,0
91259,-83.3333333333333,4,2,1,5,0,0
91338,-83.3333333333333,4,2,1,100,0,0
91575,-83.3333333333333,4,2,1,5,0,0
91653,-83.3333333333333,4,2,1,100,0,0
91890,-83.3333333333333,4,2,1,5,0,0
91969,-83.3333333333333,4,2,1,100,0,0
97338,-100,4,2,1,100,0,0
99232,-83.3333333333333,4,2,1,100,0,0
99864,-66.6666666666667,4,2,1,100,0,0
100811,-100,4,2,1,100,0,0
101127,-100,4,2,1,60,0,0
101759,-100,4,2,1,100,0,0
102232,315.789473684211,4,2,1,100,1,0
102232,-83.3333333333333,4,2,1,100,0,1
103495,-62.5,4,2,1,100,0,1
103732,-62.5,4,2,1,5,0,1
103810,-62.5,4,2,1,100,0,1
104047,-62.5,4,2,1,5,0,1
104126,-62.5,4,2,1,100,0,1
104442,-50,4,2,1,100,0,1
104521,-50,4,2,1,50,0,1
104600,-50,4,2,1,100,0,1
104679,-50,4,2,1,50,0,1
104758,-62.5,4,2,1,100,0,1
104995,-62.5,4,2,1,5,0,1
105074,-50,4,2,1,100,0,1
105153,-50,4,2,1,50,0,1
105232,-50,4,2,1,100,0,1
105310,-50,4,2,1,50,0,1
105389,-62.5,4,2,1,100,0,1
106021,-55.5555555555556,4,2,1,100,0,1
106258,-55.5555555555556,4,2,1,5,0,1
106337,-55.5555555555556,4,2,1,100,0,1
106574,-55.5555555555556,4,2,1,5,0,1
106653,-55.5555555555556,4,2,1,100,0,1
106889,-55.5555555555556,4,2,1,5,0,1
106968,-83.3333333333333,4,2,1,100,0,1
108547,-62.5,4,2,1,100,0,1
108784,-62.5,4,2,1,5,0,1
108863,-62.5,4,2,1,100,0,1
109100,-62.5,4,2,1,5,0,1
109179,-62.5,4,2,1,100,0,1
109416,-62.5,4,2,1,5,0,1
109495,-83.3333333333333,4,2,1,100,0,1
111074,-71.4285714285714,4,2,1,100,0,0
111310,-71.4285714285714,4,2,1,5,0,0
111389,-62.5,4,2,1,100,0,0
111705,-55.5555555555556,4,2,1,100,0,0
111942,-55.5555555555556,4,2,1,5,0,0
112021,-83.3333333333333,4,2,1,100,0,1
113600,-62.5,4,2,1,100,0,1
113837,-62.5,4,2,1,5,0,1
113916,-62.5,4,2,1,100,0,1
114153,-62.5,4,2,1,5,0,1
114232,-62.5,4,2,1,100,0,1
114547,-50,4,2,1,100,0,1
114626,-50,4,2,1,50,0,1
114705,-50,4,2,1,100,0,1
114784,-50,4,2,1,50,0,1
114863,-62.5,4,2,1,100,0,1
115100,-62.5,4,2,1,5,0,1
115179,-50,4,2,1,100,0,1
115258,-50,4,2,1,50,0,1
115337,-50,4,2,1,100,0,1
115416,-50,4,2,1,50,0,1
115495,-62.5,4,2,1,100,0,1
116126,-55.5555555555556,4,2,1,100,0,1
116363,-55.5555555555556,4,2,1,5,0,1
116442,-55.5555555555556,4,2,1,100,0,1
116679,-55.5555555555556,4,2,1,5,0,1
116758,-55.5555555555556,4,2,1,100,0,1
116995,-55.5555555555556,4,2,1,5,0,1
117074,-83.3333333333333,4,2,1,100,0,1
118653,-62.5,4,2,1,100,0,1
118889,-62.5,4,2,1,5,0,1
118968,-62.5,4,2,1,100,0,1
119205,-62.5,4,2,1,5,0,1
119284,-62.5,4,2,1,100,0,1
119521,-62.5,4,2,1,5,0,1
119600,-83.3333333333333,4,2,1,100,0,1
125126,315.789473684211,4,2,1,100,1,0
134915,-100,4,2,1,100,0,0
140204,-100,4,2,1,5,0,0
140283,-100,4,2,1,100,0,0
144783,-100,4,2,1,5,0,0
144862,-100,4,2,1,100,0,0
145099,-100,4,2,1,5,0,0
145178,315.789473684211,4,2,1,100,1,0
145178,-100,4,2,1,100,0,0
145493,-100,4,2,1,5,0,0
146441,-100,4,2,1,5,0,0
146678,-100,4,2,1,5,0,0
146756,-100,4,2,1,5,0,0
146993,-100,4,2,1,5,0,0
147072,-100,4,2,1,5,0,0
148967,-90.9090909090909,4,2,1,5,0,0
149204,-90.9090909090909,4,2,1,5,0,0
149283,-90.9090909090909,4,2,1,5,0,0
149520,-90.9090909090909,4,2,1,5,0,0
149599,-90.9090909090909,4,2,1,5,0,0
149835,-90.9090909090909,4,2,1,5,0,0
149914,-142.857142857143,4,2,1,5,0,0
151493,-100,4,2,1,5,0,0
151730,-100,4,2,1,5,0,0
151809,-100,4,2,1,5,0,0
152046,-100,4,2,1,5,0,0
152125,-100,4,2,1,5,0,0
152362,-100,4,2,1,5,0,0
152441,-100,4,2,1,5,0,0
154020,-71.4285714285714,4,2,1,100,0,0
154256,-71.4285714285714,4,2,1,5,0,0
154335,-62.5,4,2,1,100,0,0
154572,-62.5,4,2,1,5,0,0
154651,-55.5555555555556,4,2,1,100,0,0
154888,-55.5555555555556,4,2,1,5,0,0
154967,-83.3333333333333,4,2,1,100,0,0
155283,-83.3333333333333,4,2,1,100,0,1
156546,-62.5,4,2,1,100,0,1
156783,-62.5,4,2,1,5,0,1
156862,-62.5,4,2,1,100,0,1
157099,-62.5,4,2,1,5,0,1
157178,-62.5,4,2,1,100,0,1
157493,-50,4,2,1,100,0,1
157572,-50,4,2,1,50,0,1
157651,-50,4,2,1,100,0,1
157730,-50,4,2,1,50,0,1
157809,-62.5,4,2,1,100,0,1
158046,-62.5,4,2,1,5,0,1
158125,-50,4,2,1,100,0,1
158204,-50,4,2,1,50,0,1
158283,-50,4,2,1,100,0,1
158362,-50,4,2,1,50,0,1
158441,-62.5,4,2,1,100,0,1
159072,-55.5555555555556,4,2,1,100,0,1
159309,-55.5555555555556,4,2,1,5,0,1
159388,-55.5555555555556,4,2,1,100,0,1
159625,-55.5555555555556,4,2,1,5,0,1
159704,-55.5555555555556,4,2,1,100,0,1
159941,-55.5555555555556,4,2,1,5,0,1
160020,-83.3333333333333,4,2,1,100,0,1
161599,-62.5,4,2,1,100,0,1
161835,-62.5,4,2,1,5,0,1
161914,-62.5,4,2,1,100,0,1
162151,-62.5,4,2,1,5,0,1
162230,-62.5,4,2,1,100,0,1
162467,-62.5,4,2,1,5,0,1
162546,-83.3333333333333,4,2,1,100,0,1
164125,-71.4285714285714,4,2,1,100,0,0
164362,-71.4285714285714,4,2,1,5,0,0
164441,-62.5,4,2,1,100,0,0
164756,-55.5555555555556,4,2,1,100,0,0
164993,-55.5555555555556,4,2,1,5,0,0
165072,-83.3333333333333,4,2,1,100,0,0
165388,-83.3333333333333,4,2,1,100,0,1
166651,-62.5,4,2,1,100,0,1
166888,-62.5,4,2,1,5,0,1
166967,-62.5,4,2,1,100,0,1
167204,-62.5,4,2,1,5,0,1
167283,-62.5,4,2,1,100,0,1
167599,-50,4,2,1,100,0,1
167678,-50,4,2,1,50,0,1
167756,-50,4,2,1,100,0,1
167835,-50,4,2,1,50,0,1
167914,-62.5,4,2,1,100,0,1
168151,-62.5,4,2,1,5,0,1
168230,-50,4,2,1,100,0,1
168309,-50,4,2,1,50,0,1
168388,-50,4,2,1,100,0,1
168467,-50,4,2,1,50,0,1
168546,-62.5,4,2,1,100,0,1
169178,-55.5555555555556,4,2,1,100,0,1
169414,-55.5555555555556,4,2,1,5,0,1
169493,-55.5555555555556,4,2,1,100,0,1
169730,-55.5555555555556,4,2,1,5,0,1
169809,-55.5555555555556,4,2,1,100,0,1
170046,-55.5555555555556,4,2,1,5,0,1
170125,-83.3333333333333,4,2,1,100,0,1
171704,-62.5,4,2,1,100,0,1
171941,-62.5,4,2,1,5,0,1
172020,-62.5,4,2,1,100,0,1
172256,-62.5,4,2,1,5,0,1
172335,-62.5,4,2,1,100,0,1
172572,-62.5,4,2,1,5,0,1
172651,-83.3333333333333,4,2,1,100,0,1
174230,-71.4285714285714,4,2,1,100,0,0
174467,-71.4285714285714,4,2,1,5,0,0
174546,-62.5,4,2,1,100,0,0
174862,-55.5555555555556,4,2,1,100,0,0
175099,-55.5555555555556,4,2,1,5,0,0
175178,-83.3333333333333,4,2,1,100,0,0
175493,-83.3333333333333,4,2,1,100,0,1
176756,-62.5,4,2,1,100,0,1
176993,-62.5,4,2,1,5,0,1
177072,-62.5,4,2,1,100,0,1
177309,-62.5,4,2,1,5,0,1
177388,-62.5,4,2,1,100,0,1
177704,-50,4,2,1,100,0,1
177783,-50,4,2,1,50,0,1
177862,-50,4,2,1,100,0,1
177941,-50,4,2,1,50,0,1
178020,-62.5,4,2,1,100,0,1
178256,-62.5,4,2,1,5,0,1
178335,-50,4,2,1,100,0,1
178414,-50,4,2,1,50,0,1
178493,-50,4,2,1,100,0,1
178572,-50,4,2,1,50,0,1
178651,-62.5,4,2,1,100,0,1
179283,-55.5555555555556,4,2,1,100,0,1
179520,-55.5555555555556,4,2,1,5,0,1
179599,-55.5555555555556,4,2,1,100,0,1
179835,-55.5555555555556,4,2,1,5,0,1
179914,-55.5555555555556,4,2,1,100,0,1
180151,-55.5555555555556,4,2,1,5,0,1
180230,-83.3333333333333,4,2,1,100,0,1
181809,-62.5,4,2,1,100,0,1
182046,-62.5,4,2,1,5,0,1
182125,-62.5,4,2,1,100,0,1
182362,-62.5,4,2,1,5,0,1
182441,-62.5,4,2,1,100,0,1
182678,-62.5,4,2,1,5,0,1
182756,-83.3333333333333,4,2,1,100,0,1
188283,315.789473684211,4,2,1,100,1,0

[HitObjects]
109,65,3709,6,0,P|124:156|209:183,1,179.999990463257,6|4,0:0|0:0,0:0:0:0:
188,100,4182,1,8,0:0:0:0:
55,207,4340,1,0,0:0:0:0:
218,264,4498,1,4,0:0:0:0:
252,252,4577,1,4,0:0:0:0:
276,224,4656,1,4,0:0:0:0:
288,192,4735,1,4,0:0:0:0:
288,156,4814,1,8,0:0:0:0:
263,74,4972,6,0,P|356:105|369:182,1,179.999990463257,4|4,0:0|0:0,0:0:0:0:
288,156,5445,1,8,0:0:0:0:
431,65,5603,1,0,0:0:0:0:
440,235,5761,2,0,P|400:258|332:253,1,89.9999952316285,4|4,0:0|0:0,0:0:0:0:
377,178,6077,1,8,0:0:0:0:
161,151,6235,6,0,P|122:227|169:300,1,179.999990463257,4|4,0:0|0:0,0:0:0:0:
208,224,6709,1,8,0:0:0:0:
40,204,6866,1,0,0:0:0:0:
144,68,7024,1,4,0:0:0:0:
176,48,7103,1,4,0:0:0:0:
208,40,7182,1,4,0:0:0:0:
248,40,7261,1,4,0:0:0:0:
280,48,7340,1,8,0:0:0:0:
208,224,7498,6,0,P|272:280|368:233,1,179.999990463257,4|4,0:0|0:0,0:0:0:0:
290,198,7972,1,8,0:0:0:0:
259,362,8130,1,0,0:0:0:0:
267,174,8287,1,4,0:0:0:0:
139,302,8445,1,4,0:0:0:0:
247,154,8603,1,8,0:0:0:0:
77,182,8761,6,0,P|62:90|145:39,1,179.999990463257,6|4,0:0|0:0,0:0:0:0:
140,124,9235,1,8,0:0:0:0:
311,121,9393,1,0,0:0:0:0:
229,271,9551,1,4,0:0:0:0:
196,252,9630,1,4,0:0:0:0:
160,244,9709,1,4,0:0:0:0:
124,244,9787,1,4,0:0:0:0:
92,256,9866,1,8,0:0:0:0:
43,325,10024,6,0,P|10:235|77:172,1,179.999990463257,4|4,0:0|0:0,0:0:0:0:
92,256,10498,1,8,0:0:0:0:
36,90,10656,1,0,0:0:0:0:
178,190,10814,1,4,0:0:0:0:
5,193,10972,1,4,0:0:0:0:
143,89,11130,1,8,0:0:0:0:
351,205,11287,6,0,P|321:290|232:302,1,179.999990463257,4|4,0:0|0:0,0:0:0:0:
268,225,11761,1,8,0:0:0:0:
241,305,11919,1,0,0:0:0:0:
228,144,12077,1,4,0:0:0:0:
241,305,12235,1,4,0:0:0:0:
162,82,12393,1,8,0:0:0:0:
359,221,12551,6,0,P|314:147|227:143,1,179.999990463257,4|4,0:0|0:0,0:0:0:0:
268,225,13024,1,8,0:0:0:0:
327,65,13182,1,0,0:0:0:0:
162,82,13340,1,4,0:0:0:0:
268,225,13498,1,4,0:0:0:0:
327,65,13656,1,4,0:0:0:0:
340,64,13735,1,12,0:0:0:0:
353,66,13814,1,6,0:0:0:0:
363,338,14130,5,4,0:0:0:0:
273,344,14287,2,0,P|223:337|172:317,1,90,8|0,0:0|0:0,0:0:0:0:
258,111,14603,5,4,0:0:0:0:
291,123,14761,1,4,0:0:0:0:
319,144,14919,2,0,P|348:185|359:227,1,90,8|0,0:0|0:0,0:0:0:0:
160,173,15235,5,4,0:0:0:0:
153,138,15393,1,4,0:0:0:0:
158,103,15551,2,0,P|179:57|209:26,1,90,8|0,0:0|0:0,0:0:0:0:
262,229,15866,5,4,0:0:0:0:
235,251,16024,1,4,0:0:0:0:
202,265,16182,1,8,0:0:0:0:
206,29,16340,1,6,0:0:0:0:
71,252,16656,5,4,0:0:0:0:
134,317,16814,2,0,P|183:341|237:351,1,90,8|0,0:0|0:0,0:0:0:0:
388,109,17130,1,4,0:0:0:0:
353,100,17287,1,4,0:0:0:0:
317,96,17445,2,0,P|253:96|195:117,1,90,8|0,0:0|0:0,0:0:0:0:
71,252,17761,6,0,P|135:252|193:231,1,90,4|4,0:0|0:0,0:0:0:0:
323,7,18077,2,0,P|323:71|302:129,1,90,8|0,0:0|0:0,0:0:0:0:
65,341,18393,2,0,P|65:277|86:219,1,90,8|4,0:0|0:0,0:0:0:0:
101,218,18630,1,8,0:0:0:0:
144,206,18709,1,4,0:0:0:0:
187,216,18787,1,8,0:0:0:0:
231,224,18866,1,4,0:0:0:0:
274,211,18945,1,4,0:0:0:0:
308,179,19024,6,0,P|314:100|258:50,1,143.999992370606,4|4,0:0|0:0,0:0:0:0:
236,133,19497,2,0,P|227:202|272:256,1,143.999992370606,8|4,0:0|0:0,0:0:0:0:
358,247,19971,2,0,P|351:286|332:317,1,71.9999961853028,0|4,0:0|0:0,0:0:0:0:
64,64,20445,1,4,0:0:0:0:
59,212,20602,2,0,P|42:174|19:153,1,71.9999961853028
149,70,20918,2,0,P|137:103|114:131,1,71.9999961853028,8|0,0:0|0:0,0:0:0:0:
145,212,21234,1,4,0:0:0:0:
436,61,21550,6,0,P|459:129|421:191,1,116.999988445283,4|4,0:0|0:0,0:0:0:0:
374,120,21866,1,0,0:0:0:0:
305,80,22024,1,8,0:0:0:0:
249,64,22339,1,4,0:0:0:0:
205,59,22655,1,4,0:0:0:0:
13,51,22971,1,4,0:0:0:0:
13,51,23129,2,0,P|14:89|50:129,1,72
52,232,23445,2,0,P|87:196|138:186,1,89.9999952316285,8|0,0:0|0:0,0:0:0:0:
128,271,23760,1,4,0:0:0:0:
387,209,24076,6,0,L|347:295,2,72,6|4|0,0:0|0:0|0:0,0:0:0:0:
469,186,24550,2,0,P|423:132|342:136,1,144,8|4,0:0|0:0,0:0:0:0:
302,198,25024,2,0,P|246:236|217:239,1,72,0|4,0:0|0:0,0:0:0:0:
103,314,25497,1,4,0:0:0:0:
131,233,25655,2,0,P|160:252|181:281,1,71.9999961853028
112,150,25971,2,0,P|80:164|57:191,1,71.9999961853028,8|0,0:0|0:0,0:0:0:0:
198,150,26287,2,0,P|248:130|276:88,1,72,4|0,0:0|0:0,0:0:0:0:
222,232,26602,6,0,P|252:281|307:301,1,116.999988445283,4|4,0:0|0:0,0:0:0:0:
306,216,26918,1,0,0:0:0:0:
381,275,27076,2,0,P|399:233|396:192,1,71.9999961853028,8|0,0:0|0:0,0:0:0:0:
346,141,27392,1,4,0:0:0:0:
350,355,27550,2,0,P|442:337|469:283,1,143.999992370606
465,299,28024,1,4,0:0:0:0:
310,227,28339,5,0,0:0:0:0:
310,227,28497,1,4,0:0:0:0:
310,227,28655,1,0,0:0:0:0:
276,200,28813,1,12,0:0:0:0:
264,184,28892,1,8,0:0:0:0:
256,164,28971,1,8,0:0:0:0:
252,144,29050,1,8,0:0:0:0:
244,112,29129,6,0,P|156:48|72:128,1,215.999981964112,6|0,0:0|0:0,0:0:0:0:
156,304,29602,1,8,0:0:0:0:
188,312,29681,1,8,0:0:0:0:
220,320,29760,1,4,0:0:0:0:
380,288,29918,1,4,0:0:0:0:
376,136,30076,6,0,B|360:80|360:80|276:64,1,107.999996704102,8|8,0:0|0:0,0:0:0:0:
136,248,30392,2,0,B|152:304|152:304|236:320,1,107.999996704102,8|4,0:0|0:0,0:0:0:0:
416,96,30708,2,0,B|400:40|400:40|316:24,1,107.999996704102,0|8,0:0|0:0,0:0:0:0:
96,288,31024,2,0,B|112:344|112:344|196:360,1,107.999996704102,4|4,0:0|0:0,0:0:0:0:
256,192,31339,1,8,0:0:0:0:
196,20,31497,1,8,0:0:0:0:
168,36,31576,1,8,0:0:0:0:
148,60,31655,6,0,P|174:176|268:188,1,215.999981964112,4|8,0:0|0:0,0:0:0:0:
437,71,32129,1,4,0:0:0:0:
418,51,32208,1,8,0:0:0:0:
396,34,32287,1,4,0:0:0:0:
248,100,32444,1,4,0:0:0:0:
380,196,32602,1,8,0:0:0:0:
396,34,32760,1,4,0:0:0:0:
418,51,32839,1,8,0:0:0:0:
437,71,32918,1,0,0:0:0:0:
364,215,33076,6,0,P|279:265|202:179,1,215.999981964112,4|4,0:0|0:0,0:0:0:0:
287,181,33550,1,6,0:0:0:0:
99,288,33708,1,6,0:0:0:0:
99,72,33866,1,8,0:0:0:0:
152,80,33945,1,8,0:0:0:0:
204,88,34024,1,8,0:0:0:0:
256,96,34102,1,8,0:0:0:0:
308,108,34181,6,0,P|440:124|455:226,1,215.999981964112,4|4,0:0|0:0,0:0:0:0:
300,331,34655,1,4,0:0:0:0:
288,308,34734,1,8,0:0:0:0:
281,281,34813,1,4,0:0:0:0:
388,268,34971,1,4,0:0:0:0:
184,340,35129,1,8,0:0:0:0:
221,128,35287,1,8,0:0:0:0:
411,165,35445,6,0,B|421:236|370:289,1,107.999990982056,8|4,0:0|0:0,0:0:0:0:
101,219,35760,2,0,B|91:148|142:95,1,107.999990982056,0|8,0:0|0:0,0:0:0:0:
464,172,36076,2,0,B|474:243|423:296,1,107.999990982056,4|4,0:0|0:0,0:0:0:0:
48,212,36392,2,0,B|38:141|89:88,1,107.999990982056,8|8,0:0|0:0,0:0:0:0:
91,90,36629,1,8,0:0:0:0:
114,76,36708,1,4,0:0:0:0:
340,260,36866,6,0,P|300:296|224:288,1,107.999996704102,0|8,0:0|0:0,0:0:0:0:
71,109,37181,1,4,0:0:0:0:
91,90,37260,1,8,0:0:0:0:
114,76,37339,1,4,0:0:0:0:
287,13,37497,1,4,0:0:0:0:
255,192,37655,1,8,0:0:0:0:
398,308,37813,1,8,0:0:0:0:
421,294,37892,1,8,0:0:0:0:
441,275,37971,6,0,P|447:205|382:133,1,161.999986473084,4|0,0:0|0:0,0:0:0:0:
372,148,38287,2,0,P|352:214|256:246,1,161.999995056153
253,255,38602,2,0,P|255:170|169:115,1,161.999986473084,4|0,0:0|0:0,0:0:0:0:
158,122,38918,1,8,0:0:0:0:
135,159,38997,1,8,0:0:0:0:
135,202,39076,1,8,0:0:0:0:
150,242,39155,1,8,0:0:0:0:
175,275,39234,5,6,0:0:0:0:
337,275,39550,1,12,0:0:0:0:
337,113,39866,1,4,0:0:0:0:
176,111,40181,1,12,0:0:0:0:
251,361,40497,5,4,0:0:0:0:
83,192,40813,1,12,0:0:0:0:
252,24,41129,1,4,0:0:0:0:
420,193,41445,1,12,0:0:0:0:
63,339,41760,5,4,0:0:0:0:
447,243,42076,1,12,0:0:0:0:
63,147,42392,1,4,0:0:0:0:
447,51,42708,1,12,0:0:0:0:
159,51,43024,5,4,0:0:0:0:
351,147,43339,1,12,0:0:0:0:
159,243,43655,1,4,0:0:0:0:
351,339,43971,1,12,0:0:0:0:
8,128,44287,6,0,P|4:176|48:240,2,90,6|4|0,0:0|0:0|0:0,0:0:0:0:
245,236,44760,2,0,P|274:131|220:85,1,179.999990463257
197,167,45234,1,4,0:0:0:0:
376,148,45392,2,0,P|436:131|467:92,1,89.9999952316285,0|4,0:0|0:0,0:0:0:0:
386,63,45708,2,0,P|307:98|309:201,1,179.999990463257,4|0,0:0|0:0,0:0:0:0:
376,148,46181,5,0,0:0:0:0:
228,48,46339,1,4,0:0:0:0:
216,228,46497,1,8,0:0:0:0:
66,125,46655,1,0,0:0:0:0:
228,48,46813,2,0,P|349:28|376:148,1,269.999995994568,12|8,0:0|0:0,0:0:0:0:
470,129,47287,2,0,P|406:236|291:191,1,269.999995994568,4|4,0:0|0:0,0:0:0:0:
313,108,47760,2,0,P|275:107|228:133,1,89.9999952316285,8|0,0:0|0:0,0:0:0:0:
72,128,48076,5,4,0:0:0:0:
36,180,48155,1,0,0:0:0:0:
48,244,48234,1,0,0:0:0:0:
96,284,48313,1,0,0:0:0:0:
160,276,48392,1,12,0:0:0:0:
204,232,48471,1,12,0:0:0:0:
228,172,48550,1,12,0:0:0:0:
268,124,48629,1,12,0:0:0:0:
328,108,48708,1,12,0:0:0:0:
452,332,48866,1,12,0:0:0:0:
228,66,49181,6,0,P|139:117|150:242,1,215.999981964112,4|4,0:0|0:0,0:0:0:0:
228,172,49654,1,8,0:0:0:0:
38,64,49812,1,0,0:0:0:0:
41,282,49970,2,0,P|92:316|148:332,1,107.999996704102
292,284,50286,1,8,0:0:0:0:
424,152,50444,6,0,B|400:109|400:109|359:132|359:132|352:69|291:54|257:62,1,215.999988555908
130,40,50759,2,0,B|153:83|153:83|169:68|169:68|196:147|280:140,1,215.999988555908
388,236,51075,2,0,B|325:200|325:200|292:222|246:213,1,143.999992370606
32,200,51391,6,0,P|41:156|62:116,1,89.9999952316285
108,36,51549,2,0,P|140:86|136:122,1,89.9999952316285,8|0,0:0|0:0,0:0:0:0:
99,255,51707,2,0,B|123:223|112:187|112:187|169:198|216:164|218:97,1,215.999988555908
410,68,52023,6,0,P|407:112|422:158,1,89.9999952316285
391,241,52181,2,0,P|356:198|339:154,1,89.9999952316285,8|0,0:0|0:0,0:0:0:0:
344,22,52338,2,0,B|327:65|332:92|332:92|260:98|241:183|308:266,1,287.999984741211
32,200,52812,1,8,0:0:0:0:
341,20,52970,6,0,B|416:50|416:50|378:89|378:89|432:133|407:208,1,242.999979709626
345,346,53286,2,0,B|304:320|240:331|240:331|263:273|227:228|208:215|185:211,1,242.999979709626
85,333,53602,2,0,B|158:350|170:292|170:292|148:273|119:243|118:223|121:199|143:151,1,242.999979709626
138,29,53917,1,0,0:0:0:0:
199,215,54075,1,8,0:0:0:0:
328,70,54233,6,0,P|360:168|293:247,1,215.999981964112
293,247,54707,1,8,0:0:0:0:
94,173,54865,1,0,0:0:0:0:
209,346,55023,1,0,0:0:0:0:
219,136,55181,1,0,0:0:0:0:
89,301,55338,1,8,0:0:0:0:
293,247,55496,6,0,P|360:168|328:70,1,215.999981964112
231,179,55812,2,0,B|199:223|124:167|124:167|117:213|117:213|97:197|69:193,1,215.999988555908
194,112,56128,2,0,B|132:72|101:88|75:98|61:121|61:121|14:132|3:173,1,215.999988555908
42,265,56444,1,0,0:0:0:0:
250,321,56602,1,8,0:0:0:0:
194,112,56759,6,0,P|323:140|359:242,1,215.999981964112
239,221,57233,1,8,0:0:0:0:
350,35,57391,1,0,0:0:0:0:
133,32,57549,2,0,P|75:71|62:131,1,107.999990982056
42,265,57865,1,8,0:0:0:0:
404,300,58023,6,0,B|464:256|432:208|400:160|462:120,1,188.999984218598
260,204,58338,2,0,B|251:239|208:248|208:248|208:292|155:315,1,143.999992370606,0|8,0:0|0:0,0:0:0:0:
132,120,58654,2,0,B|139:53|176:25|176:25|195:39|208:69|208:69|256:34|298:71,1,242.999979709626
324,128,58970,1,0,0:0:0:0:
302,288,59128,1,8,0:0:0:0:
173,188,59286,6,0,P|208:96|88:56,1,215.999981964112
76,140,59759,1,8,0:0:0:0:
280,72,59917,1,0,0:0:0:0:
236,284,60075,2,0,P|304:328|376:276,1,107.999990982056
448,216,60391,1,8,0:0:0:0:
288,184,60549,6,0,B|240:170|240:170|254:126|254:126|168:128|175:63|143:56,1,215.999988555908
20,16,60865,2,0,B|59:27|82:52|82:52|83:84|104:120|104:120|82:148|48:164,1,215.999988555908
183,219,61181,2,0,B|156:179|156:179|121:220|76:237,1,143.999992370606
442,260,61496,6,0,P|462:220|461:176,1,89.9999952316285
490,89,61654,2,0,P|451:60|396:54,1,89.9999952316285,8|0,0:0|0:0,0:0:0:0:
386,196,61812,2,0,B|382:155|399:126|399:126|359:113|337:88|336:61|336:61|318:44|293:38,1,215.999988555908
184,232,62128,6,0,P|141:237|71:299,1,89.9999952316285
12,235,62286,2,0,P|49:200|101:174,1,89.9999952316285,8|0,0:0|0:0,0:0:0:0:
227,161,62444,2,0,B|186:145|172:153|156:157|156:157|139:113|105:98|71:97|48:110|39:118|39:118|45:78|26:44,1,287.999984741211
205,73,62917,1,8,0:0:0:0:
420,56,63075,6,0,B|388:101|388:101|431:133|431:133|375:166|362:256,1,242.999979709626
216,316,63391,2,0,B|136:277|116:194|116:194|64:178|56:125,1,242.999979709626
205,73,63707,2,0,B|277:48|325:57|325:57|310:83|309:107|318:133|318:133|317:159|301:179,1,242.999979709626
216,316,64023,1,0,0:0:0:0:
9,309,64181,1,8,0:0:0:0:
118,135,64338,6,0,P|222:139|256:47,1,215.999981964112
174,70,64812,1,8,0:0:0:0:
225,279,64970,1,0,0:0:0:0:
379,129,65128,2,0,P|414:187|406:254,1,107.999990982056
339,345,65444,1,8,0:0:0:0:
176,284,65602,6,0,B|165:237|103:232|103:232|121:150|53:115,1,215.999988555908
205,73,65917,2,0,B|246:88|287:103|319:74|319:74|372:94|391:159,1,215.999988555908
250,256,66233,2,0,B|235:223|216:197|198:187|190:183|190:183|233:160|233:160|273:169|308:160,1,215.999988555908
457,133,66549,1,0,0:0:0:0:
323,228,66707,1,8,0:0:0:0:
288,50,66865,6,0,P|355:129|323:227,1,215.999981964112
253,150,67338,1,8,0:0:0:0:
457,133,67496,1,0,0:0:0:0:
369,350,67654,2,0,P|277:356|187:328,1,125.999989479065
171,235,67970,1,8,0:0:0:0:
150,74,68128,6,0,P|106:182|181:235,1,215.999981964112
377,321,68602,1,8,0:0:0:0:
262,129,68759,1,0,0:0:0:0:
244,352,68917,1,0,0:0:0:0:
389,185,69075,1,0,0:0:0:0:
171,235,69233,1,8,0:0:0:0:
377,321,69391,6,0,P|457:245|458:103,1,215.999981964112
332,57,69865,2,0,P|293:86|214:90,1,107.999990982056,8|0,0:0|0:0,0:0:0:0:
74,123,70181,2,0,P|113:152|192:156,1,107.999990982056
332,156,70496,1,8,0:0:0:0:
73,122,70654,6,0,P|106:214|227:217,1,215.999981964112
167,142,71128,1,8,0:0:0:0:
26,276,71286,1,0,0:0:0:0:
214,331,71444,2,0,P|289:320|338:285,1,107.999990982056
395,188,71759,1,8,0:0:0:0:
400,144,71838,1,8,0:0:0:0:
388,104,71917,1,8,0:0:0:0:
356,76,71996,1,8,0:0:0:0:
315,59,72075,6,0,P|281:50|245:50,1,71.9999961853028,6|0,0:0|0:0,0:0:0:0:
161,59,72390,1,0,0:0:0:0:
259,180,72548,2,0,P|239:150|212:128,1,71.9999961853028
162,60,72864,1,0,0:0:0:0:
153,227,73022,2,0,P|149:264|155:297,1,71.9999961853028
440,284,73496,6,0,P|460:240|456:196,1,71.9999961853028
400,40,73969,1,0,0:0:0:0:
456,105,74127,2,0,P|400:125|360:121,1,71.9999961853028
370,119,74364,1,0,0:0:0:0:
353,111,74443,1,0,0:0:0:0:
338,100,74522,1,0,0:0:0:0:
325,86,74601,1,0,0:0:0:0:
46,62,74917,6,0,P|37:106|48:142,1,71.9999961853028
122,101,75232,1,0,0:0:0:0:
118,16,75390,1,0,0:0:0:0:
194,55,75548,2,0,P|206:98|199:136,1,71.9999961853028
142,185,75864,2,0,P|89:184|34:227,1,116.999988445283
115,276,76180,2,0,P|165:285|200:282,1,71.9999961853028
225,208,76496,2,0,B|221:167|214:152|204:139|204:139|236:133|251:117,1,116.999988445283
394,50,76811,2,0,P|443:92|430:167,1,116.999988445283
282,290,77127,6,0,P|309:266|344:256,1,71.9999961853028
428,263,77443,2,0,P|403:315|351:341,1,116.999988445283
48,293,77917,1,0,0:0:0:0:
44,208,78075,1,0,0:0:0:0:
187,104,78232,2,0,B|159:87|159:87|141:133|102:146,1,116.999988445283
13,42,78548,2,0,P|48:43|77:63,1,71.9999961853028
240,324,79022,5,0,0:0:0:0:
324,284,79180,1,0,0:0:0:0:
251,239,79338,2,0,P|294:204|331:199,1,71.9999961853028
390,229,79653,1,0,0:0:0:0:
152,306,79969,2,0,P|117:308|83:295,1,71.9999961853028
44,221,80285,1,0,0:0:0:0:
129,225,80443,1,0,0:0:0:0:
288,52,80601,5,0,0:0:0:0:
380,72,80759,2,0,P|416:156|360:244,1,175.499982667924
360,220,81075,2,0,P|340:144|252:144,1,175.499982667924
256,164,81390,2,0,P|188:244|128:224,1,175.499982667924
120,208,81706,1,0,0:0:0:0:
112,180,81785,1,0,0:0:0:0:
112,144,81864,1,0,0:0:0:0:
124,104,81943,1,0,0:0:0:0:
156,68,82022,1,0,0:0:0:0:
204,52,82101,1,0,0:0:0:0:
264,48,82180,6,0,P|320:48|383:77,1,107.999990982056
440,100,82496,1,0,0:0:0:0:
264,168,82653,1,0,0:0:0:0:
209,168,82732,1,0,0:0:0:0:
160,187,82811,1,0,0:0:0:0:
88,220,82969,1,0,0:0:0:0:
264,288,83127,2,0,P|320:288|381:316,1,107.999990982056
376,216,83443,6,0,B|392:161|392:161|358:118,1,107.999990982056
136,168,83759,2,0,B|120:223|120:223|154:266,1,107.999990982056
432,224,84075,2,0,B|446:158|446:158|408:104,1,125.999989479065
80,160,84390,2,0,B|66:226|66:226|104:280,1,125.999989479065
120,288,84627,1,0,0:0:0:0:
144,296,84706,6,0,P|201:290|249:255,1,107.999990982056
122,107,85022,1,0,0:0:0:0:
242,263,85180,2,0,P|285:225|304:169,1,107.999990982056
122,107,85496,1,0,0:0:0:0:
303,179,85653,2,0,P|321:124|310:66,1,107.999990982056
300,51,85890,1,0,0:0:0:0:
280,32,85969,1,0,0:0:0:0:
122,107,86127,5,0,0:0:0:0:
122,279,86285,1,0,0:0:0:0:
271,193,86443,2,0,P|386:166|430:85,1,215.999981964112
304,72,86917,1,0,0:0:0:0:
263,57,86996,1,0,0:0:0:0:
220,51,87075,1,0,0:0:0:0:
177,51,87153,1,0,0:0:0:0:
134,56,87232,6,0,P|120:176|40:208,1,215.999981964112
224,326,87706,1,0,0:0:0:0:
250,324,87785,1,0,0:0:0:0:
274,313,87864,1,0,0:0:0:0:
459,200,88022,1,0,0:0:0:0:
269,96,88180,1,0,0:0:0:0:
274,313,88338,1,0,0:0:0:0:
110,313,88496,6,0,B|56:280|56:280|56:216,1,125.999989479065
402,71,88811,2,0,B|456:104|456:104|456:168,1,125.999989479065
156,280,89127,2,0,B|108:248|108:248|108:192,1,107.999990982056
356,104,89443,2,0,B|404:136|404:136|404:192,1,107.999990982056
401,213,89680,1,0,0:0:0:0:
389,238,89759,6,0,P|348:271|296:281,1,107.999990982056
176,277,90075,1,0,0:0:0:0:
250,72,90232,1,0,0:0:0:0:
275,81,90311,1,0,0:0:0:0:
296,97,90390,1,0,0:0:0:0:
176,277,90548,1,0,0:0:0:0:
81,83,90706,1,0,0:0:0:0:
296,97,90864,1,0,0:0:0:0:
311,119,90943,1,0,0:0:0:0:
321,143,91022,6,0,P|321:239|251:285,1,161.999986473084
253,281,91338,2,0,P|217:180|145:196,1,161.999986473084
167,197,91653,2,0,P|170:268|74:291,1,161.999986473084
56,288,91969,1,0,0:0:0:0:
32,256,92048,1,0,0:0:0:0:
24,216,92127,1,0,0:0:0:0:
24,176,92206,1,0,0:0:0:0:
40,136,92285,5,0,0:0:0:0:
200,56,92443,1,0,0:0:0:0:
120,96,92601,1,0,0:0:0:0:
280,96,92759,1,0,0:0:0:0:
200,56,92917,1,0,0:0:0:0:
352,144,93075,1,0,0:0:0:0:
201,228,93232,1,0,0:0:0:0:
351,319,93390,1,0,0:0:0:0:
351,319,93469,1,0,0:0:0:0:
351,319,93548,5,0,0:0:0:0:
320,240,93705,1,0,0:0:0:0:
351,319,93864,1,0,0:0:0:0:
408,200,94021,1,0,0:0:0:0:
351,319,94180,1,0,0:0:0:0:
328,144,94337,1,0,0:0:0:0:
351,319,94496,1,0,0:0:0:0:
416,104,94653,1,0,0:0:0:0:
256,56,94811,5,0,0:0:0:0:
256,328,94969,1,0,0:0:0:0:
232,96,95127,1,0,0:0:0:0:
280,288,95285,1,0,0:0:0:0:
208,136,95443,1,0,0:0:0:0:
304,248,95601,1,0,0:0:0:0:
184,176,95759,1,0,0:0:0:0:
328,208,95917,1,0,0:0:0:0:
272,120,96075,5,0,0:0:0:0:
240,264,96233,1,0,0:0:0:0:
312,144,96391,1,0,0:0:0:0:
200,240,96549,1,0,0:0:0:0:
352,168,96707,1,0,0:0:0:0:
160,216,96865,1,0,0:0:0:0:
392,192,97023,1,0,0:0:0:0:
120,192,97181,1,0,0:0:0:0:
208,40,97338,6,0,P|256:32|297:40,2,89.9999952316285
188,224,97811,2,0,P|268:265|343:200,1,179.999990463257
261,181,98285,1,0,0:0:0:0:
263,361,98443,1,0,0:0:0:0:
418,269,98601,1,0,0:0:0:0:
261,180,98759,2,0,P|160:177|122:242,1,179.999990463257
207,247,99232,5,0,0:0:0:0:
207,52,99390,1,0,0:0:0:0:
371,149,99548,1,0,0:0:0:0:
207,247,99706,1,0,0:0:0:0:
207,53,99864,2,0,P|324:29|369:150,1,269.999995994568
281,113,100338,2,0,P|199:205|318:299,1,269.999995994568
294,207,100811,2,0,P|336:184|408:199,1,89.9999952316285
414,311,101127,5,0,0:0:0:0:
357,339,101206,1,0,0:0:0:0:
294,336,101285,1,0,0:0:0:0:
237,307,101364,1,0,0:0:0:0:
205,252,101443,1,0,0:0:0:0:
212,189,101522,1,0,0:0:0:0:
248,137,101601,1,0,0:0:0:0:
276,80,101680,1,0,0:0:0:0:
264,18,101759,1,0,0:0:0:0:
0,40,101917,1,0,0:0:0:0:
320,212,102232,6,0,P|395:119|353:23,1,215.999981964112
292,110,102705,1,0,0:0:0:0:
496,184,102863,1,0,0:0:0:0:
330,322,103021,2,0,P|252:291|247:183,1,107.999990982056
182,121,103337,1,0,0:0:0:0:
40,41,103495,6,0,B|104:73|104:73|95:111|96:153|122:185|148:197|178:199,1,215.999988555908
265,108,103810,2,0,B|242:55|216:45|186:40|186:40|214:14|261:12|320:28,1,215.999988555908
328,160,104126,2,0,B|292:188|262:189|226:186|226:186|228:212|209:245,1,143.999992370606
83,341,104442,6,0,P|150:346|215:322,1,89.9999952316285
239,280,104600,2,0,P|175:262|119:284,1,89.9999952316285
9,294,104758,2,0,B|40:269|72:260|72:260|83:218|110:192|147:185|194:189,1,215.999988555908
373,34,105074,6,0,P|393:73|401:124,1,89.9999952316285
413,208,105232,2,0,P|359:199|292:118,1,89.9999952316285
296,40,105389,2,0,B|301:83|330:94|322:107|322:107|281:109|254:140|233:181|253:232|292:252|321:260,1,287.999984741211
297,40,105863,1,0,0:0:0:0:
21,33,106021,6,0,B|31:114|31:114|85:133|93:175|62:249,1,242.999979709626
212,335,106337,2,0,B|261:284|330:316|330:316|389:295|429:245,1,242.999979709626
352,96,106653,2,0,B|300:110|300:110|303:55|303:55|216:104|199:16|128:51,1,269.99997745514
31,261,106968,1,0,0:0:0:0:
212,335,107126,1,0,0:0:0:0:
184,141,107284,6,0,P|287:96|336:188,1,215.999981964112
211,335,107758,1,0,0:0:0:0:
414,271,107916,1,0,0:0:0:0:
214,206,108074,1,0,0:0:0:0:
338,376,108232,1,0,0:0:0:0:
338,166,108389,1,0,0:0:0:0:
212,335,108547,6,0,B|157:294|100:333|100:333|81:284|27:248,1,215.999988555908
43,112,108863,2,0,B|65:68|65:68|91:108|91:108|120:52|195:69,1,215.999988555908
144,206,109179,2,0,B|143:157|160:138|160:138|200:148|253:150|270:96|275:65|262:42,1,239.999987284343
414,271,109495,1,0,0:0:0:0:
228,211,109653,1,0,0:0:0:0:
373,80,109810,6,0,P|435:208|376:312,1,215.999981964112
228,211,110284,1,0,0:0:0:0:
194,19,110442,1,0,0:0:0:0:
44,143,110600,2,0,P|24:185|70:262,1,107.999990982056
178,328,110916,1,0,0:0:0:0:
448,56,111074,6,0,B|448:112|415:154|415:154|459:198|407:223,1,188.999984218598
228,211,111389,2,0,B|224:165|221:133|287:80|304:123|282:152,1,143.999992370606
43,348,111705,2,0,B|40:292|40:292|91:301|91:301|34:200|153:203|93:143|57:159,1,269.99997745514
228,48,112021,1,0,0:0:0:0:
228,211,112179,1,0,0:0:0:0:
368,130,112337,6,0,P|332:249|391:312,1,215.999981964112
431,215,112810,1,0,0:0:0:0:
228,211,112968,1,0,0:0:0:0:
334,34,113126,2,0,P|270:38|184:65,1,107.999990982056
68,83,113442,1,0,0:0:0:0:
191,340,113600,6,0,B|223:308|254:338|254:338|265:313|280:296|280:296|331:302|383:258,1,215.999988555908
327,130,113916,2,0,B|304:139|280:133|280:133|301:176|301:176|230:171|173:213,1,215.999988555908
102,323,114232,2,0,B|120:291|149:271|149:271|111:248|94:205|126:148,1,191.999989827474
440,56,114547,6,0,P|430:105|443:152,1,89.9999952316285
463,221,114705,2,0,P|422:250|374:258,1,89.9999952316285
356,115,114863,2,0,B|347:47|374:8|374:8|325:26|241:22,1,215.999988555908
43,211,115179,6,0,P|86:231|150:244,1,89.9999952316285
212,254,115337,2,0,P|211:208|183:157,1,89.9999952316285
180,30,115495,2,0,B|193:39|216:97|158:93|134:108|123:134|110:163|110:163|92:158|52:111|-4:151,1,287.999984741211
43,354,115968,1,0,0:0:0:0:
193,168,116126,6,0,B|252:133|268:90|257:33|257:33|302:26|356:56,1,242.999979709626
495,14,116442,2,0,B|458:42|419:40|419:40|405:86|380:120|328:118|328:118|325:130|315:145,1,242.999979709626
198,261,116758,2,0,B|230:240|264:210|264:210|314:232|365:221|382:187|382:187|414:166,1,242.999979709626
456,256,117074,1,0,0:0:0:0:
247,337,117232,1,0,0:0:0:0:
48,252,117389,6,0,P|41:149|122:84,1,215.999981964112
329,113,117863,1,0,0:0:0:0:
144,211,118021,1,0,0:0:0:0:
235,22,118179,1,0,0:0:0:0:
272,229,118337,1,0,0:0:0:0:
122,84,118495,1,0,0:0:0:0:
329,113,118653,6,0,B|410:136|431:148|431:148|401:200|393:251,1,215.999988555908
267,163,118968,2,0,B|225:100|190:88|190:88|157:131|95:146,1,215.999988555908
155,279,119284,2,0,B|194:236|254:255|254:255|286:234|318:232|333:206|342:174,1,215.999988555908
426,311,119600,1,0,0:0:0:0:
284,363,119758,1,0,0:0:0:0:
155,279,119916,6,0,P|150:168|247:115,1,215.999981964112
242,220,120389,1,0,0:0:0:0:
57,159,120547,1,0,0:0:0:0:
201,29,120705,2,0,P|270:38|338:128,1,107.999990982056
425,163,121021,1,0,0:0:0:0:
313,280,121179,6,0,P|229:251|135:333,1,215.999981964112
238,355,121653,1,0,0:0:0:0:
442,287,121810,1,0,0:0:0:0:
281,141,121968,2,0,P|229:135|156:159,1,107.999990982056
28,218,122284,1,0,0:0:0:0:
87,67,122442,6,0,P|195:80|287:148,1,215.999981964112
280,350,122916,1,0,0:0:0:0:
157,181,123074,1,0,0:0:0:0:
357,245,123232,1,0,0:0:0:0:
157,310,123389,1,0,0:0:0:0:
281,141,123547,1,0,0:0:0:0:
280,350,123705,6,0,B|440:373|465:250,1,215.999981964112
458,107,124179,1,0,0:0:0:0:
256,192,124258,12,0,126389,0:0:0:0:
104,80,134915,6,0,P|67:163|131:234,2,179.999990463257
151,151,135704,2,0,P|202:158|256:129,1,89.9999952316285
189,75,136020,1,0,0:0:0:0:
202,254,136178,2,0,P|293:247|337:336,1,179.999990463257
253,322,136652,1,0,0:0:0:0:
238,142,136810,1,0,0:0:0:0:
400,219,136968,1,0,0:0:0:0:
252,322,137126,2,0,P|211:337|167:332,1,89.9999952316285
116,264,137441,2,0,P|178:248|221:264,1,89.9999952316285
376,300,137757,6,0,P|403:248|394:206,1,89.9999952316285
400,219,138073,1,0,0:0:0:0:
136,84,138231,2,0,P|109:136|118:178,1,89.9999952316285
112,165,138547,1,0,0:0:0:0:
256,192,138704,2,0,P|315:144|290:41,1,179.999990463257
238,109,139178,1,0,0:0:0:0:
238,275,139336,5,0,0:0:0:0:
273,276,139415,1,0,0:0:0:0:
308,264,139494,1,0,0:0:0:0:
340,244,139573,1,0,0:0:0:0:
368,220,139652,1,0,0:0:0:0:
388,188,139731,1,0,0:0:0:0:
400,156,139810,1,0,0:0:0:0:
404,120,139889,1,0,0:0:0:0:
400,84,139968,2,0,P|288:48|232:60,1,134.999992847443
260,64,140283,6,0,P|169:98|108:38,1,179.999990463257
190,16,140757,1,0,0:0:0:0:
171,185,140915,1,0,0:0:0:0:
326,118,141073,1,0,0:0:0:0:
307,287,141231,2,0,P|211:316|158:264,1,179.999990463257
239,236,141704,1,0,0:0:0:0:
328,116,141862,1,0,0:0:0:0:
284,176,142020,1,0,0:0:0:0:
370,53,142178,2,0,P|320:41|271:67,1,89.9999952316285
224,93,142494,2,0,P|181:106|138:94,1,89.9999952316285
86,174,142810,6,0,P|90:230|126:270,1,89.9999952316285
108,256,143126,1,0,0:0:0:0:
430,206,143283,2,0,P|426:150|390:110,1,89.9999952316285
407,123,143599,1,0,0:0:0:0:
258,190,143757,2,0,P|179:156|172:65,1,179.999990463257
247,106,144231,1,0,0:0:0:0:
98,208,144389,1,0,0:0:0:0:
259,288,144547,2,0,P|337:289|398:268,1,134.999992847443
394,254,144862,2,0,P|395:176|374:115,1,134.999992847443
364,109,145178,6,0,P|263:100|197:58,1,179.999990463257
198,59,145651,1,0,0:0:0:0:
198,59,145809,1,0,0:0:0:0:
198,59,145967,1,0,0:0:0:0:
198,59,146125,1,0,0:0:0:0:
198,59,146283,1,0,0:0:0:0:
198,59,146441,6,0,P|163:114|86:136,1,134.999992847443
81,136,146756,2,0,P|60:185|75:274,1,134.999992847443
81,278,147072,2,0,P|141:273|206:291,1,89.9999952316285
258,298,147388,5,0,0:0:0:0:
328,257,147546,1,0,0:0:0:0:
258,216,147704,1,0,0:0:0:0:
81,136,148020,5,0,0:0:0:0:
75,54,148178,1,0,0:0:0:0:
148,91,148336,1,0,0:0:0:0:
417,92,148651,5,0,0:0:0:0:
497,75,148809,1,0,0:0:0:0:
470,152,148967,2,0,P|467:229|422:282,1,148.499996664047
330,320,149283,2,0,B|268:278|268:278|227:293|188:273,1,148.499996664047
263,202,149599,2,0,B|303:200|329:233|355:245|355:245|375:211|425:198,1,148.499996664047
391,135,149914,2,0,P|352:141|315:126,1,62.9999947395327
247,118,150230,6,0,P|193:151|177:210,1,125.999989479065
177,209,150704,1,0,0:0:0:0:
177,209,150862,1,0,0:0:0:0:
177,209,151020,1,0,0:0:0:0:
177,209,151178,1,0,0:0:0:0:
177,209,151335,1,0,0:0:0:0:
177,209,151493,6,0,P|123:177|44:196,1,134.999992847443
46,172,151809,2,0,P|54:100|104:55,1,134.999992847443
115,59,152125,2,0,P|179:106|236:91,1,134.999992847443
245,86,152441,1,0,0:0:0:0:
328,66,152599,1,0,0:0:0:0:
414,102,152756,6,0,P|423:189|371:259,1,179.999990463257
293,225,153230,2,0,P|304:310|384:342,1,179.999990463257
344,151,153704,2,0,P|279:137|216:178,1,134.999992847443
170,217,154020,6,0,B|123:214|76:233|76:233|86:166|52:133,1,188.999984218598
171,50,154335,2,0,B|279:39|279:39|317:70|398:61,1,215.999988555908
420,221,154651,2,0,B|355:234|341:303|341:303|277:278|216:336,1,242.999979709626
171,269,154967,1,0,0:0:0:0:
171,50,155125,1,0,0:0:0:0:
357,159,155283,6,0,P|331:254|212:242,1,215.999981964112
278,189,155756,1,0,0:0:0:0:
407,361,155914,1,0,0:0:0:0:
492,161,156072,2,0,P|477:106|412:72,1,107.999990982056
287,37,156388,1,0,0:0:0:0:
86,51,156546,6,0,B|70:79|100:118|100:118|56:170|99:265,1,215.999988555908
196,357,156862,2,0,B|227:339|235:299|235:299|209:232|209:232|228:194|215:157,1,215.999988555908
287,37,157178,2,0,B|310:47|331:54|331:54|351:104|309:161,1,143.999992370606
60,320,157493,6,0,B|69:273|69:273|44:208,1,89.9999952316285
20,148,157651,2,0,B|11:101|11:101|36:36,1,89.9999952316285
172,40,157809,2,0,B|152:73|111:75|111:75|92:109|125:145|125:145|109:173|130:208,1,215.999988555908
276,315,158125,6,0,B|300:306|342:317|342:317|370:297,1,89.9999952316285
403,223,158283,2,0,B|379:232|337:221|337:221|309:241,1,89.9999952316285
194,312,158441,2,0,B|195:278|241:238|241:238|242:197|261:172|261:172|293:163|322:136|322:136|359:153|387:152,1,287.999984741211
201,51,158914,1,0,0:0:0:0:
27,152,159072,6,0,B|60:181|58:223|58:223|123:238|148:298|148:298|177:294|204:308,1,242.999979709626
351,288,159388,2,0,B|387:264|428:263|428:263|424:223|426:183|426:183|387:196|321:192,1,242.999979709626
181,192,159704,2,0,B|147:183|126:166|126:166|111:130|86:96|86:96|99:51|139:34|175:34,1,242.999979709626
268,41,160020,1,0,0:0:0:0:
455,149,160178,1,0,0:0:0:0:
267,257,160335,6,0,P|171:293|110:212,1,215.999981964112
217,34,160809,1,0,0:0:0:0:
23,115,160967,1,0,0:0:0:0:
228,163,161125,1,0,0:0:0:0:
90,5,161283,1,0,0:0:0:0:
110,214,161441,1,0,0:0:0:0:
217,34,161599,6,0,B|356:71|356:71|368:112|397:141,1,215.999988555908
361,275,161914,2,0,B|338:285|312:274|312:274|320:321|320:321|245:297|188:330,1,215.999988555908
60,341,162230,2,0,B|34:248|34:248|80:221|91:147,1,215.999988555908
168,70,162546,1,0,0:0:0:0:
335,204,162704,1,0,0:0:0:0:
133,281,162862,6,0,P|231:330|323:260,1,215.999981964112
313,279,163335,1,0,0:0:0:0:
414,153,163493,1,0,0:0:0:0:
254,126,163651,2,0,P|200:147|151:192,1,107.999990982056
32,252,163967,1,0,0:0:0:0:
36,88,164125,6,0,B|84:47|84:47|169:75|213:37|195:16,1,188.999984218598
348,136,164441,2,0,B|319:123|283:156|283:156|211:171|226:209,1,143.999992370606
61,331,164756,2,0,B|117:293|185:334|185:334|233:286|292:296|259:338,1,242.999979709626
505,137,165072,1,0,0:0:0:0:
338,273,165230,1,0,0:0:0:0:
303,58,165388,6,0,P|228:92|220:228,1,215.999981964112
304,164,165862,1,0,0:0:0:0:
115,57,166020,1,0,0:0:0:0:
118,273,166178,2,0,P|174:317|234:305,1,107.999990982056
360,268,166493,1,0,0:0:0:0:
303,58,166651,6,0,B|266:48|266:48|252:79|224:104|224:104|162:78|107:110,1,215.999988555908
32,220,166967,2,0,B|100:243|150:233|150:233|211:243|230:313,1,215.999988555908
357,342,167283,2,0,B|389:320|428:328|428:328|447:285|416:229,1,143.999992370606
118,102,167599,6,0,B|133:138|120:166|120:166|152:178,1,89.9999952316285
57,201,167756,2,0,B|42:165|54:137|54:137|23:125,1,89.9999952316285
132,23,167914,2,0,B|177:27|199:48|199:48|182:114|223:161|223:161|209:207,1,215.999988555908
400,208,168230,6,0,P|447:164|452:124,1,89.9999952316285
380,84,168388,2,0,P|333:128|328:168,1,89.9999952316285
366,291,168546,2,0,B|327:230|327:230|234:223|235:138|247:93|283:56,1,287.999984741211
57,50,169020,1,0,0:0:0:0:
151,244,169178,6,0,B|201:278|217:332|217:332|262:373|376:364,1,242.999979709626
453,249,169493,2,0,B|444:208|458:169|458:169|417:154|377:170|377:170|339:149|332:91,1,242.999979709626
185,38,169809,2,0,B|111:48|97:111|97:111|172:113|221:181,1,242.999979709626
386,273,170125,1,0,0:0:0:0:
394,57,170283,1,0,0:0:0:0:
203,159,170441,6,0,P|160:259|235:319,1,215.999981964112
241,235,170914,1,0,0:0:0:0:
53,342,171072,1,0,0:0:0:0:
53,126,171230,2,0,P|111:64|202:73,1,107.999990982056
292,39,171546,1,0,0:0:0:0:
430,165,171704,6,0,B|427:184|431:203|431:203|396:202|396:202|407:293|307:334,1,215.999988555908
189,334,172020,2,0,B|161:299|166:265|166:265|197:252|197:252|201:188|281:158,1,215.999988555908
370,80,172335,2,0,B|291:80|236:34|236:34|211:61|211:61|187:49|163:57,1,215.999988555908
72,84,172651,1,0,0:0:0:0:
72,278,172809,1,0,0:0:0:0:
240,181,172967,6,0,P|343:189|405:105,1,215.999981964112
300,94,173441,1,0,0:0:0:0:
299,288,173599,1,0,0:0:0:0:
468,191,173756,2,0,P|496:140|492:77,1,107.999990982056
300,94,174072,1,0,0:0:0:0:
110,89,174230,6,0,B|77:98|77:98|105:156|85:221|85:221|53:230,1,188.999984218598
149,341,174546,2,0,B|182:325|182:325|221:353|305:331,1,143.999992370606
444,112,174862,2,0,B|387:90|387:90|322:106|278:58|278:58|255:46|216:60,1,242.999979709626
110,89,175178,1,0,0:0:0:0:
109,305,175335,1,0,0:0:0:0:
297,197,175493,6,0,P|332:98|263:16,1,215.999981964112
229,116,175967,1,0,0:0:0:0:
442,83,176125,1,0,0:0:0:0:
365,285,176283,2,0,P|317:317|248:318,1,107.999990982056
109,305,176599,1,0,0:0:0:0:
79,121,176756,6,0,B|115:77|172:73|172:73|211:30|278:30,1,215.999988555908
392,107,177072,2,0,B|416:138|416:138|384:148|384:148|397:205|361:243|361:243|368:270|357:300,1,215.999988555908
217,303,177388,2,0,B|183:315|145:299|145:299|166:244|139:212,1,143.999992370606
151,39,177704,6,0,P|174:71|234:95,1,89.9999952316285
230,183,177862,2,0,P|270:201|297:237,1,89.9999952316285
155,203,178020,2,0,B|146:179|154:156|154:156|81:115|69:60|69:60|46:67|23:64,1,215.999988555908
117,326,178335,6,0,P|181:339|226:334,1,89.9999952316285
249,258,178493,2,0,P|204:263|159:259,1,89.9999952316285
29,325,178651,2,0,B|42:286|68:265|68:265|72:204|123:179|123:179|200:166|234:185,1,287.999984741211
117,326,179125,1,0,0:0:0:0:
40,58,179283,6,0,B|76:60|116:38|116:38|159:42|195:62|195:62|236:50|282:51,1,242.999979709626
411,140,179599,2,0,B|387:203|413:258|413:258|361:294|369:366|332:303,1,242.999979709626
236,180,179914,2,0,B|184:136|127:123|127:123|75:145|0:137,1,242.999979709626
0,246,180230,1,0,0:0:0:0:
172,332,180388,1,0,0:0:0:0:
348,248,180546,6,0,P|365:138|282:75,1,215.999981964112
268,179,181020,1,0,0:0:0:0:
473,112,181178,1,0,0:0:0:0:
429,324,181335,2,0,P|396:354|300:320,1,107.999990982056
172,332,181651,1,0,0:0:0:0:
43,195,181809,6,0,B|71:166|91:100|91:100|151:95|167:28|193:94,1,215.999988555908
132,214,182125,2,0,B|102:272|51:280|51:280|48:344|118:357,1,215.999988555908
257,342,182441,2,0,B|294:327|328:328|328:328|309:300|309:300|377:288|405:203,1,215.999988555908
388,127,182756,1,0,0:0:0:0:
193,31,182914,1,0,0:0:0:0:
208,246,183072,6,0,P|310:299|380:210,1,215.999981964112
313,39,183546,1,0,0:0:0:0:
480,164,183704,1,0,0:0:0:0:
270,164,183862,1,0,0:0:0:0:
442,40,184020,1,0,0:0:0:0:
375,240,184178,1,0,0:0:0:0:
313,39,184335,6,0,P|207:44|132:122,1,215.999981964112
133,328,184809,1,0,0:0:0:0:
10,159,184967,1,0,0:0:0:0:
210,223,185125,1,0,0:0:0:0:
10,288,185283,1,0,0:0:0:0:
134,119,185441,1,0,0:0:0:0:
133,328,185599,6,0,P|241:350|332:263,1,215.999981964112
492,169,186072,1,0,0:0:0:0:
282,164,186230,1,0,0:0:0:0:
449,291,186388,1,0,0:0:0:0:
387,89,186546,1,0,0:0:0:0:
320,290,186704,1,0,0:0:0:0:
387,89,186862,6,0,P|286:38|150:97,1,215.999981964112
47,208,187335,1,0,0:0:0:0:
256,192,187414,12,0,189546,0:0:0:0:
