osu file format v9

[General]
AudioFilename: Lily-Chloe.mp3
AudioLeadIn: 0
PreviewTime: 126755
Countdown: 1
SampleSet: Normal
StackLeniency: 0.6
Mode: 0
LetterboxInBreaks: 0

[Editor]
Bookmarks: 80640
DistanceSpacing: 1
BeatDivisor: 4
GridSize: 8

[Metadata]
Title:Chloe
Artist:Lily
Creator:Kochiya Sanae
Version:Hard
Source:seleP
Tags:SnowWhite Neethime hvick225 Vocaloid

[Difficulty]
HPDrainRate:6
CircleSize:4
OverallDifficulty:6
ApproachRate:7
SliderMultiplier:1.6
SliderTickRate:2

[Events]
//Background and Video events
0,0,"BG.jpg"
//Break Periods
2,103923,110504
2,174964,181544
//Storyboard Layer 0 (Background)
//Storyboard Layer 1 (Fail)
//Storyboard Layer 2 (Pass)
//Storyboard Layer 3 (Foreground)
//Storyboard Sound Samples
//Background Colour Transformations
3,100,163,162,255

[TimingPoints]
44,480,4,2,1,100,1,0
7724,-100,4,1,1,78,0,0
15404,-100,4,1,1,78,0,1
15884,-100,4,1,1,78,0,1
17324,-100,4,1,1,78,0,1
17804,-100,4,1,1,78,0,1
19244,-100,4,1,1,78,0,1
19724,-100,4,1,1,78,0,1
23084,-100,4,1,1,78,0,1
23564,-100,4,1,1,78,0,1
25004,-100,4,1,1,78,0,1
25484,-100,4,1,1,78,0,1
26924,-100,4,1,1,78,0,1
27404,-100,4,1,1,78,0,1
28844,-100,4,1,1,78,0,1
29804,-100,4,1,1,72,0,1
30764,-100,4,1,1,72,0,0
32684,-100,4,1,1,72,0,0
32684,-100,4,1,1,72,0,0
63415,-100,4,1,1,72,0,0
80675,-100,4,1,1,72,0,1
87404,-100,4,1,1,72,0,1
88364,-100,4,1,1,72,0,1
96044,-100,4,1,1,72,0,0
111404,-100,4,2,1,100,0,0
126764,-100,4,1,1,72,0,0
159404,-100,4,2,1,100,0,0
167084,-100,4,2,1,100,0,0
173084,-100,4,2,1,100,0,0
182444,-100,4,1,1,72,0,0
190124,-100,4,1,1,72,0,0

[Colours]
Combo1 : 252,153,20
Combo2 : 202,11,11
Combo3 : 231,216,114

[HitObjects]
112,88,7724,2,0,B|296:88,1,160,0|8
352,192,8564,1,0
352,192,8684,2,0,B|184:192,1,160,0|8
88,304,9644,6,0,B|88:128,1,160,0|8
136,80,10364,2,0,B|200:64,1,40
216,64,10604,2,0,B|216:240,1,160,0|8
216,224,11324,1,0
296,224,11564,5,0
368,264,11804,1,0
368,264,12044,1,8
336,336,12284,1,8
336,336,12404,2,0,B|296:352|248:328,1,80,0|8
184,336,12884,2,0,B|40:336,1,120,8|8
64,256,13484,5,0
112,192,13724,1,0
56,136,13964,1,8
112,80,14204,1,8
176,128,14444,2,0,B|232:72,1,80
360,56,14924,2,0,B|304:112,1,80,8|8
304,208,15404,6,0,B|400:264|480:192,1,160,2|8
384,152,16124,2,0,B|288:96|208:168,1,160,2|8
232,232,16844,2,8,B|232:304,3,40,8|0|8|8
232,312,17324,6,0,B|400:312,1,160,2|8
336,256,18044,2,0,B|168:256,1,160,2|0
216,184,18764,1,8
144,152,19004,1,0
216,112,19244,6,0,B|272:136|320:104,2,80,2|0|8
264,48,19964,2,0,B|320:40|368:64,2,80,2|0|0
304,120,20684,2,0,B|384:152,1,80,8|0
408,280,21164,6,0,B|336:248,1,80,2|0
272,352,21644,1,8
184,256,21884,1,0
184,120,22124,6,0,B|280:120,1,80,2|0
344,120,22604,1,8
344,120,22844,1,0
264,120,23084,6,0,B|192:80|104:128,1,160,2|8
168,176,23804,2,0,B|152:264|224:320,1,160,2|0
304,320,24524,1,8
304,320,24764,1,0
392,320,25004,6,0,B|392:216,1,80,2|0
472,240,25484,2,0,B|472:128,1,80,8|2
424,96,25964,2,0,B|328:96,1,80
280,144,26444,2,0,B|216:144,3,40,8|0|0|0
200,144,26924,6,0,B|112:144,2,80,2|0|8
128,232,27644,2,0,B|72:304,2,80,2|0|0
160,336,28364,2,0,B|248:352|328:280,1,160,8|2
312,216,29084,1,0
392,224,29324,1,8
360,152,29564,1,2
312,216,29804,2,0,B|216:224|176:136,2,160,0|8|4
312,136,31004,5,0
280,64,31244,1,0
232,128,31484,1,0
128,248,31964,1,0
144,328,32204,1,0
208,280,32444,1,0
208,280,32684,6,0,B|288:328|392:256,1,160,2|8
328,200,33404,1,2
328,200,33524,2,0,B|280:136|208:224|156:122,1,200,0|8
157,124,34364,1,0
120,200,34604,6,0,B|72:224|24:192,2,80,0|0|8
160,272,35324,1,0
120,344,35564,2,0,B|168:360|224:336,3,80,0|0|8|0
280,344,36524,6,0,B|360:304|360:200,1,160,2|8
280,240,37244,1,2
280,240,37364,2,0,B|264:312|328:368|416:304,1,200,0|8
448,240,38204,1,0
384,192,38444,2,0,B|416:144|368:88,1,80
320,152,38924,2,0,B|288:200|336:256,1,80,8|0
320,304,39404,2,0,B|248:304,3,40
240,304,39884,6,0,B|160:320|80:256,1,160,8|2
88,184,40604,1,0
88,104,40844,2,0,B|128:112|152:152,1,80,8|2
176,184,41204,2,0,B|272:200|336:80,1,200,0|8
416,80,42044,1,0
456,144,42284,2,0,B|488:216,1,80
408,232,42764,2,0,B|344:296,1,80,8|0
392,360,43244,1,0
392,360,43484,2,0,B|296:360,2,80,0|8|0
352,288,44204,6,0,B|272:248|184:296,1,160,2|8
128,240,44924,1,0
128,200,45044,2,0,B|80:128|136:64|226:114,1,200,0|8
222,112,45884,5,0
304,136,46124,1,0
240,184,46364,1,0
224,112,46604,5,8
344,144,46844,1,0
248,240,47084,2,8,B|296:248|312:216,3,40
327,246,47564,2,0,B|320:304|360:328|415:294,1,120,8|0
424,280,48044,6,0,B|496:208|416:120,1,160,0|8
384,200,48764,1,0
344,272,49004,2,0,B|272:200|352:112,1,160,0|8
408,88,49724,1,0
336,56,49964,2,0,B|256:-16|168:72,1,160,0|8
256,104,50684,2,0,B|176:176|88:88,1,160,0|8
168,208,51404,1,8
111,108,51644,1,0
232,48,51884,6,0,B|320:48|376:128,1,160,0|8
320,184,52604,2,0,B|368:264|496:248,1,160
456,328,53324,2,0,B|352:328,1,80,8|0
296,328,53804,2,0,B|192:328,1,80
136,328,54284,2,0,B|136:232,2,80,8|0|0
96,328,54884,2,0,B|56:328,2,40
72,296,55244,6,0,B|40:200|104:120,1,160,8|4
440,88,56204,2,0,B|472:184|408:264,1,160,8|4
368,184,56924,2,0,B|336:240|280:224,1,80,0|8
248,176,57404,1,0
248,176,57644,1,4
240,96,57884,5,0
320,200,58124,1,8
224,288,58364,1,4
224,288,58484,2,0,B|376:288,1,120
472,288,59084,1,8
472,288,59324,1,0
472,288,59564,6,0,B|520:200|456:112,1,160,4|8
352,192,60284,2,0,B|304:128|192:120,1,160,4|0
240,248,61004,2,0,B|192:224|144:264|168:320,1,120,12|0
192,328,61484,2,0,B|256:368|288:280|336:344,2,120,4|0|4
256,192,63404,12,0,64844
120,104,65324,6,0,B|56:200|128:280,1,160,2|8
168,304,66044,2,0,B|232:320|272:320,2,80,2|0|0
216,240,66764,1,8
216,240,67004,1,0
296,240,67244,6,0,B|392:240,1,80,2|0
296,160,67724,1,8
376,160,67964,1,2
296,80,68204,2,0,B|376:80,2,80,0|0|8
216,80,68924,1,0
136,80,69164,6,0,B|96:96|56:80,2,80,2|0|8
216,80,69884,1,2
296,80,70124,1,0
320,160,70364,1,0
320,160,70604,6,0,B|392:160|440:232,1,120,8|0
424,248,71084,2,0,B|424:304,3,40,2|0|0|0
384,288,71564,2,0,B|336:288,3,40,8|0|2|0
320,320,72044,6,0,B|232:352|152:312,2,160,0|8|2
264,200,73484,2,0,B|352:168|432:208,2,160,8|2|8
176,200,74684,1,0
128,136,74924,6,0,B|64:192,1,80,2|0
104,104,75404,2,0,B|184:32,1,80,8|0
240,144,75884,2,0,B|320:96|416:160,1,160,2|8
304,280,76844,6,0,B|352:192,2,80,2|0|8
256,216,77564,2,0,B|208:288,2,80,0|2|0
176,216,78284,1,8
131,282,78524,1,0
72,224,78764,5,2
112,104,79004,1,0
264,104,79244,1,8
328,224,79484,1,0
328,224,79724,2,0,B|400:256|448:184,2,120,2|0|0
312,304,80684,6,0,B|208:304,2,80,2|0|8
152,224,81404,2,0,B|264:224,2,80,2|0|0
296,144,82124,1,8
232,88,82364,1,0
192,160,82604,6,0,C|152:224|200:272,1,120,2|0
181,257,83084,2,0,L|280:256,1,80,8|2
344,256,83564,1,0
472,256,83804,1,0
344,256,84044,1,8
472,256,84284,1,0
472,176,84524,6,0,L|472:72,1,80,2|0
432,32,85004,1,8
392,96,85244,2,0,B|304:144|208:80,1,160,2|0
160,96,85964,2,0,B|112:96,2,40,8|0|0
160,176,86444,5,2
264,288,86684,1,0
368,176,86924,1,8
264,72,87164,1,2
160,176,87404,2,0,B|272:176,1,80
368,176,87884,2,0,B|264:176,1,80
264,288,88364,6,0,B|336:336|432:272,1,160,2|8
264,288,89084,2,0,B|192:336|96:272,1,160,2|0
264,288,89804,1,8
264,208,90044,1,0
184,208,90284,6,0,B|96:208,1,80,2|0
64,80,90764,2,0,B|160:32,1,80,8|2
288,120,91244,2,0,B|392:120,1,80
328,304,91724,2,0,B|328:216,1,80,8|0
152,200,92204,6,0,B|80:280|160:360,1,160,2|8
152,200,92924,2,0,B|80:128|160:40,1,160,2|0
272,200,93644,5,12
152,200,93884,1,4
272,200,94124,1,6
360,104,94364,1,4
272,200,94604,1,12
368,296,94844,1,6
368,216,95084,6,0,B|368:168,1,40,8|0
312,88,95444,2,0,B|312:128,1,40,0|8
232,112,95804,1,0
152,96,96044,5,2
96,152,96284,1,0
152,208,96524,1,8
96,272,96764,2,0,B|168:352|328:336,1,240,2|8
360,264,97724,1,8
432,296,97964,1,2
432,216,98204,2,0,B|464:112|360:72,1,160,0|2
296,80,98924,1,0
216,80,99164,1,0
144,120,99404,1,8
144,120,99644,1,8
200,184,99884,6,0,B|288:176|360:256,1,160,2|0
344,320,100604,1,2
344,320,100844,2,0,B|248:320,1,80,0|0
184,320,101324,1,8
104,320,101564,1,8
64,248,101804,1,2
64,248,102044,2,0,B|80:184|168:208|200:144,1,160,0|2
264,120,102764,6,0,B|368:64,1,80,8|0
304,248,103244,2,0,B|216:296,2,80,0|8|4
128,104,111404,6,2,B|184:64|248:152|296:96,1,160,0|8
200,248,112364,2,2,B|256:208|320:296|368:240,1,160,2|10
96,320,113324,6,2,B|56:264|144:200|88:152,1,160,2|10
256,208,114284,2,2,B|216:152|304:88|248:40,1,160,2|10
448,264,115244,6,2,B|384:320|272:264,1,160,2|10
216,272,115964,1,8
176,344,116204,2,2,B|120:296|152:184,1,160,2|10
168,120,116924,1,8
88,120,117164,6,2,B|88:56|160:16|224:56,1,160,2|10
264,104,117884,1,8
264,184,118124,2,2,B|312:152|352:240|424:184,1,160,2|10
376,120,118844,1,8
312,280,119084,6,2,B|384:304|432:256,2,120,2|2|10
184,136,120044,2,2,B|112:112|64:160,2,120,2|2|10
256,248,121004,2,2,B|216:280|256:368,2,120,2|2|10
256,136,121964,2,2,B|288:56|256:16,2,120,2|2|10
400,96,122924,6,2,B|472:168,1,80
384,192,123404,2,0,B|464:264,1,80,0|8
376,288,123884,2,2,B|312:360,1,80
264,296,124364,2,0,B|192:344,1,80,8|8
144,280,124844,5,2
160,200,125084,1,2
216,248,125324,5,2
248,96,125564,1,4
288,216,125804,5,2
344,272,126044,1,2
360,192,126284,5,10
272,64,126524,1,12
352,56,126764,6,0,B|456:56|448:176,1,160,2|8
448,240,127484,1,2
392,296,127724,2,0,B|328:336|240:320,1,120
240,320,128204,2,0,B|176:256,1,80,8|0
240,320,128684,2,0,B|296:224,1,80
240,320,129164,2,0,B|136:320,1,80,8|0
240,320,129644,2,0,B|344:320,3,80,0|0|8|0
400,320,130604,6,0,B|480:240|376:160,1,160,2|8
360,248,131324,1,2
360,248,131444,2,0,B|256:208,1,80
288,176,131804,2,0,B|352:160,2,40,0|0|8
272,96,132284,6,0,B|232:88|176:152,1,80
136,248,132764,1,0
288,304,133004,1,8
256,176,133244,1,0
120,80,133484,2,0,B|96:48,3,40
72,96,133964,2,0,B|88:176|168:224,1,160
256,192,134684,5,0
256,192,134924,1,8
256,192,135164,2,0,B|328:240|408:192,1,160,2|0
392,312,135884,2,0,B|296:312,1,80,8|0
160,312,136364,6,0,B|240:352,1,80
104,176,136844,2,0,B|128:80,1,80,8|0
104,176,137324,2,0,B|120:280,1,80,8|0
304,96,137804,1,8
224,208,138044,1,0
376,240,138284,6,0,B|336:320|224:312,1,160,2|8
128,304,139004,1,2
128,304,139244,2,0,B|64:264|72:216,2,80,0|0|8
160,232,139964,1,0
136,160,140204,2,0,B|240:152|232:264,1,160,0|8
160,232,140924,1,0
160,232,141164,2,0,B|232:208|208:128|296:96,1,160,0|8
262,113,141884,1,8
344,112,142124,6,0,B|432:112,1,80
424,192,142604,1,8
424,192,142844,1,0
344,192,143084,2,0,B|344:296,1,80
424,352,143564,2,0,B|424:256,1,80,8|8
424,192,144044,2,0,B|424:104|336:48,1,160,0|8
349,57,144764,1,0
272,56,145004,2,0,B|176:56,1,80
344,136,145484,2,0,B|240:136,1,80,8|8
224,136,145844,1,0
184,136,145964,6,0,B|184:224,1,80
296,232,146444,2,0,B|296:336,1,80,8|0
120,328,146924,2,0,B|216:328,3,80,0|0|8|8
280,328,147884,2,0,B|384:336|424:216,1,160,0|8
328,240,148604,2,0,B|344:336|448:352,1,160
432,272,149324,5,8
432,192,149564,1,8
344,112,149804,2,0,B|344:216,1,80
256,112,150284,1,8
344,112,150524,1,0
256,272,150764,2,0,B|256:192,1,80
256,192,151244,5,8
152,248,151484,1,8
152,248,151724,1,0
256,288,151964,1,0
256,288,152204,2,0,B|280:328|336:336,2,80,8|0|0
256,288,152924,1,0
384,176,153164,6,0,B|384:120|360:88,1,80,8|8
163,249,153644,2,0,B|160:304|208:352,1,80
384,176,154124,2,0,B|392:224|352:272,1,80,8|0
168,176,154604,2,0,B|144:216|168:280,2,80,0|0|8
256,128,155324,1,8
256,128,155564,2,0,B|288:192|240:248,2,120
80,64,157484,6,2,B|176:48|232:200|136:272,1,280
176,296,158444,2,0,B|264:328|328:280,2,160,2|2|2
160,216,159644,5,0
224,88,159884,1,8
312,200,160124,1,0
160,216,160364,6,0,B|248:256,2,80,2|0|8
168,296,161084,1,0
240,320,161324,2,0,B|352:320,1,80
328,240,161804,2,0,B|424:280,1,80,8|0
384,352,162284,2,0,B|496:336|464:208,1,160,2|8
464,160,163004,1,0
464,80,163244,5,0
304,80,163724,6,0,B|208:80,1,80,10|0
64,80,164444,2,0,B|160:80,1,80,2|8
152,240,165164,6,0,B|256:240,2,80,2|0|8
192,312,165884,1,0
272,336,166124,1,2
352,312,166364,1,0
432,336,166604,1,8
432,256,166844,6,0,B|480:200|480:208,1,40
472,184,167084,2,0,B|480:104|424:32,1,160,2|0
384,112,167804,2,0,B|312:80|224:104,1,160
264,176,168524,1,2
192,208,168764,1,2
120,176,169004,1,2
48,208,169244,2,0,B|48:304,1,80,0|0
128,288,169724,2,0,B|208:320|288:280,2,160,0|2|2
128,248,170804,1,2
128,208,170924,6,0,B|224:160,1,80,2|0
232,248,171404,2,0,B|304:296,1,80,2|0
368,256,171884,1,2
368,256,172124,1,0
448,264,172364,2,0,B|448:192|384:184,2,80,2|0|2
400,328,173084,2,0,B|360:352,5,40
344,296,173804,2,0,B|264:328|176:280,1,160,0|0
192,288,174764,1,4
128,88,182444,6,0,B|216:32|304:112,1,160,2|8
216,168,183164,2,0,B|296:224|376:160,1,160,2|0
448,160,183884,2,0,B|448:112,2,40,8|0|0
448,232,184364,2,0,B|448:304,2,40
376,264,184844,2,0,B|376:320,2,40,8|0|0
304,288,185324,2,0,B|304:352,2,40
232,312,185804,2,0,B|232:368,3,40,8|0|0|0
192,352,186284,6,0,B|96:336|96:224,1,160,2|8
32,288,187004,2,0,B|63:309|88:360,2,80,2|0|0
64,216,187724,2,0,B|32:136|72:48,2,160,8|0|8
128,168,188924,1,0
192,216,189164,2,0,B|192:272,2,40,0|0|0
272,208,189644,2,0,B|272:152,3,40,8|0|0|0
272,128,190124,6,0,B|432:128,1,160,2|8
272,208,190844,2,0,B|176:208,2,80,2|0|0
280,280,191564,2,0,B|376:224|296:128,1,160,8|2
232,160,192284,1,0
176,216,192524,1,8
200,296,192764,2,0,B|304:304,1,80,2|0
304,304,193124,1,0
328,304,193244,2,0,B|360:208,2,80,0|8|0
400,312,193964,6,0,B|440:232|400:144,1,160,2|8
488,152,194684,2,0,B|448:192|496:240,2,80,2|0|0
416,104,195404,2,0,B|384:64,1,40,8|0
352,88,195644,2,0,B|320:56,1,40
296,88,195884,6,0,B|200:88,1,80
144,224,196364,2,0,B|248:200,1,80,8|0
352,304,196844,2,0,B|264:256,1,80
168,344,197324,2,0,B|216:344,3,40,8|0|0|0
248,344,197804,6,0,B|352:344,1,80,2|0
408,344,198284,1,8
408,264,198524,2,0,B|304:264,1,80,2|0
248,264,199004,1,0
248,184,199244,2,0,B|248:128,1,40,8|0
288,152,199484,2,0,B|320:104,1,40
352,112,199724,6,0,B|408:104|416:48,1,80,2|0
336,40,200204,1,8
280,96,200444,2,0,B|272:160|328:184,1,80,2|0
376,192,200924,1,0
376,272,201164,2,0,B|376:312,3,40,8|0|0|0
336,320,201644,6,0,B|224:320,2,80,2|0|8
256,192,202364,2,0,B|152:192,2,80,2|0|0
256,56,203084,2,0,B|256:96,2,40,8|0|0
336,56,203564,6,0,B|400:56,3,40
376,96,204044,2,0,B|328:96,3,40
336,136,204524,2,0,B|328:224|400:288,2,160
