osu file format v12

[General]
AudioFilename: 13.ALICE 2 ALICE.mp3
AudioLeadIn: 0
PreviewTime: 94247
Countdown: 1
SampleSet: Normal
StackLeniency: 0.6
Mode: 0
LetterboxInBreaks: 1
WidescreenStoryboard: 0

[Editor]
DistanceSpacing: 0.7
BeatDivisor: 4
GridSize: 8

[Metadata]
Title:ALICE 2 ALICE
TitleUnicode:ALICE 2 ALICE
Artist:Lily
ArtistUnicode:Lily
Creator:SleepyShyy
Version:Insane
Source:
Tags:
BeatmapID:356401
BeatmapSetID:143242

[Difficulty]
HPDrainRate:8
CircleSize:4
OverallDifficulty:6
ApproachRate:9
SliderMultiplier:1.4
SliderTickRate:1

[Events]
//Background and Video events
0,0,"wallpaper-2334565.jpg",0,0
//Break Periods
2,18857,27940
2,80975,88646
//Storyboard Layer 0 (Background)
//Storyboard Layer 1 (Fail)
//Storyboard Layer 2 (Pass)
//Storyboard Layer 3 (Foreground)
//Storyboard Sound Samples
//Background Colour Transformations
3,100,163,162,255

[TimingPoints]
304.85767131776,352.941176470588,4,1,0,100,1,0
3128,-100,4,1,0,100,0,0
28540,-50,4,1,0,100,0,0
55363,-100,4,1,0,100,0,0
89246,-66.6666666666667,4,1,0,100,0,0
94893,-100,4,1,0,100,0,1
125951,-50,4,1,0,100,0,1
140069,-100,4,1,0,100,0,0

[HitObjects]
256,12,304,1,0,0:0:0:0:
129,65,657,1,0,0:0:0:0:
76,191,1010,1,0,0:0:0:0:
129,318,1363,1,0,0:0:0:0:
255,371,1716,5,0,0:0:0:0:
382,318,2069,1,0,0:0:0:0:
435,192,2422,1,0,0:0:0:0:
382,65,2775,1,0,0:0:0:0:
256,96,3128,6,0,L|192:32,1,70
160,192,3481,2,0,L|96:256,1,70
256,288,3834,2,0,L|320:352,1,70
352,192,4187,2,0,L|416:128,1,70
352,0,4540,5,0,0:0:0:0:
256,96,4893,1,0,0:0:0:0:
352,192,5246,1,0,0:0:0:0:
256,288,5598,1,0,0:0:0:0:
302,56,5951,5,0,0:0:0:0:
256,64,6040,1,0,0:0:0:0:
214,81,6128,1,0,0:0:0:0:
179,110,6216,1,0,0:0:0:0:
151,146,6304,1,0,0:0:0:0:
134,188,6393,1,0,0:0:0:0:
131,233,6481,1,0,0:0:0:0:
210,328,6657,5,0,0:0:0:0:
254,316,6746,1,0,0:0:0:0:
296,300,6834,1,0,0:0:0:0:
330,270,6922,1,0,0:0:0:0:
358,235,7010,1,0,0:0:0:0:
377,193,7098,1,0,0:0:0:0:
378,147,7187,1,0,0:0:0:0:
384,64,7363,5,0,0:0:0:0:
256,192,7716,1,0,0:0:0:0:
128,320,8069,1,0,0:0:0:0:
256,192,8422,1,0,0:0:0:0:
384,64,8775,5,0,0:0:0:0:
336,53,8863,1,0,0:0:0:0:
287,46,8951,1,0,0:0:0:0:
237,44,9040,1,0,0:0:0:0:
188,48,9128,1,0,0:0:0:0:
140,58,9216,1,0,0:0:0:0:
95,77,9304,1,0,0:0:0:0:
23,144,9481,5,0,0:0:0:0:
61,173,9569,1,0,0:0:0:0:
104,194,9657,1,0,0:0:0:0:
152,203,9746,1,0,0:0:0:0:
200,206,9834,1,0,0:0:0:0:
248,201,9922,1,0,0:0:0:0:
293,183,10010,1,0,0:0:0:0:
374,127,10187,5,0,0:0:0:0:
374,175,10275,1,0,0:0:0:0:
363,222,10363,1,0,0:0:0:0:
336,263,10451,1,0,0:0:0:0:
300,297,10540,1,0,0:0:0:0:
254,314,10628,1,0,0:0:0:0:
205,321,10716,1,0,0:0:0:0:
156,321,10804,1,0,0:0:0:0:
107,312,10893,5,0,0:0:0:0:
65,285,10981,1,0,0:0:0:0:
37,244,11069,1,0,0:0:0:0:
29,195,11157,1,0,0:0:0:0:
38,146,11246,1,0,0:0:0:0:
57,105,11334,1,0,0:0:0:0:
87,71,11422,1,0,0:0:0:0:
126,49,11510,1,0,0:0:0:0:
256,192,13010,12,0,15834,0:0:0:0:
416,192,16187,5,0,0:0:0:0:
256,288,16540,5,0,0:0:0:0:
96,192,16893,5,0,0:0:0:0:
256,64,17246,6,0,L|256:160,3,70
256,184,17951,5,0,0:0:0:0:
276,200,18040,1,0,0:0:0:0:
256,216,18128,1,0,0:0:0:0:
236,232,18216,1,0,0:0:0:0:
256,248,18304,1,0,0:0:0:0:
276,264,18393,1,0,0:0:0:0:
256,280,18481,1,0,0:0:0:0:
236,296,18569,1,0,0:0:0:0:
256,312,18657,5,0,0:0:0:0:
256,192,28540,12,0,29951,0:0:0:0:
389,167,30128,5,0,0:0:0:0:
368,64,30304,2,0,P|288:64|224:96,1,140
112,56,30657,2,0,P|88:136|120:212,1,140
104,188,31010,2,0,P|128:268|96:344,1,140
114,321,31363,6,0,P|194:297|270:329,1,140
247,312,31716,2,0,P|327:336|403:304,1,140
379,320,32069,2,0,P|403:240|371:164,1,140
388,189,32422,2,0,P|364:109|396:33,1,140
176,96,32775,6,0,L|16:128,1,140
208,160,33128,2,0,L|80:256,1,140
272,192,33481,2,0,L|208:336,1,140
320,144,33834,2,0,P|288:72|208:56,1,140
80,64,34187,5,0,0:0:0:0:
175,121,34363,1,0,0:0:0:0:
97,202,34540,1,0,0:0:0:0:
197,251,34716,1,0,0:0:0:0:
439,253,34893,1,0,0:0:0:0:
349,186,35069,1,0,0:0:0:0:
436,115,35246,1,0,0:0:0:0:
342,53,35422,1,0,0:0:0:0:
244,53,35598,5,0,0:0:0:0:
195,60,35687,1,0,0:0:0:0:
149,77,35775,1,0,0:0:0:0:
64,128,35951,2,0,L|145:251,1,140
192,160,36304,2,0,L|273:283,1,140
320,192,36657,2,0,L|401:315,1,140
461,234,37010,5,0,0:0:0:0:
472,186,37098,1,0,0:0:0:0:
465,137,37187,1,0,0:0:0:0:
390,199,37363,2,0,L|320:64,1,140
288,160,37716,2,0,L|218:25,1,140
192,128,38069,2,0,L|122:-7,1,140
46,59,38422,5,0,0:0:0:0:
51,107,38510,1,0,0:0:0:0:
61,154,38598,1,0,0:0:0:0:
85,197,38687,1,0,0:0:0:0:
120,230,38775,1,0,0:0:0:0:
163,251,38863,1,0,0:0:0:0:
210,260,38951,1,0,0:0:0:0:
302,260,39128,5,0,0:0:0:0:
349,251,39216,1,0,0:0:0:0:
392,230,39304,1,0,0:0:0:0:
427,197,39393,1,0,0:0:0:0:
451,154,39481,1,0,0:0:0:0:
461,107,39569,1,0,0:0:0:0:
466,59,39657,1,0,0:0:0:0:
394,94,39834,5,0,0:0:0:0:
366,134,39922,1,0,0:0:0:0:
325,161,40010,1,0,0:0:0:0:
276,169,40098,1,0,0:0:0:0:
228,157,40187,1,0,0:0:0:0:
197,119,40275,1,0,0:0:0:0:
162,84,40363,1,0,0:0:0:0:
114,71,40451,1,0,0:0:0:0:
65,80,40540,5,0,0:0:0:0:
27,111,40628,1,0,0:0:0:0:
8,156,40716,1,0,0:0:0:0:
3,204,40804,1,0,0:0:0:0:
25,248,40893,1,0,0:0:0:0:
66,273,40981,1,0,0:0:0:0:
114,277,41069,1,0,0:0:0:0:
160,261,41157,1,0,0:0:0:0:
206,243,41246,6,0,P|268:167|179:30,1,280
86,51,41775,1,0,0:0:0:0:
21,124,41951,2,0,P|40:259|177:244,1,280
254,290,42481,1,0,0:0:0:0:
320,224,42657,5,0,0:0:0:0:
408,175,42834,1,0,0:0:0:0:
400,127,42922,1,0,0:0:0:0:
380,83,43010,1,0,0:0:0:0:
283,64,43187,1,0,0:0:0:0:
213,132,43363,1,0,0:0:0:0:
221,180,43451,1,0,0:0:0:0:
241,224,43540,1,0,0:0:0:0:
146,250,43716,1,0,0:0:0:0:
215,319,43893,1,0,0:0:0:0:
320,320,44069,6,0,L|352:160,1,140
320,96,44422,2,0,L|160:64,1,140
96,96,44775,2,0,L|64:256,1,140
150,287,45128,1,0,0:0:0:0:
240,322,45304,1,0,0:0:0:0:
338,323,45481,5,0,0:0:0:0:
383,306,45569,1,0,0:0:0:0:
417,271,45657,1,0,0:0:0:0:
426,222,45746,1,0,0:0:0:0:
420,173,45834,1,0,0:0:0:0:
394,131,45922,1,0,0:0:0:0:
349,111,46010,1,0,0:0:0:0:
300,115,46098,1,0,0:0:0:0:
260,144,46187,5,0,0:0:0:0:
229,182,46275,1,0,0:0:0:0:
191,213,46363,1,0,0:0:0:0:
143,222,46451,1,0,0:0:0:0:
93,219,46540,1,0,0:0:0:0:
54,188,46628,1,0,0:0:0:0:
33,143,46716,1,0,0:0:0:0:
33,94,46804,1,0,0:0:0:0:
62,54,46893,5,0,0:0:0:0:
160,48,47069,1,0,0:0:0:0:
256,48,47246,2,0,L|256:192,1,140
352,192,47598,2,0,L|352:40,1,140
448,48,47951,1,0,0:0:0:0:
448,144,48128,1,0,0:0:0:0:
448,240,48304,6,0,L|256:240,1,140
192,288,48657,2,0,B|232:224|232:224|192:168,1,140
112,240,49010,2,0,B|72:176|72:176|112:120,1,140
192,64,49363,1,0,0:0:0:0:
96,64,49540,1,0,0:0:0:0:
32,136,49716,5,0,0:0:0:0:
52,180,49804,1,0,0:0:0:0:
81,219,49893,1,0,0:0:0:0:
120,248,49981,1,0,0:0:0:0:
164,268,50069,1,0,0:0:0:0:
210,283,50157,1,0,0:0:0:0:
259,287,50246,1,0,0:0:0:0:
344,232,50422,6,0,L|281:196,1,70
344,232,50598,2,0,L|406:196,1,70
344,232,50775,2,0,L|344:304,1,70
344,232,50951,1,0,0:0:0:0:
432,184,51128,5,0,0:0:0:0:
409,140,51216,1,0,0:0:0:0:
362,125,51304,1,0,0:0:0:0:
314,137,51393,1,0,0:0:0:0:
282,173,51481,1,0,0:0:0:0:
263,218,51569,1,0,0:0:0:0:
239,260,51657,1,0,0:0:0:0:
195,283,51746,1,0,0:0:0:0:
146,283,51834,5,0,0:0:0:0:
109,251,51922,1,0,0:0:0:0:
92,204,52010,1,0,0:0:0:0:
86,155,52098,1,0,0:0:0:0:
90,105,52187,1,0,0:0:0:0:
106,58,52275,1,0,0:0:0:0:
129,15,52363,1,0,0:0:0:0:
256,192,52540,12,0,55363,0:0:0:0:
76,200,55716,1,0,0:0:0:0:
76,296,55893,1,0,0:0:0:0:
176,296,56069,1,0,0:0:0:0:
376,296,56422,2,0,L|376:240,1,35
376,228,56599,1,0,0:0:0:0:
256,144,56863,5,0,0:0:0:0:
236,144,56951,1,0,0:0:0:0:
136,144,57128,1,0,0:0:0:0:
136,344,57481,1,0,0:0:0:0:
232,344,57657,1,0,0:0:0:0:
352,256,57922,6,0,L|425:183,1,70
416,192,58187,1,0,0:0:0:0:
352,256,58540,1,0,0:0:0:0:
264,296,58716,1,0,0:0:0:0:
176,336,58893,1,0,0:0:0:0:
176,136,59246,6,0,L|176:80,1,35
176,80,59422,1,0,0:0:0:0:
324,80,59687,1,0,0:0:0:0:
340,96,59775,1,0,0:0:0:0:
416,168,59951,1,0,0:0:0:0:
272,304,60304,5,0,0:0:0:0:
176,304,60481,1,0,0:0:0:0:
176,160,60746,2,0,L|176:120,2,35
176,184,61010,1,0,0:0:0:0:
376,184,61363,5,0,0:0:0:0:
376,88,61540,1,0,0:0:0:0:
280,88,61716,1,0,0:0:0:0:
80,88,62069,2,0,L|80:136,1,35
80,144,62246,1,0,0:0:0:0:
80,288,62510,5,0,0:0:0:0:
104,288,62598,1,0,0:0:0:0:
200,288,62775,1,0,0:0:0:0:
400,288,63128,1,0,0:0:0:0:
400,192,63304,1,0,0:0:0:0:
288,96,63569,1,0,0:0:0:0:
188,96,63746,2,0,L|188:152,1,35
188,328,64187,5,0,0:0:0:0:
284,328,64363,1,0,0:0:0:0:
384,328,64540,1,0,0:0:0:0:
384,128,64893,2,0,L|332:128,1,35
324,128,65069,1,0,0:0:0:0:
176,128,65334,5,0,0:0:0:0:
152,128,65422,1,0,0:0:0:0:
148,32,65598,1,0,0:0:0:0:
148,228,65951,1,0,0:0:0:0:
248,228,66128,1,0,0:0:0:0:
344,228,66304,2,0,L|436:228,1,70
412,128,66657,5,0,0:0:0:0:
216,128,67010,1,0,0:0:0:0:
144,196,67187,1,0,0:0:0:0:
216,264,67363,1,0,0:0:0:0:
412,264,67716,2,0,L|412:228,1,35
412,204,67893,1,0,0:0:0:0:
408,56,68157,5,0,0:0:0:0:
384,56,68246,1,0,0:0:0:0:
288,56,68422,1,0,0:0:0:0:
92,56,68775,1,0,0:0:0:0:
92,152,68951,1,0,0:0:0:0:
92,300,69216,1,0,0:0:0:0:
192,300,69393,2,0,L|236:256,1,35
336,120,69834,5,0,0:0:0:0:
264,56,70010,1,0,0:0:0:0:
192,120,70187,1,0,0:0:0:0:
192,320,70540,2,0,L|232:320,1,35
248,320,70716,1,0,0:0:0:0:
392,320,70981,5,0,0:0:0:0:
392,296,71069,1,0,0:0:0:0:
392,196,71246,1,0,0:0:0:0:
388,0,71598,1,0,0:0:0:0:
316,68,71775,1,0,0:0:0:0:
316,216,72040,2,0,L|316:264,1,35
316,276,72216,1,0,0:0:0:0:
316,300,72304,1,0,0:0:0:0:
120,304,72657,5,0,0:0:0:0:
120,204,72834,1,0,0:0:0:0:
120,108,73010,1,0,0:0:0:0:
316,108,73363,2,0,L|376:108,1,35
376,108,73540,1,0,0:0:0:0:
376,256,73804,5,0,0:0:0:0:
352,256,73893,1,0,0:0:0:0:
256,256,74069,1,0,0:0:0:0:
120,112,74422,1,0,0:0:0:0:
216,112,74598,1,0,0:0:0:0:
68,112,74863,1,0,0:0:0:0:
168,112,75040,2,0,L|208:112,1,35
200,308,75481,5,0,0:0:0:0:
296,308,75657,1,0,0:0:0:0:
320,308,75746,1,0,0:0:0:0:
344,308,75834,1,0,0:0:0:0:
344,112,76187,1,0,0:0:0:0:
248,116,76363,1,0,0:0:0:0:
224,116,76451,1,0,0:0:0:0:
200,116,76540,1,0,0:0:0:0:
4,120,76893,5,0,0:0:0:0:
112,220,77157,1,0,0:0:0:0:
132,236,77246,1,0,0:0:0:0:
152,252,77334,1,0,0:0:0:0:
172,268,77422,1,0,0:0:0:0:
252,324,77598,2,0,L|184:276,1,70
256,192,77951,12,0,80775,0:0:0:0:
78,88,89246,5,0,0:0:0:0:
112,96,89334,1,0,0:0:0:0:
88,120,89422,1,0,0:0:0:0:
128,128,89510,1,0,0:0:0:0:
104,152,89598,1,0,0:0:0:0:
144,160,89687,1,0,0:0:0:0:
120,184,89775,1,0,0:0:0:0:
160,192,89863,1,0,0:0:0:0:
136,216,89951,5,0,0:0:0:0:
176,216,90040,1,0,0:0:0:0:
152,248,90128,1,0,0:0:0:0:
192,248,90216,1,0,0:0:0:0:
168,280,90304,1,0,0:0:0:0:
208,272,90393,1,0,0:0:0:0:
192,304,90481,1,0,0:0:0:0:
232,304,90569,1,0,0:0:0:0:
272,304,90657,6,0,L|339:302,3,52.5000020027161
324,303,91010,6,0,L|372:263,3,52.5000020027161
364,269,91363,6,0,L|388:205,3,52.5000020027161
383,219,91716,6,0,L|383:147,3,52.5000020027161
256,192,92069,12,0,94540,0:0:0:0:
352,288,94893,5,0,0:0:0:0:
363,267,94981,1,0,0:0:0:0:
375,246,95069,1,0,0:0:0:0:
256,96,95246,5,0,0:0:0:0:
243,75,95334,1,0,0:0:0:0:
231,55,95422,1,0,0:0:0:0:
160,256,95598,5,0,0:0:0:0:
149,277,95687,1,0,0:0:0:0:
137,298,95775,1,0,0:0:0:0:
256,192,95951,5,0,0:0:0:0:
400,192,96128,5,0,0:0:0:0:
416,174,96216,1,0,0:0:0:0:
423,150,96304,1,0,0:0:0:0:
256,48,96481,5,0,0:0:0:0:
232,53,96569,1,0,0:0:0:0:
212,68,96657,1,0,0:0:0:0:
112,192,96834,5,0,0:0:0:0:
101,214,96922,1,0,0:0:0:0:
100,238,97010,1,0,0:0:0:0:
256,336,97187,5,0,0:0:0:0:
281,334,97275,1,0,0:0:0:0:
303,323,97363,1,0,0:0:0:0:
256,192,97540,5,0,0:0:0:0:
144,192,97716,5,0,0:0:0:0:
48,304,97893,5,0,0:0:0:0:
65,286,97981,1,0,0:0:0:0:
82,268,98069,1,0,0:0:0:0:
240,304,98246,5,0,0:0:0:0:
257,286,98334,1,0,0:0:0:0:
274,268,98422,1,0,0:0:0:0:
416,304,98598,5,0,0:0:0:0:
433,286,98687,1,0,0:0:0:0:
450,268,98775,1,0,0:0:0:0:
256,192,98951,5,0,0:0:0:0:
448,64,99128,5,0,0:0:0:0:
434,84,99216,1,0,0:0:0:0:
421,105,99304,1,0,0:0:0:0:
242,100,99481,5,0,0:0:0:0:
256,80,99569,1,0,0:0:0:0:
269,59,99657,1,0,0:0:0:0:
78,60,99834,5,0,0:0:0:0:
64,80,99922,1,0,0:0:0:0:
51,101,100010,1,0,0:0:0:0:
256,192,100187,5,0,0:0:0:0:
384,192,100363,5,0,0:0:0:0:
342,321,100540,5,0,0:0:0:0:
365,315,100628,1,0,0:0:0:0:
385,301,100716,1,0,0:0:0:0:
342,63,100893,5,0,0:0:0:0:
365,69,100981,1,0,0:0:0:0:
385,83,101069,1,0,0:0:0:0:
170,63,101246,5,0,0:0:0:0:
147,69,101334,1,0,0:0:0:0:
127,83,101422,1,0,0:0:0:0:
170,321,101598,5,0,0:0:0:0:
147,315,101687,1,0,0:0:0:0:
127,301,101775,1,0,0:0:0:0:
256,192,101951,5,0,0:0:0:0:
336,272,102128,5,0,0:0:0:0:
327,294,102216,1,0,0:0:0:0:
310,312,102304,1,0,0:0:0:0:
256,192,102481,5,0,0:0:0:0:
176,112,102657,5,0,0:0:0:0:
185,90,102746,1,0,0:0:0:0:
202,72,102834,1,0,0:0:0:0:
256,192,103010,5,0,0:0:0:0:
384,192,103187,5,0,0:0:0:0:
406,183,103275,1,0,0:0:0:0:
424,166,103363,1,0,0:0:0:0:
256,192,103540,5,0,0:0:0:0:
128,192,103716,5,0,0:0:0:0:
106,201,103804,1,0,0:0:0:0:
88,218,103893,1,0,0:0:0:0:
256,192,104069,5,0,0:0:0:0:
364,284,104246,5,0,0:0:0:0:
380,300,104334,1,0,0:0:0:0:
396,316,104422,1,0,0:0:0:0:
256,192,104598,5,0,0:0:0:0:
148,284,104775,5,0,0:0:0:0:
132,300,104863,1,0,0:0:0:0:
116,316,104951,1,0,0:0:0:0:
256,192,105128,5,0,0:0:0:0:
148,100,105304,5,0,0:0:0:0:
132,84,105392,1,0,0:0:0:0:
116,68,105480,1,0,0:0:0:0:
256,192,105657,5,0,0:0:0:0:
364,100,105834,5,0,0:0:0:0:
380,84,105922,1,0,0:0:0:0:
396,68,106010,1,0,0:0:0:0:
256,192,106187,5,0,0:0:0:0:
256,96,106363,5,0,0:0:0:0:
280,56,106451,1,0,0:0:0:0:
232,56,106540,1,0,0:0:0:0:
256,288,106716,6,0,L|256:304|256:336,2,35
339,144,107069,6,0,P|353:135|380:120,2,35
172,144,107422,6,0,P|158:135|131:120,2,35
256,192,107775,5,0,0:0:0:0:
258,97,107951,5,0,0:0:0:0:
249,49,108039,1,0,0:0:0:0:
211,18,108128,1,0,0:0:0:0:
256,192,108304,5,0,0:0:0:0:
161,190,108481,5,0,0:0:0:0:
113,199,108569,1,0,0:0:0:0:
82,237,108657,1,0,0:0:0:0:
351,194,108833,5,0,0:0:0:0:
399,185,108922,1,0,0:0:0:0:
430,147,109010,1,0,0:0:0:0:
256,192,109186,5,0,0:0:0:0:
254,287,109363,5,0,0:0:0:0:
263,335,109451,1,0,0:0:0:0:
301,366,109539,1,0,0:0:0:0:
256,192,109716,5,0,0:0:0:0:
171,102,109892,5,0,0:0:0:0:
132,72,109981,1,0,0:0:0:0:
83,66,110069,1,0,0:0:0:0:
160,192,110245,5,0,0:0:0:0:
111,193,110333,1,0,0:0:0:0:
69,219,110422,1,0,0:0:0:0:
256,192,110598,5,0,0:0:0:0:
200,276,110775,5,0,0:0:0:0:
160,304,110863,1,0,0:0:0:0:
138,348,110951,1,0,0:0:0:0:
340,281,111128,5,0,0:0:0:0:
379,311,111216,1,0,0:0:0:0:
428,317,111304,1,0,0:0:0:0:
352,192,111481,5,0,0:0:0:0:
401,191,111569,1,0,0:0:0:0:
443,165,111657,1,0,0:0:0:0:
256,192,111834,5,0,0:0:0:0:
312,108,112010,5,0,0:0:0:0:
352,80,112098,1,0,0:0:0:0:
374,36,112186,1,0,0:0:0:0:
256,192,112363,5,0,0:0:0:0:
389,235,112539,5,0,0:0:0:0:
410,191,112628,1,0,0:0:0:0:
385,149,112716,1,0,0:0:0:0:
256,192,112892,5,0,0:0:0:0:
213,325,113069,5,0,0:0:0:0:
257,346,113157,1,0,0:0:0:0:
299,321,113245,1,0,0:0:0:0:
256,192,113422,5,0,0:0:0:0:
123,149,113598,5,0,0:0:0:0:
102,193,113686,1,0,0:0:0:0:
127,235,113775,1,0,0:0:0:0:
256,192,113951,5,0,0:0:0:0:
299,59,114128,5,0,0:0:0:0:
255,38,114216,1,0,0:0:0:0:
213,63,114304,1,0,0:0:0:0:
120,40,114481,5,0,0:0:0:0:
46,101,114657,5,0,0:0:0:0:
77,107,114745,1,0,0:0:0:0:
56,131,114833,1,0,0:0:0:0:
87,135,114922,1,0,0:0:0:0:
70,161,115010,1,0,0:0:0:0:
101,162,115098,1,0,0:0:0:0:
87,190,115186,1,0,0:0:0:0:
118,190,115275,1,0,0:0:0:0:
106,219,115363,5,0,0:0:0:0:
137,216,115451,1,0,0:0:0:0:
132,247,115539,1,0,0:0:0:0:
162,238,115628,1,0,0:0:0:0:
160,269,115716,1,0,0:0:0:0:
188,255,115804,1,0,0:0:0:0:
194,286,115892,1,0,0:0:0:0:
221,269,115981,1,0,0:0:0:0:
227,299,116069,5,0,0:0:0:0:
247,275,116157,1,0,0:0:0:0:
257,304,116245,1,0,0:0:0:0:
276,279,116333,1,0,0:0:0:0:
294,304,116422,1,0,0:0:0:0:
307,275,116510,1,0,0:0:0:0:
327,298,116598,1,0,0:0:0:0:
335,267,116686,5,0,0:0:0:0:
361,283,116775,1,0,0:0:0:0:
357,251,116863,1,0,0:0:0:0:
385,264,116951,1,0,0:0:0:0:
380,232,117039,1,0,0:0:0:0:
410,239,117128,1,0,0:0:0:0:
394,211,117216,1,0,0:0:0:0:
425,214,117304,1,0,0:0:0:0:
406,188,117392,5,0,0:0:0:0:
433,188,117481,2,0,B|323:351|179:302|83:245|44:111|41:40,1,560
126,43,119069,5,0,0:0:0:0:
150,43,119157,1,0,0:0:0:0:
174,43,119245,1,0,0:0:0:0:
252,94,119422,5,0,0:0:0:0:
320,160,119598,5,0,0:0:0:0:
272,160,119687,1,0,0:0:0:0:
224,160,119775,1,0,0:0:0:0:
176,160,119863,1,0,0:0:0:0:
192,204,119951,1,0,0:0:0:0:
216,248,120040,1,0,0:0:0:0:
240,292,120128,1,0,0:0:0:0:
268,332,120216,1,0,0:0:0:0:
312,308,120304,1,0,0:0:0:0:
388,248,120481,6,0,L|460:192,1,70
412,112,120834,2,0,L|340:56,1,70
256,80,121187,6,0,L|208:80,1,35
192,80,121363,1,0,0:0:0:0:
112,144,121540,6,0,L|64:192,1,35
64,192,121716,1,0,0:0:0:0:
64,288,121893,6,0,L|64:336,1,35
64,352,122069,1,0,0:0:0:0:
160,352,122246,1,0,0:0:0:0:
232,352,122422,5,0,0:0:0:0:
280,352,122510,1,0,0:0:0:0:
328,352,122598,1,0,0:0:0:0:
376,352,122687,1,0,0:0:0:0:
424,352,122775,1,0,0:0:0:0:
464,328,122863,1,0,0:0:0:0:
500,296,122951,1,0,0:0:0:0:
500,248,123040,1,0,0:0:0:0:
500,200,123128,1,0,0:0:0:0:
408,164,123304,5,0,0:0:0:0:
346,237,123481,2,0,L|294:177,1,70
337,152,123833,2,0,L|393:102,1,70
359,66,124186,2,0,L|309:13,1,70
181,51,124539,5,0,0:0:0:0:
138,75,124716,2,0,L|53:126,1,70
119,192,125069,1,0,0:0:0:0:
160,165,125245,2,0,L|221:124,1,70
284,77,125598,1,0,0:0:0:0:
284,166,125775,1,0,0:0:0:0:
288,256,125951,6,0,L|352:320,1,70
432,224,126128,2,0,L|368:288,1,70,0|0,0:0|0:0,0:0:0:0:
400,176,126304,2,0,L|336:112,1,70
304,160,126481,2,0,L|240:224,1,70
128,224,126657,6,0,L|64:288,1,70
96,160,126834,2,0,L|32:96,1,70
160,128,127010,2,0,L|224:64,1,70
192,192,127186,2,0,L|256:256,1,70
128,32,127363,6,0,L|240:32,1,70
328,32,127539,2,0,L|236:32,1,70
128,96,127716,2,0,L|240:96,1,70
328,96,127892,2,0,L|248:96,1,70
256,160,128069,6,0,L|320:224,1,70
256,288,128245,2,0,L|320:224,1,70
384,288,128422,2,0,L|320:224,1,70
384,160,128598,2,0,L|320:224,1,70
280,248,128775,1,0,0:0:0:0:
144,248,128951,5,0,0:0:0:0:
48,144,129128,1,0,0:0:0:0:
144,40,129304,1,0,0:0:0:0:
240,144,129481,1,0,0:0:0:0:
336,248,129657,5,0,0:0:0:0:
432,144,129834,1,0,0:0:0:0:
336,32,130010,1,0,0:0:0:0:
240,144,130187,1,0,0:0:0:0:
208,180,130275,1,0,0:0:0:0:
161,193,130363,1,0,0:0:0:0:
112,191,130451,1,0,0:0:0:0:
80,152,130540,1,0,0:0:0:0:
75,103,130628,5,0,0:0:0:0:
101,61,130716,1,0,0:0:0:0:
145,40,130804,1,0,0:0:0:0:
193,31,130893,1,0,0:0:0:0:
240,41,130981,1,0,0:0:0:0:
278,70,131069,1,0,0:0:0:0:
306,109,131157,1,0,0:0:0:0:
349,132,131246,1,0,0:0:0:0:
396,142,131334,5,0,0:0:0:0:
444,132,131422,1,0,0:0:0:0:
480,99,131510,1,0,0:0:0:0:
484,50,131598,5,0,0:0:0:0:
387,33,131775,1,0,0:0:0:0:
291,52,131951,1,0,0:0:0:0:
199,87,132128,1,0,0:0:0:0:
116,139,132304,1,0,0:0:0:0:
63,221,132481,1,0,0:0:0:0:
100,307,132657,5,0,0:0:0:0:
144,327,132746,1,0,0:0:0:0:
187,304,132834,1,0,0:0:0:0:
214,263,132922,1,0,0:0:0:0:
256,239,133010,1,0,0:0:0:0:
298,263,133098,1,0,0:0:0:0:
335,295,133187,1,0,0:0:0:0:
382,307,133275,1,0,0:0:0:0:
427,288,133363,5,0,0:0:0:0:
451,245,133451,1,0,0:0:0:0:
453,195,133540,1,0,0:0:0:0:
444,146,133628,1,0,0:0:0:0:
420,103,133716,1,0,0:0:0:0:
382,72,133804,1,0,0:0:0:0:
337,50,133893,1,0,0:0:0:0:
291,68,133981,1,0,0:0:0:0:
257,103,134069,5,0,0:0:0:0:
238,148,134157,1,0,0:0:0:0:
199,178,134246,1,0,0:0:0:0:
151,188,134334,1,0,0:0:0:0:
108,163,134422,5,0,0:0:0:0:
140,70,134598,1,0,0:0:0:0:
238,74,134775,1,0,0:0:0:0:
326,115,134951,1,0,0:0:0:0:
372,201,135128,2,0,P|303:207|262:295,1,140
359,283,135481,2,0,P|317:337|221:325,1,140
153,321,135834,5,0,0:0:0:0:
111,294,135922,1,0,0:0:0:0:
81,255,136010,1,0,0:0:0:0:
63,209,136098,1,0,0:0:0:0:
50,161,136187,1,0,0:0:0:0:
45,112,136275,1,0,0:0:0:0:
49,63,136363,1,0,0:0:0:0:
135,110,136540,2,0,P|195:139|277:87,1,140,0|0,0:0|0:0,0:0:0:0:
203,32,136893,2,0,P|267:7|342:69,1,140
413,84,137246,5,0,0:0:0:0:
437,128,137334,1,0,0:0:0:0:
449,176,137422,1,0,0:0:0:0:
437,224,137510,1,0,0:0:0:0:
413,268,137598,1,0,0:0:0:0:
381,304,137687,1,0,0:0:0:0:
333,316,137775,1,0,0:0:0:0:
289,296,137863,1,0,0:0:0:0:
257,260,137951,5,0,0:0:0:0:
213,236,138040,1,0,0:0:0:0:
173,260,138128,1,0,0:0:0:0:
141,300,138216,1,0,0:0:0:0:
94,316,138304,1,0,0:0:0:0:
46,300,138393,1,0,0:0:0:0:
27,254,138481,1,0,0:0:0:0:
30,205,138569,1,0,0:0:0:0:
49,160,138657,5,0,0:0:0:0:
90,132,138746,1,0,0:0:0:0:
136,115,138834,1,0,0:0:0:0:
183,124,138922,1,0,0:0:0:0:
222,152,139010,1,0,0:0:0:0:
257,185,139098,1,0,0:0:0:0:
300,208,139187,1,0,0:0:0:0:
346,191,139275,1,0,0:0:0:0:
362,145,139363,5,0,0:0:0:0:
355,96,139451,1,0,0:0:0:0:
317,64,139540,1,0,0:0:0:0:
268,56,139628,1,0,0:0:0:0:
220,67,139716,1,0,0:0:0:0:
182,98,139804,1,0,0:0:0:0:
172,146,139893,1,0,0:0:0:0:
187,192,139981,1,0,0:0:0:0:
222,226,140069,5,0,0:0:0:0:
