osu file format v13

[General]
AudioFilename: Lily_Allen_-_Air_Balloon.mp3
AudioLeadIn: 0
PreviewTime: -1
Countdown: 1
SampleSet: Soft
StackLeniency: 0.7
Mode: 0
LetterboxInBreaks: 1
WidescreenStoryboard: 0

[Editor]
Bookmarks: 28533,31059
DistanceSpacing: 1.1
BeatDivisor: 4
GridSize: 8
TimelineZoom: 1

[Metadata]
Title:Air Balloon
TitleUnicode:Air Balloon
Artist:Lilly Allen
ArtistUnicode:Lilly Allen
Creator:Lizzehb
Version:Normal
Source:Sheezus
Tags:
BeatmapID:453900
BeatmapSetID:190668

[Difficulty]
HPDrainRate:3
CircleSize:4
OverallDifficulty:3
ApproachRate:3
SliderMultiplier:1.4
SliderTickRate:1

[Events]
//Background and Video events
0,0,"lily-allen-air-balloon.jpg",0,0
//Break Periods
2,33154,37830
2,62206,71935
2,103891,108251
//Storyboard Layer 0 (Background)
//Storyboard Layer 1 (Fail)
//Storyboard Layer 2 (Pass)
//Storyboard Layer 3 (Foreground)
//Storyboard Sound Samples
//Background Colour Transformations
3,100,163,162,255

[TimingPoints]
6428.00441861603,631.578947368421,4,2,0,100,1,0
43059,-100,4,2,0,100,0,1
62322,-100,4,2,0,100,0,0
113796,-100,4,2,0,100,0,1
134638,-100,4,2,0,100,0,0

[Colours]
Combo1 : 128,0,255
Combo2 : 128,255,255
Combo3 : 0,255,128
Combo4 : 213,0,213

[HitObjects]
112,96,2638,5,0,0:0:0:0:
152,160,2954,1,0,0:0:0:0:
80,192,3270,2,0,P|104:224|152:232,1,70,8|0,0:0|0:0,0:0:0:0:
208,232,3901,1,0,0:0:0:0:
264,184,4217,5,0,0:0:0:0:
336,216,4533,2,0,P|312:248|264:256,1,70,8|0,0:0|0:0,0:0:0:0:
208,256,5164,2,0,L|173:256,2,35,0|0|0,0:0|0:0|0:0,0:0:0:0:
248,184,5796,2,0,L|248:104,1,70
256,192,6428,12,0,7059,0:0:0:0:
256,144,7691,6,0,L|256:232,2,70,0|0|8,0:0|0:0|0:0,0:0:0:0:
256,64,8638,1,0,0:0:0:0:
256,64,8954,1,0,0:0:0:0:
184,88,9270,1,0,0:0:0:0:
112,120,9585,1,8,0:0:0:0:
40,144,9901,1,0,0:0:0:0:
96,200,10217,2,0,L|136:240,2,35,0|0|0,0:0|0:0|0:0,0:0:0:0:
56,264,10849,2,0,L|56:336,1,70,8|0,0:0|0:0,0:0:0:0:
256,192,11480,12,0,12112,0:0:0:0:
256,192,12428,6,0,L|256:232,4,35,0|0|0|0|0,0:0|0:0|0:0|0:0|0:0,0:0:0:0:
256,112,13375,1,8,0:0:0:0:
336,112,13691,1,0,0:0:0:0:
408,144,14006,1,0,0:0:0:0:
400,224,14322,1,0,0:0:0:0:
328,192,14638,5,8,0:0:0:0:
248,192,14954,1,0,0:0:0:0:
288,256,15270,2,0,L|288:296,2,35,0|0|0,0:0|0:0|0:0,0:0:0:0:
216,288,15901,2,0,L|128:288,2,70,8|0|0,0:0|0:0|0:0,0:0:0:0:
304,160,17164,5,8,0:0:0:0:
224,160,17480,2,0,L|224:208,2,35,0|0|0,0:0|0:0|0:0,0:0:0:0:
144,152,18112,2,0,L|72:192,1,70,0|8,0:0|0:0,0:0:0:0:
40,248,18743,2,0,L|101:281,1,70
168,320,19375,6,0,L|96:360,1,70,0|8,0:0|0:0,0:0:0:0:
88,280,20006,1,0,0:0:0:0:
80,200,20322,2,0,L|80:144,2,35,0|0|0,0:0|0:0|0:0,0:0:0:0:
152,232,20954,2,0,B|192:200|120:152|200:96,1,140,8|0,0:0|0:0,0:0:0:0:
256,192,22217,12,0,23480,0:0:0:0:
80,192,24112,6,2,P|208:128|336:184,1,280
120,280,26322,2,0,L|152:256,2,35,0|0|0,0:0|0:0|0:0,0:0:0:0:
272,256,27270,2,0,L|360:144,1,140
240,48,28533,6,2,B|96:-16|8:96|120:336|384:248|72:-80|0:152,1,560
128,304,31691,5,0,0:0:0:0:
280,304,32322,1,0,0:0:0:0:
432,304,32954,1,2,0:0:0:0:
256,192,39270,12,0,41164,0:0:0:0:
152,128,42112,5,0,0:0:0:0:
216,176,42428,2,4,L|272:208,4,35,0|0|0|0|4,0:0|0:0|0:0|0:0|0:0,0:0:0:0:
352,104,43691,6,0,P|432:152|408:192,1,140,8|0,0:0|0:0,0:0:0:0:
344,184,44638,1,0,0:0:0:0:
264,184,44954,1,8,0:0:0:0:
184,184,45270,2,0,L|112:240,1,70
96,80,46217,6,0,L|128:112,2,35,8|0|0,0:0|0:0|0:0,0:0:0:0:
40,136,46849,1,0,0:0:0:0:
40,288,47480,2,0,L|40:344,2,35,8|0|0,0:0|0:0|0:0,0:0:0:0:
104,248,48112,6,0,P|152:208|208:256,1,140,0|8,0:0|0:0,0:0:0:0:
360,272,49375,2,0,P|312:312|256:264,1,140,0|8,0:0|0:0,0:0:0:0:
104,248,50638,2,0,P|152:208|208:256,1,140,0|8,0:0|0:0,0:0:0:0:
48,176,51901,1,4,0:0:0:0:
176,176,52533,6,0,L|240:176,4,35,8|0|0|0|0,0:0|0:0|0:0|0:0|0:0,0:0:0:0:
128,112,53480,1,0,0:0:0:0:
192,72,53796,2,0,P|200:40|232:40,2,70,8|0|0,0:0|0:0|0:0,0:0:0:0:
256,120,54743,1,0,0:0:0:0:
264,200,55059,5,8,0:0:0:0:
384,296,55691,2,0,P|432:248|400:176,1,140,0|8,0:0|0:0,0:0:0:0:
352,224,56638,2,0,B|328:232|328:232|272:224,2,70,0|0|0,0:0|0:0|0:0,0:0:0:0:
400,160,57585,2,0,L|400:88,1,70,8|0,0:0|0:0,0:0:0:0:
320,80,58217,6,0,L|180:80,1,140,0|8,0:0|0:0,0:0:0:0:
320,152,59480,2,0,L|180:152,1,140,0|8,0:0|0:0,0:0:0:0:
184,304,60743,2,0,L|336:304,1,140,0|8,0:0|0:0,0:0:0:0:
376,160,62006,1,4,0:0:0:0:
376,112,73375,6,0,L|376:176,2,35,0|0|0,0:0|0:0|0:0,0:0:0:0:
296,112,74006,2,0,L|216:112,1,70,2|0,0:0|0:0,0:0:0:0:
152,144,74638,2,0,P|176:176|224:184,1,70
176,256,75270,2,0,L|232:312,1,70,2|0,0:0|0:0,0:0:0:0:
304,296,75901,2,0,L|304:360,2,35,0|0|0,0:0|0:0|0:0,0:0:0:0:
360,240,76533,6,0,L|424:176,2,70,2|0|0,0:0|0:0|0:0,0:0:0:0:
280,240,77480,1,0,0:0:0:0:
200,240,77796,1,0,0:0:0:0:
144,192,78112,2,0,L|104:144,2,35,8|8|0,0:0|0:0|0:0,0:0:0:0:
128,264,78743,2,0,L|128:344,1,70,0|8,0:0|0:0,0:0:0:0:
48,344,79375,5,0,0:0:0:0:
48,264,79691,1,0,0:0:0:0:
48,184,80006,1,0,0:0:0:0:
120,216,80322,1,8,0:0:0:0:
120,136,80638,1,0,0:0:0:0:
120,56,80954,2,0,L|120:-8,2,35,0|0|0,0:0|0:0|0:0,0:0:0:0:
192,88,81585,6,0,L|288:88,2,70,8|0|0,0:0|0:0|0:0,0:0:0:0:
240,232,82849,1,8,0:0:0:0:
240,152,83164,2,0,L|240:88,3,35,0|0|0|0,0:0|0:0|0:0|0:0,0:0:0:0:
128,128,84112,2,0,P|64:160|96:240,1,140,8|0,0:0|0:0,0:0:0:0:
144,200,85059,2,0,L|240:200,1,70,0|8,0:0|0:0,0:0:0:0:
288,200,85691,5,0,0:0:0:0:
368,200,86006,2,0,L|416:200,2,35,0|0|0,0:0|0:0|0:0,0:0:0:0:
328,136,86638,1,8,0:0:0:0:
328,56,86954,1,0,0:0:0:0:
264,96,87270,1,0,0:0:0:0:
256,176,87585,6,0,L|256:248,1,70,0|8,0:0|0:0,0:0:0:0:
256,320,88217,2,0,L|304:320,2,35,0|0|0,0:0|0:0|0:0,0:0:0:0:
184,296,88849,1,0,0:0:0:0:
144,232,89164,1,8,0:0:0:0:
144,152,89480,1,0,0:0:0:0:
192,96,89796,5,0,0:0:0:0:
272,88,90112,2,0,L|352:88,2,70,0|8|0,0:0|0:0|0:0,0:0:0:0:
192,96,91059,2,0,L|128:96,2,35,0|0|0,0:0|0:0|0:0,0:0:0:0:
192,176,91691,1,8,0:0:0:0:
192,256,92006,1,0,0:0:0:0:
192,336,92322,1,0,0:0:0:0:
256,192,92954,12,0,94217,0:0:0:0:
80,328,94849,6,2,B|128:272|128:272|224:280|224:280|192:176|192:176|288:176|288:176|240:96|240:96|344:112|344:112|336:112,1,560
440,216,98006,5,0,0:0:0:0:
328,320,98638,1,0,0:0:0:0:
288,168,99270,1,0,0:0:0:0:
200,296,99901,6,2,P|128:264|344:112,1,560
216,160,103059,5,0,0:0:0:0:
344,248,103691,1,4,0:0:0:0:
256,192,109691,12,0,112533,0:0:0:0:
256,192,113796,5,4,0:0:0:0:
256,112,114112,2,0,L|256:56,2,35,0|0|8,0:0|0:0|0:0,0:0:0:0:
176,112,114743,1,0,0:0:0:0:
176,192,115059,2,0,L|176:344,1,140,0|8,0:0|0:0,0:0:0:0:
256,336,116006,1,0,0:0:0:0:
336,336,116322,2,0,L|376:336,1,35
296,248,116954,5,8,0:0:0:0:
296,168,117270,1,0,0:0:0:0:
296,88,117585,1,0,0:0:0:0:
184,192,118217,2,0,L|120:192,2,35,8|0|0,0:0|0:0|0:0,0:0:0:0:
184,272,118849,6,0,B|208:312|264:288|264:288|320:288,1,140,0|8,0:0|0:0,0:0:0:0:
200,184,120112,2,0,B|224:224|280:200|280:200|336:200,1,140,0|8,0:0|0:0,0:0:0:0:
216,88,121375,2,0,B|240:128|296:104|296:104|352:104,1,140,0|8,0:0|0:0,0:0:0:0:
216,176,122638,1,0,0:0:0:0:
144,160,122954,6,0,P|120:240|224:240,1,210
88,328,124533,2,0,L|160:328,2,70,8|0|0,0:0|0:0|0:0,0:0:0:0:
88,248,125480,1,0,0:0:0:0:
88,168,125796,1,8,0:0:0:0:
88,88,126112,1,0,0:0:0:0:
160,120,126428,6,0,L|208:120,2,35,0|0|0,0:0|0:0|0:0,0:0:0:0:
88,88,127059,1,8,0:0:0:0:
88,168,127375,1,0,0:0:0:0:
88,248,127691,1,0,0:0:0:0:
224,320,128322,2,0,L|264:320,2,35,8|0|0,0:0|0:0|0:0,0:0:0:0:
256,256,128954,6,0,B|304:232|304:232|264:208|264:208|328:176,1,140,0|8,0:0|0:0,0:0:0:0:
120,216,130217,2,0,L|240:112,1,140,0|8,0:0|0:0,0:0:0:0:
392,216,131480,2,0,L|272:112,1,140,0|8,0:0|0:0,0:0:0:0:
256,192,132743,12,0,134638,0:0:0:0:
