osu file format v11

[General]
AudioFilename: ed.mp3
AudioLeadIn: 2500
PreviewTime: 58233
Countdown: 0
SampleSet: Soft
StackLeniency: 0.7
Mode: 0
LetterboxInBreaks: 0

[Editor]
Bookmarks: 150,10816,21483,31316,41483,46816,52149,58649,69149,74816,80149,87982
DistanceSpacing: 1
BeatDivisor: 4
GridSize: 4

[Metadata]
Title:Life-Ru is LOVE-Ru!! (TV Size)
TitleUnicode:Lifeる is LOVEる!!
Artist:Liliana Sisters
ArtistUnicode:リリアナシスターズ
Creator:Flask
Version:Potential's Hard
Source:Oniichan dakedo Ai sae Areba Kankeinai yo ne!
Tags:onii-ai ending [kirisame-marisa] yia Potential Silver Link. Kido Ibuki Chihara Minori Shimoda Asami Kitamura Eri
BeatmapID:202861
BeatmapSetID:69361

[Difficulty]
HPDrainRate:6
CircleSize:4
OverallDifficulty:6
ApproachRate:8
SliderMultiplier:1.5
SliderTickRate:1

[Events]
//Background and Video events
0,0,"oniichandakedo.jpg"
Video,0,"video.avi"
//Break Periods
//Storyboard Layer 0 (Background)
//Storyboard Layer 1 (Fail)
//Storyboard Layer 2 (Pass)
//Storyboard Layer 3 (Foreground)
//Storyboard Sound Samples
//Background Colour Transformations
3,100,163,162,255

[TimingPoints]
150,333.333333333333,4,2,1,70,1,0
10816,-100,4,2,2,70,0,0
21483,-200,4,1,0,40,0,0
21566,-200,4,2,2,70,0,0
28816,-100,4,2,2,70,0,0
41483,-100,4,2,1,70,0,0
46149,-100,4,1,0,40,0,0
46566,-100,4,2,1,70,0,0
52149,-100,4,2,2,70,0,0
57316,-100,4,2,2,5,0,0
58316,-100,4,2,2,70,0,0
58649,-100,4,2,2,70,0,1
69149,-100,4,2,2,70,0,0
69483,-100,4,2,2,70,0,1
80149,-100,4,2,1,70,0,0

[Colours]
Combo1 : 255,255,62
Combo2 : 255,128,0
Combo3 : 255,0,128
Combo4 : 255,96,255

[HitObjects]
276,268,150,2,0,P|312:244|312:244|340:188,1,75,4|0,0:0|0:0,0:0:0
232,120,483,2,0,P|196:144|196:144|168:200,1,75,8|0,0:0|0:0,0:0:0
256,192,816,1,0,0:0:0
192,248,983,2,0,P|116:240|116:240|104:236,1,75,0|8,0:0|0:0,0:0:0
320,136,1316,2,0,P|396:144|396:144|408:148,1,75,0|0,0:0|0:0,0:0:0
468,160,1649,1,0,0:0:0
420,220,1816,2,0,P|320:208,1,75,8|0,0:0|0:0,0:0:0
276,264,2149,6,0,P|252:184,1,75,0|0,0:0|0:0,0:0:0
232,120,2483,2,0,P|260:216,1,75,8|0,0:0|0:0,0:0:0
172,76,2816,6,0,P|92:88,1,75,4|0,0:0|0:0,0:0:0
80,160,3150,2,0,P|180:148,1,75,8|0,0:0|0:0,0:0:0
232,120,3483,1,0,0:0:0
304,148,3650,2,0,P|384:136,1,75,0|8,0:0|0:0,0:0:0
396,64,3983,2,0,P|296:76,1,75,0|0,0:0|0:0,0:0:0
252,44,4316,1,0,0:0:0
232,120,4483,2,0,P|208:216,1,75,8|0,0:0|0:0,0:0:0
164,248,4816,6,0,P|76:232,1,75,0|0,0:0|0:0,0:0:0
236,264,5149,2,0,P|328:284,1,75,8|0,0:0|0:0,0:0:0
384,296,5483,5,4,0:0:0
360,224,5649,2,0,P|412:224|448:260,2,75,0|8|0,0:0|0:0|0:0,0:0:0
384,296,6149,1,8,0:0:0
412,364,6316,2,0,P|360:364|324:328,2,75,0|8|0,0:0|0:0|0:0,0:0:0
460,308,6816,1,8,0:0:0
508,248,6983,2,0,P|508:208|508:208|480:172,1,75,0|8,0:0|0:0,0:0:0
476,108,7316,5,0,0:0:0
416,152,7483,1,8,0:0:0
340,152,7649,1,0,0:0:0
268,132,7816,1,8,0:0:0
208,88,7983,1,0,0:0:0
164,28,8149,5,4,0:0:0
256,312,8816,1,4,0:0:0
348,28,9483,2,0,P|420:48|496:28,2,150,4|4|4,0:0|0:0|0:0,0:0:0
272,28,10316,1,0,0:0:0
196,48,10483,2,0,P|160:44|104:52,1,75
48,36,10816,6,0,P|76:104|160:112,1,150,4|8,0:0|0:0,0:0:0
220,128,11316,2,0,P|292:108|380:136,1,150
384,196,11816,1,8,0:0:0
360,268,11983,2,0,P|288:288|200:260,1,150
176,200,12483,2,0,P|136:192|92:204,1,75,8|0,0:0|0:0,0:0:0
64,284,12816,2,0,P|104:292|148:280,2,75,0|0|8,0:0|0:0|0:0,0:0:0
16,216,13316,1,0,0:0:0
52,144,13483,6,0,P|80:108|80:108|72:28|160:16,1,150,4|8,0:0|0:0,0:0:0
156,92,13983,2,0,P|224:120|300:80,1,150,0|0,0:0|0:0,0:0:0
336,32,14483,1,8,0:0:0
412,28,14649,2,0,P|492:60,1,75,0|8,0:0|0:0,0:0:0
460,128,14983,2,0,P|376:92,2,75,0|8|0,0:0|0:0|0:0,0:0:0
456,204,15483,2,0,P|456:304,1,75,4|8,0:0|0:0,0:0:0
376,356,15816,2,0,P|376:256,1,75,4|8,0:0|0:0,0:0:0
336,176,16150,6,0,P|264:160|176:184,1,150,4|8,0:0|0:0,0:0:0
260,264,16650,2,0,P|188:280|100:256,1,150
48,300,17150,1,8,0:0:0
40,224,17316,2,0,P|40:44,1,150,0|0,0:0|0:0,0:0:0
116,76,17816,2,0,P|116:180,1,75,8|0,0:0|0:0,0:0:0
188,172,18150,2,0,P|188:84,1,75
260,76,18483,2,0,P|260:164,1,75,8|0,0:0|0:0,0:0:0
336,144,18816,6,0,P|420:144,1,75,4|0,0:0|0:0,0:0:0
433,215,19149,2,0,P|345:215,1,75,0|4,0:0|0:0,0:0:0
332,360,19650,6,0,P|248:360,1,75
180,360,19983,1,4,0:0:0
256,100,20316,5,4,0:0:0
176,144,20483,1,4,0:0:0
256,188,20649,1,4,0:0:0
336,144,20816,1,4,0:0:0
28,148,21483,6,0,P|64:140|104:148,1,75,4|2,0:0|0:0,0:0:0
140,212,22149,2,0,P|104:220|64:212,1,75,0|2,0:0|0:0,0:0:0
76,288,22816,1,0,0:0:0
152,292,23149,1,2,0:0:0
216,252,23483,2,0,P|256:228,1,37.5,2|0,0:0|0:0,0:0:0
228,328,23816,2,0,P|268:304,1,37.5,2|0,0:0|0:0,0:0:0
320,360,24149,6,0,P|356:368|400:356,1,75,0|2,0:0|0:0,0:0:0
356,296,24816,2,0,P|392:288|436:300,1,75,0|2,0:0|0:0,0:0:0
472,360,25483,1,0,0:0:0
504,292,25816,1,2,0:0:0
480,220,26149,2,0,P|448:192,1,37.5,2|0,0:0|0:0,0:0:0
488,132,26483,2,0,P|456:100,1,37.5,2|0,0:0|0:0,0:0:0
400,52,26816,6,0,P|360:44|328:52,1,75,0|2,0:0|0:0,0:0:0
360,120,27483,2,0,P|320:128|288:120,1,75,0|2,0:0|0:0,0:0:0
244,56,28149,1,0,0:0:0
168,44,28483,1,2,0:0:0
108,88,28816,2,0,P|24:88,2,75
20,172,29316,6,0,P|112:172,1,75,4|0,0:0|0:0,0:0:0
168,224,29649,2,0,P|268:224,1,75,4|0,0:0|0:0,0:0:0
304,292,29983,2,0,P|412:292,1,75,4|0,0:0|0:0,0:0:0
432,364,30316,2,0,P|528:364,1,75,4|0,0:0|0:0,0:0:0
496,276,30649,2,0,P|496:112,1,150,4|4,0:0|0:0,0:0:0
372,44,31316,2,0,P|328:36|296:44,1,75,4|0,0:0|0:0,0:0:0
340,124,31649,2,0,P|296:132|264:124,1,75,8|8,0:0|0:0,0:0:0
176,120,31983,1,0,0:0:0
140,40,32149,6,0,P|72:48|44:136,1,150,4|8,0:0|0:0,0:0:0
20,264,32816,2,0,P|60:188|88:216,1,150,0|8,0:0|0:0,0:0:0
132,260,33316,1,0,0:0:0
192,304,33483,2,0,P|268:320|360:300,2,150,0|8|0,0:0|0:0|0:0,0:0:0
200,228,34316,2,0,P|224:152,1,75,0|8,0:0|0:0,0:0:0
472,68,34816,6,0,P|400:56|312:72,2,150,0|8|0,0:0|0:0|0:0,0:0:0
312,156,35816,2,0,P|288:232,1,75,8|0,0:0|0:0,0:0:0
312,300,36149,2,0,P|264:312|228:320,1,75
216,244,36483,1,8,0:0:0
168,304,36649,2,0,P|92:324|8:304,1,150,0|0,0:0|0:0,0:0:0
22,311,37149,1,8,0:0:0
176,68,37483,5,0,0:0:0
252,68,37649,2,0,P|344:68,1,75,0|8,0:0|0:0,0:0:0
404,68,37983,1,0,0:0:0
288,164,38316,2,0,P|380:164,1,75,0|8,0:0|0:0,0:0:0
440,164,38649,1,0,0:0:0
324,260,38983,2,0,P|416:260,2,75,0|8|0,0:0|0:0|0:0,0:0:0
320,352,39483,2,0,P|220:352,2,75,0|0|8,0:0|0:0|0:0,0:0:0
176,332,40150,6,0,P|108:312|40:252,1,150,4|8,0:0|0:0,0:0:0
100,120,40816,2,0,P|168:140|236:200,1,150,0|8,0:0|0:0,0:0:0
332,40,41483,6,0,P|440:40,1,75,4|0,0:0|0:0,0:0:0
411,117,41816,2,0,P|311:117,1,75,8|0,0:0|0:0,0:0:0
430,233,42316,2,0,P|479:299,1,75,0|8,0:0|0:0,0:0:0
415,339,42650,2,0,P|356:259,1,75
328,215,42983,1,0,0:0:0
289,278,43150,2,0,P|191:278,1,75,8|0,0:0|0:0,0:0:0
138,280,43483,5,0,0:0:0
60,196,43650,1,0,0:0:0
138,280,43816,1,8,0:0:0
60,196,43983,1,0,0:0:0
77,93,44150,6,0,P|160:54,1,75,4|0,0:0|0:0,0:0:0
197,114,44483,2,0,P|115:157,1,75,8|0,0:0|0:0,0:0:0
381,148,44983,2,0,P|315:114,1,75,0|8,0:0|0:0,0:0:0
367,61,45316,2,0,P|435:93,1,75
460,163,45650,2,0,P|409:248,1,75,0|8,0:0|0:0,0:0:0
346,221,45983,1,0,0:0:0
384,296,46150,6,2,P|344:296|344:296|314:338|284:296|284:296|245:337|228:296|228:296|173:295,1,225,2|0,0:0|0:0,0:0:0
127,337,46816,6,0,P|45:301|45:301|24:215,1,150,4|0,0:0|0:0,0:0:0
64,174,47316,1,0,0:0:0
30,106,47483,2,0,P|44:47|44:47|126:11,1,150,0|8,0:0|0:0,0:0:0
166,74,47983,1,0,0:0:0
240,77,48150,6,0,P|339:100|403:73,1,150,0|0,0:0|0:0,0:0:0
440,37,48650,2,0,P|481:101,1,75
432,158,48983,2,0,P|473:222,1,75,0|8,0:0|0:0,0:0:0
431,284,49316,1,0,0:0:0
368,212,49483,6,0,P|292:201|201:215,1,150
144,272,49983,1,0,0:0:0
220,332,50150,2,0,P|296:343|387:329,1,150,0|8,0:0|0:0,0:0:0
456,208,50816,2,0,P|473:106,1,75,4|0,0:0|0:0,0:0:0
392,144,51150,2,0,P|407:47,1,75,4|0,0:0|0:0,0:0:0
316,160,51483,2,0,P|328:86,1,75,4|0,0:0|0:0,0:0:0
252,112,51816,2,0,P|267:15,1,75,4|0,0:0|0:0,0:0:0
187,47,52150,6,0,P|105:43|32:73,2,150,4|8|0,0:0|0:0|0:0,0:0:0
171,120,52983,2,0,P|108:196,1,75,0|8,0:0|0:0,0:0:0
52,178,53316,2,0,P|72:230|180:214,1,150
232,234,53816,2,0,P|308:224|394:240,1,150,8|0,0:0|0:0,0:0:0
432,184,54316,2,0,P|484:192|523:175,1,75,0|8,0:0|0:0,0:0:0
468,120,54650,5,0,0:0:0
392,120,54816,2,0,P|364:60|304:104,2,150,4|8|0,0:0|0:0|0:0,0:0:0
432,184,55650,2,0,P|427:227|434:273,1,75,0|8,0:0|0:0,0:0:0
256,192,55983,12,0,57316,0:0:0
45,35,58316,6,0,P|96:110,1,75,0|0,0:0|0:0,0:0:0
57,165,58650,2,0,P|131:177|212:160,1,150,4|0,0:0|0:0,0:0:0
251,104,59150,1,8,0:0:0
272,31,59316,2,0,P|348:42|348:42|397:100,1,150
448,152,59816,1,8,0:0:0
467,301,59983,6,0,P|434:232|376:288,1,150,4|0,0:0|0:0,0:0:0
336,316,60483,2,0,P|364:336|404:328,1,75,8|0,0:0|0:0,0:0:0
381,255,60816,1,0,0:0:0
307,247,60983,1,0,0:0:0
238,216,61150,1,8,0:0:0
167,189,61316,6,0,P|200:120|258:176,1,150,4|0,0:0|0:0,0:0:0
238,216,61816,2,0,P|212:322,1,75,8|0,0:0|0:0,0:0:0
147,270,62150,2,0,P|129:342,2,75,0|0|8,0:0|0:0|0:0,0:0:0
94,216,62650,1,0,0:0:0
82,141,62816,5,4,0:0:0
201,51,63150,1,4,0:0:0
350,57,63483,1,4,0:0:0
224,140,63816,1,4,0:0:0
432,224,64150,6,0,P|340:204|344:176,2,150,4|8|0,0:0|0:0|0:0,0:0:0
412,152,64983,2,0,P|448:76,1,75,0|8,0:0|0:0,0:0:0
384,40,65316,1,0,0:0:0
308,44,65483,2,0,P|236:28|156:48,2,150,4|8|0,0:0|0:0|0:0,0:0:0
268,108,66316,2,0,P|224:128|196:156,1,75,0|8,0:0|0:0,0:0:0
60,108,66816,5,4,0:0:0
32,216,66983,1,0,0:0:0
88,312,67150,1,0,0:0:0
196,352,67316,2,0,P|268:360|356:332,1,150,4|4,0:0|0:0,0:0:0
452,236,67983,2,0,P|380:228|292:256,2,150,4|4|4,0:0|0:0|0:0,0:0:0
388,100,68983,6,0,P|428:32,2,75
328,56,69483,2,0,P|248:80,1,75,4|0,0:0|0:0,0:0:0
188,44,69816,2,0,P|88:72,1,75,8|0,0:0|0:0,0:0:0
108,140,70150,2,0,P|24:160,2,75,0|0|8,0:0|0:0|0:0,0:0:0
180,120,70650,6,0,P|240:152|328:128,1,150,4|0,0:0|0:0,0:0:0
380,176,71150,2,0,P|484:208,1,75,8|0,0:0|0:0,0:0:0
456,272,71483,2,0,P|372:248,1,75
312,224,71816,1,8,0:0:0
320,300,71983,6,0,P|240:336|168:324,1,150,4|0,0:0|0:0,0:0:0
188,252,72483,2,0,P|136:264|112:284,1,75,8|0,0:0|0:0,0:0:0
104,352,72816,2,0,P|48:312|60:232,1,150,0|8,0:0|0:0,0:0:0
24,168,73316,1,0,0:0:0
56,100,73483,6,0,P|124:64|216:56,1,150,4|4,0:0|0:0,0:0:0
332,172,74149,2,0,P|264:208|172:216,1,150,4|4,0:0|0:0,0:0:0
340,292,74816,6,0,P|436:280|500:296,2,150,4|8|0,0:0|0:0|0:0,0:0:0
264,244,75650,1,0,0:0:0
200,180,75816,2,0,P|104:168|40:184,2,150,8|4|8,0:0|0:0|0:0,0:0:0
96,268,76816,6,0,P|140:260|188:280,1,75,0|0,0:0|0:0,0:0:0
204,336,77150,2,0,P|160:344|112:324,1,75,8|0,0:0|0:0,0:0:0
168,268,77483,2,0,P|244:256|320:268,1,150,4|8,0:0|0:0,0:0:0
448,340,78150,2,0,P|372:352|296:340,1,150,0|8,0:0|0:0,0:0:0
408,236,78816,6,0,P|448:232|492:216,1,75,4|0,0:0|0:0,0:0:0
436,160,79149,2,0,P|396:164|352:180,1,75,0|0,0:0|0:0,0:0:0
324,240,79483,1,0,0:0:0
256,208,79649,1,0,0:0:0
216,144,79816,1,0,0:0:0
216,144,80149,6,0,P|204:64,1,75,4|0,0:0|0:0,0:0:0
132,52,80483,2,0,P|144:152,1,75,8|0,0:0|0:0,0:0:0
172,204,80816,1,0,0:0:0
148,276,80983,2,0,P|160:356,1,75,0|8,0:0|0:0,0:0:0
232,340,81316,2,0,P|216:244,1,75,0|0,0:0|0:0,0:0:0
172,204,81649,1,0,0:0:0
96,196,81816,2,0,P|0:172,1,75,8|0,0:0|0:0,0:0:0
60,112,82149,6,0,P|76:24,1,75,0|0,0:0|0:0,0:0:0
36,256,82483,2,0,P|16:348,1,75,8|0,0:0|0:0,0:0:0
96,196,82816,5,4,0:0:0
144,252,82983,2,0,P|232:268,1,75,0|8,0:0|0:0,0:0:0
292,280,83316,2,0,P|192:260,1,75
240,192,83649,1,0,0:0:0
224,120,83816,2,0,P|252:24,1,75,8|0,0:0|0:0,0:0:0
316,68,84149,2,0,P|288:160,1,75
240,192,84483,2,0,P|336:212,1,75,8|0,0:0|0:0,0:0:0
408,120,84816,6,0,P|388:200,1,75,0|0,0:0|0:0,0:0:0
348,336,85149,2,0,P|372:248,1,75,8|0,0:0|0:0,0:0:0
444,252,85483,6,0,P|488:88,1,150,4|0,0:0|0:0,0:0:0
500,36,85983,1,0,0:0:0
352,48,86316,2,0,P|280:32|280:32|192:52,1,150,4|0,0:0|0:0,0:0:0
204,124,86816,2,0,P|276:140|276:140|364:120,2,150,4|0|4,0:0|0:0|0:0,0:0:0
276,256,87816,2,0,P|276:344,1,75,0|4,0:0|0:0,0:0:0
