osu file format v9

[General]
AudioFilename: Lilpri Opening.mp3
AudioLeadIn: 2000
PreviewTime: 54100
Countdown: 0
SampleSet: Normal
StackLeniency: 0.7
Mode: 0
LetterboxInBreaks: 0

[Editor]
DistanceSpacing: 1.4
BeatDivisor: 4
GridSize: 8

[Metadata]
Title:Happy Go Lucky (TV Size)
Artist:LilPri
Creator:Kawayi Rika
Version:Rika
Source:Hime Chen! Otogi Chikku Idol Lilpri
Tags:phonic Elize KanaRin opening

[Difficulty]
HPDrainRate:7
CircleSize:4
OverallDifficulty:7
ApproachRate:8
SliderMultiplier:1.6
SliderTickRate:1

[Events]
//Background and Video events
Video,0,"Video.flv"
0,0,"BG.jpg"
//Break Periods
//Storyboard Layer 0 (Background)
//Storyboard Layer 1 (Fail)
//Storyboard Layer 2 (Pass)
//Storyboard Layer 3 (Foreground)
//Storyboard Sound Samples
//Background Colour Transformations
3,100,163,162,255

[TimingPoints]
100,375,4,2,1,80,1,0
10506,-100,4,2,2,70,0,0
12006,-100,4,1,1,70,0,0
47256,-100,4,2,2,70,0,0
47443,-100,4,1,1,70,0,0
47912,-100,4,2,2,70,0,0
48006,-100,4,1,1,70,0,0
50256,-100,4,2,2,70,0,0
50443,-100,4,1,1,70,0,0
50912,-100,4,2,2,70,0,0
51006,-100,4,1,1,70,0,0
53256,-100,4,2,2,70,0,0
53443,-100,4,1,1,70,0,0
53912,-100,4,2,2,70,0,0
54006,-100,4,1,1,70,0,0
55600,-100,4,1,1,70,0,1
87100,-100,4,2,2,70,0,1
88412,-100,4,2,2,70,0,0

[Colours]
Combo1 : 169,24,239
Combo2 : 236,34,130
Combo3 : 26,233,238

[HitObjects]
256,64,100,1,4
400,192,475,1,8
256,320,850,1,0
112,192,1225,1,8
112,192,1412,2,0,B|152:160|224:224|280:184,1,160,0|0
336,120,1975,1,8
480,248,2350,6,0,B|436:324,1,80
256,248,2725,2,0,B|296:317,1,80,8|0
117,328,3100,6,0,B|256:248,1,160,4|8
336,192,3662,1,0
431,74,3850,2,0,B|416:168|336:192,1,160,0|8
256,136,4412,1,0
256,136,4600,2,0,B|192:152|192:152|152:112|96:136,1,160,4|8
128,224,5162,1,0
128,224,5256,1,0
128,224,5350,2,0,B|224:296,1,120,0|0
248,312,5725,1,8
336,344,5912,1,0
392,264,6100,6,0,B|440:200|424:104,1,160,4|8
296,64,6662,1,0
296,64,6850,2,0,B|263:58|231:34|231:34|150:66,1,160,0|8
1,67,7412,2,0,B|35:73|67:97|67:97|148:66,1,160
168,208,7975,1,8
168,208,8162,1,0
360,152,8350,6,0,B|390:139|390:139|414:99,1,80
360,232,8725,2,0,B|390:244|390:244|414:284,1,80,8|0
296,192,9100,5,4
192,296,9287,1,0
88,192,9475,1,8
88,192,9568,1,0
88,192,9662,1,0
192,88,9850,2,0,B|192:176,1,80
192,88,10225,2,0,B|225:54,2,40,8|0|0
440,40,10600,5,4
328,136,10787,1,4
472,128,10975,1,4
352,48,11162,1,4
352,48,11256,1,4
352,48,11350,1,4
408,192,11537,1,4
408,192,11725,1,4
400,112,11912,1,4
400,112,12100,6,0,B|352:184,1,80,4|0
259,330,12475,2,0,B|304:264,1,80,8|0
259,330,12850,1,0
160,320,13037,1,0
88,256,13225,1,8
16,120,13412,6,0,B|54:135|94:127,1,80
84,47,13787,2,0,B|100:86|94:126,1,80,0|8
85,203,14162,2,0,B|77:163|94:125,1,80
171,114,14537,2,0,B|131:106|93:124,1,80,0|8
200,232,14912,5,8
280,288,15100,1,0
368,256,15287,1,0
440,184,15475,2,0,B|383:240,1,80,8|0
336,160,15850,2,0,B|256:160,1,80
179,145,16225,2,0,B|227:145|227:145|256:160,1,80,8|0
256,312,16600,6,0,B|256:232,1,80
160,240,16975,1,8
112,320,17162,1,0
112,320,17350,2,0,B|32:280|56:192|104:168,1,160,0|8
136,104,17912,1,8
216,48,18100,6,0,B|256:32|304:48,1,80,4|0
328,152,18475,1,8
408,80,18662,1,0
328,152,18850,1,0
408,80,19037,1,0
424,192,19225,2,0,B|501:212,1,80,8|0
432,296,19600,6,0,B|354:275,1,80
219,352,19975,2,0,B|250:322|250:322|314:306|314:306|354:275,1,160,8|0
344,256,20443,1,0
336,232,20537,1,0
424,192,20725,1,8
416,168,20818,1,0
408,144,20912,1,8
344,48,21100,5,0
256,120,21287,1,0
144,144,21475,1,8
72,232,21662,1,0
32,128,21850,1,0
16,240,22037,1,0
120,200,22225,1,8
136,88,22412,1,0
256,192,22600,5,0
256,192,22693,1,0
256,192,22787,1,4
320,280,22975,1,8
192,88,23162,2,0,B|272:88,1,80
368,80,23537,1,4
456,112,23725,1,8
440,128,23818,1,0
424,144,23912,1,8
400,240,24100,6,0,B|433:270|473:262,1,80,4|0
320,280,24475,2,0,B|286:249|246:257,1,80,8|0
166,257,24850,2,0,B|246:257,1,80
336,144,25225,2,0,B|256:144,1,80,8|0
256,32,25600,6,0,B|176:32,1,80
121,87,25975,2,0,B|137:47|176:32,1,80,8|0
184,144,26350,1,0
168,168,26443,1,0
152,192,26537,1,0
48,328,26725,1,8
64,304,26819,1,0
80,280,26912,1,8
224,280,27100,6,0,B|160:280|160:280|136:248,1,80,4|0
224,280,27475,2,0,B|288:280|288:280|312:312,1,80,8|0
368,360,27850,1,0
448,304,28037,1,0
448,304,28131,1,0
448,304,28225,1,8
432,208,28412,2,0,B|480:136|464:56,1,160,0|4
336,200,28975,1,8
336,200,29162,6,0,B|304:224,2,40,0|0|4
256,144,29537,1,0
256,144,29631,1,0
256,144,29725,1,8
208,224,29912,1,8
72,280,30100,5,4
24,192,30287,1,0
24,192,30381,1,0
24,192,30475,1,8
64,104,30662,1,0
144,56,30850,2,0,B|184:40|232:56,1,80
278,109,31225,2,0,B|222:53,1,80,8|0
278,109,31600,6,0,B|358:109,1,80
240,216,31975,2,0,B|160:216,1,80,8|0
64,216,32350,1,0
64,216,32443,1,0
64,216,32537,1,0
336,216,32725,1,8
336,216,32912,1,8
448,312,33100,5,4
488,224,33287,1,0
400,264,33475,1,8
440,176,33662,1,0
424,160,33756,1,0
408,144,33850,1,0
256,88,34037,2,0,B|294:72|333:88,2,80,0|8|0
136,192,34600,5,0
216,328,34787,1,2
200,304,34881,1,0
184,280,34975,1,10
256,216,35162,2,0,B|256:136,1,80,0|0
296,328,35537,1,2
312,304,35631,1,0
328,280,35725,1,10
392,192,35912,6,0,B|424:152|472:160,1,80,0|4
376,88,36287,1,0
352,88,36381,1,0
328,88,36475,2,0,B|280:88|280:88|224:72|224:72|168:72,1,160,8|0
88,152,37037,1,0
192,184,37225,2,0,B|144:256|56:264,1,160,8|0
168,304,37787,1,0
168,304,37975,2,0,B|328:304,1,160,8|0
344,288,38443,1,0
360,272,38537,1,8
440,192,38725,1,8
360,112,38912,1,0
208,72,39100,6,0,B|200:168|112:192,1,160,0|8
208,256,39662,1,0
208,256,39756,1,0
208,256,39850,2,0,B|232:232|232:232|256:192|256:192|280:232|280:232|320:272,1,160,0|8
392,192,40412,1,0
392,192,40600,2,0,B|309:169|304:72,1,160,0|8
200,40,41162,1,0
96,88,41350,1,0
56,192,41537,1,8
56,192,41631,1,0
56,192,41725,2,0,B|136:192,1,80,8|0
224,264,42100,6,0,B|288:208|392:216,1,160,4|8
480,192,42662,1,0
480,192,42850,2,0,B|402:155|375:75,1,160,0|8
232,56,43412,2,0,B|200:24,2,40
144,128,43787,1,0
192,232,43975,2,0,B|256:280|256:280|328:224,1,160,8|0
352,160,44475,5,0
384,92,44600,1,0
460,92,44725,1,0
488,160,44850,1,0
460,228,44975,1,0
460,228,45100,6,0,B|444:268|412:292,1,80,4|0
336,352,45475,1,8
240,344,45662,1,0
240,344,45756,1,0
240,344,45850,2,0,B|144:320|136:232,1,160,0|8
88,152,46412,1,0
88,152,46600,2,0,B|144:128|144:128|176:168|232:168,1,160,0|8
328,160,47162,1,0
400,248,47350,5,4
376,248,47443,1,0
352,248,47537,1,0
328,248,47631,1,0
304,248,47725,1,8
280,248,47818,1,0
256,248,47912,1,4
104,296,48100,6,0,B|128:264|128:264|168:248,1,80,4|0
165,249,48475,2,0,B|165:89,1,160,8|0
256,24,49037,1,0
256,48,49131,1,0
256,72,49225,1,8
368,88,49412,1,0
480,80,49600,2,0,B|475:34|443:10,2,80,0|0|8
432,176,50162,1,0
360,256,50350,5,4
343,272,50444,1,0
326,289,50537,1,0
309,306,50631,1,0
292,323,50725,1,8
275,340,50819,1,0
258,357,50912,1,4
112,352,51100,6,0,B|152:368|192:336,1,80,4|0
112,256,51475,2,0,B|76:227|36:243,1,80,8|0
37,243,51850,2,0,B|37:83,1,160,0|8
144,48,52412,1,0
160,64,52506,1,0
176,80,52600,1,0
256,152,52787,1,0
336,80,52975,2,0,B|376:80|416:152|376:216,1,160,8|4
360,232,53443,5,0
344,248,53537,1,0
320,256,53631,1,0
296,256,53725,1,8
272,248,53818,1,0
256,232,53912,1,4
256,192,54100,12,4,55225
144,232,55600,5,4
32,256,55787,1,0
32,256,55975,2,0,B|48:344|152:352,1,160,8|0
256,256,56537,1,0
256,256,56631,1,0
256,256,56725,1,8
384,192,56912,1,0
384,192,57100,2,0,B|371:152|331:135,2,80,0|0|8
176,132,57662,2,0,B|256:98|331:135,1,160
256,224,58225,6,0,B|256:304,2,80,8|0|0
144,224,58787,1,0
144,224,58881,1,0
144,224,58975,1,8
48,168,59162,1,0
104,72,59350,1,0
216,48,59537,2,0,B|256:40|256:40|296:48,1,80,0|8
418,147,59912,6,0,B|294:47,1,160,0|4
294,47,60381,1,0
294,47,60475,1,8
256,152,60662,2,0,B|256:192,2,40
256,296,61037,1,0
360,192,61225,1,8
152,192,61412,1,0
64,80,61600,6,0,B|144:80,1,80,4|0
448,80,61975,2,0,B|368:80,1,80,8|0
256,80,62350,1,0
256,192,62537,1,0
256,192,62631,1,0
256,192,62725,1,8
200,288,62912,1,0
200,288,63100,6,0,B|232:312|232:312|360:312,1,160,0|8
448,256,63662,1,0
448,144,63850,2,0,B|448:96|448:96|472:56,1,80
472,48,64131,1,0
448,48,64225,2,0,B|368:48,1,80,8|0
144,48,64600,5,6
48,112,64787,1,0
48,224,64975,2,0,B|88:304|192:296,1,160,10|2
256,216,65537,1,2
336,296,65725,1,6
416,216,65912,1,0
440,216,66006,1,0
464,216,66100,5,2
464,80,66287,1,0
352,56,66475,1,2
256,112,66662,1,0
106,150,66850,2,0,B|185:166|256:112,1,160,2|2
256,112,67412,2,0,B|304:136,2,40,0|0|4
384,176,67787,5,0
408,192,67881,1,0
432,208,67975,1,8
472,312,68162,2,0,B|432:328|392:312,1,80
296,256,68537,1,0
184,256,68725,2,0,B|70:142,1,160,8|0
144,56,69287,1,0
168,56,69381,1,0
192,56,69475,1,8
256,144,69662,1,0
320,56,69850,2,0,B|360:40|400:56,2,80,0|0|8
448,128,70412,6,0,B|448:168,2,40
448,240,70787,1,0
344,192,70975,1,8
256,264,71162,1,0
256,264,71256,1,0
256,264,71350,2,0,B|216:264|216:264|136:248|136:248|88:248,1,160,0|8
256,352,71912,6,0,B|294:352|294:352|374:368|374:368|414:368,1,160
414,368,72381,1,0
414,368,72475,1,8
480,280,72662,1,0
480,280,72850,1,0
424,184,73037,1,0
424,184,73131,1,0
424,184,73225,1,8
312,208,73412,1,0
208,104,73600,6,0,B|176:72|136:72,1,80,4|0
64,200,73975,2,0,B|96:168|136:168,1,80,8|0
176,272,74350,2,0,B|216:272|216:272|256:296|296:272|296:272|336:272,1,160,0|8
376,168,74912,5,0
376,56,75100,1,0
376,168,75287,1,0
376,56,75475,1,8
176,112,75662,2,0,B|216:112|216:112|256:88|296:112|296:112|331:112,1,160
256,192,76225,1,8
256,336,76412,6,0,B|256:376,2,40,0|0|6
144,320,76787,1,0
144,320,76975,2,0,B|168:224|88:176,1,160,2|2
32,88,77537,1,0
144,80,77725,1,2
256,80,77912,1,0
256,80,78006,1,0
256,80,78100,2,0,B|416:80,1,160,2|2
440,192,78662,1,0
390,330,78850,2,0,B|366:235|440:192,1,160,2|2
440,192,79412,6,0,B|480:192,2,40,0|0|6
360,112,79787,1,0
360,112,79975,2,0,B|288:64|208:112,1,160,2|2
136,192,80537,1,0
192,288,80725,1,2
256,192,80912,1,0
256,192,81006,1,0
256,192,81100,6,0,B|336:192,1,80,2|0
416,192,81475,2,0,B|336:192,1,80,2|0
336,272,81850,2,0,B|336:192,1,80,2|0
336,112,82225,2,0,B|336:192,1,80,2|0
256,344,82600,5,4
496,192,82975,1,8
256,40,83350,1,0
16,192,83725,1,8
256,80,84100,6,0,B|232:48|184:32|128:48|104:96,1,160,4|8
256,192,84662,1,0
257,306,84850,2,0,B|272:336|328:352|384:336|396:305,1,160,0|8
120,256,85412,2,0,B|86:289,2,40
48,128,85787,5,0
88,24,85975,1,8
160,112,86162,1,0
256,48,86350,2,0,B|325:87,1,80
485,191,86725,2,0,B|416:152,1,80,8|0
320,200,87100,5,4
256,288,87287,1,4
256,288,87381,1,4
256,288,87475,1,4
144,352,87662,5,4
368,352,87850,1,4
256,160,88037,1,4
256,288,88412,5,4
