osu file format v9

[General]
AudioFilename: Lilpri Opening.mp3
AudioLeadIn: 2000
PreviewTime: 54100
Countdown: 0
SampleSet: Normal
StackLeniency: 0.7
Mode: 0
LetterboxInBreaks: 0

[Editor]
DistanceSpacing: 1
BeatDivisor: 4
GridSize: 8

[Metadata]
Title:Happy Go Lucky (TV Size)
Artist:LilPri
Creator:Kawayi Rika
Version:Easy
Source:Hime Chen! Otogi Chikku Idol Lilpri
Tags:phonic Elize KanaRin opening

[Difficulty]
HPDrainRate:2
CircleSize:3
OverallDifficulty:2
ApproachRate:3
SliderMultiplier:1
SliderTickRate:1

[Events]
//Background and Video events
Video,0,"Video.flv"
0,0,"BG.jpg"
//Break Periods
//Storyboard Layer 0 (Background)
//Storyboard Layer 1 (Fail)
//Storyboard Layer 2 (Pass)
//Storyboard Layer 3 (Foreground)
//Storyboard Sound Samples
//Background Colour Transformations
3,100,163,162,255

[TimingPoints]
100,375,4,2,1,80,1,0
9756,-100,4,2,2,80,0,0
9943,-100,4,2,1,80,0,0
10506,-100,4,2,2,70,0,0
12006,-100,4,1,1,70,0,0
17162,-100,4,2,2,70,0,0
17537,-100,4,1,1,70,0,0
26162,-100,4,2,2,70,0,0
26537,-100,4,1,1,70,0,0
37506,-100,4,2,2,70,0,0
37693,-100,4,1,1,70,0,0
38256,-100,4,2,2,70,0,0
38443,-100,4,1,1,70,0,0
40506,-100,4,2,2,70,0,0
40693,-100,4,1,1,70,0,0
41256,-100,4,2,2,70,0,0
41443,-100,4,1,1,70,0,0
47256,-100,4,2,2,70,0,0
48006,-100,4,1,1,70,0,0
50256,-100,4,2,2,70,0,0
51006,-100,4,1,1,70,0,0
53256,-100,4,2,2,70,0,0
54006,-100,4,1,1,70,0,0
55600,-100,4,1,1,70,0,1
57006,-100,4,2,2,70,0,1
57193,-100,4,1,1,70,0,1
60756,-100,4,2,2,70,0,1
60943,-100,4,1,1,70,0,1
72756,-100,4,2,2,70,0,1
72943,-100,4,1,1,70,0,1
77631,-100,4,2,2,70,0,1
77818,-100,4,1,1,70,0,1
79881,-100,4,2,2,70,0,1
80068,-100,4,1,1,70,0,1
88412,-100,4,2,2,70,0,0

[Colours]
Combo1 : 169,24,239
Combo2 : 236,34,130
Combo3 : 26,233,238

[HitObjects]
128,192,100,1,4
256,40,850,1,2
384,192,1600,1,2
256,344,2350,6,0,B|296:376|352:368,2,100,2|8|2
256,144,3850,1,2
80,48,4600,2,0,B|40:144|80:248,1,200,4|0
160,304,5725,1,8
256,320,6100,6,0,B|360:320|440:240,1,200,4|0
440,144,7225,2,0,B|440:40,2,100,8|0|8
344,144,8350,2,0,B|344:40,2,100,0|8|4
256,96,9475,2,0,B|160:56|56:96,1,200,8|8
56,192,10600,6,0,B|64:248|120:272,1,100,4|4
160,272,11162,1,4
208,272,11350,2,0,B|257:292|265:348,2,100,4|4|4
208,168,12475,6,0,B|256:192|304:168,2,100,8|0|8
128,232,13600,2,0,B|96:160|144:80|200:72,1,200,0|0
304,72,14725,6,0,B|352:72,2,50,8|0|0
256,160,15475,1,8
352,160,15850,2,0,B|408:160|448:208,2,100,0|8|0
360,256,16975,2,0,B|160:256,1,200,8|8
80,192,18100,6,0,B|24:176|8:120,2,100,4|8|0
104,96,19225,1,8
192,56,19600,2,0,B|296:48|384:104,1,200
464,40,20725,1,8
464,40,21100,6,0,B|384:96|362:209,1,200,4|0
408,296,22225,1,8
408,296,22600,2,0,B|464:296|464:296|504:272,2,100,0|8|0
304,296,23725,2,0,B|200:296,1,100,8|4
104,296,24475,6,0,B|26:359,1,100,8|0
16,256,25225,2,0,B|104:184,1,100,8|0
96,96,25975,2,0,B|144:96|144:96|240:128|240:128|296:128,1,200,8|8
288,32,27100,6,0,B|344:32|408:96|376:184,1,200,4|0
368,280,28225,1,8
280,328,28600,2,0,B|230:328,2,50,0|0|8
256,232,29350,2,0,B|256:184,1,50
256,32,30100,6,0,B|319:32|319:32|383:-8|447:40,1,200,4|0
448,136,31225,1,8
448,232,31600,2,0,B|384:279|320:239|320:239|257:239,1,200
168,192,32725,2,0,B|120:192,2,50,8|0|4
256,144,33475,5,8
344,96,33850,2,0,B|392:96,2,50,0|0|8
336,208,34600,2,0,B|304:256|248:256,1,100,2|2
176,192,35350,2,0,B|124:192|92:144,1,100,2|2
184,96,36100,6,0,B|152:48|101:48,2,100,4|8|0
256,32,37225,2,0,B|360:56|408:160,2,200,8|8|8
256,136,39100,5,4
256,240,39475,1,8
256,336,39850,1,0
256,336,40225,2,0,B|152:312|104:208,2,200,8|8|8
344,288,42100,6,0,B|448:288,1,100,4|8
392,192,42850,2,0,B|496:192,1,100,0|8
440,96,43600,2,0,B|340:96,2,100,0|8|0
240,192,45100,6,0,B|192:176|136:192,2,100,4|8|0
272,296,46225,2,0,B|320:312|376:296,2,100,8|0|8
160,296,47350,2,0,B|109:281|61:297,1,100,4|4
40,192,48100,6,0,B|24:144|38:93,1,100,4|8
136,48,48850,2,0,B|240:48,2,100,0|8|0
184,144,49975,1,8
136,240,50350,2,0,B|240:240,1,100,4|4
336,256,51100,6,0,B|376:280|376:280|400:336,2,100,4|8|0
416,192,52225,2,0,B|456:168|456:168|480:112,2,100,8|0|8
376,96,53350,2,0,B|336:72|336:72|312:16,1,100,4|4
256,192,54100,12,4,55600
256,320,56350,5,0
144,320,56725,2,0,B|32:312|0:200,1,200,8|8
72,120,57850,2,0,B|112:88|168:96,2,100,0|8|0
144,200,58975,6,0,B|184:240|248:232,1,100,8|0
256,128,59725,2,0,B|256:72,2,50,8|0|0
280,232,60475,2,0,B|480:232,1,200,8|8
448,336,61600,6,0,B|400:352|400:352|352:336,1,100,4|8
240,336,62350,2,0,B|192:320|192:320|144:336,1,100,0|8
56,272,63100,2,0,B|0:168|56:80,1,200
160,40,64225,1,8
160,152,64600,6,0,B|360:152,1,200,2|2
376,256,65725,1,10
280,312,66100,2,0,B|376:368|472:312,2,200,2|2|4
176,272,67975,6,0,B|72:272,1,100,8|0
136,184,68725,2,0,B|32:184,1,100,8|0
104,96,69475,2,0,B|0:96,2,100,8|0|8
216,96,70600,6,0,B|280:80|352:104|424:88,1,200,4|0
456,192,71725,2,0,B|480:240|480:240|456:288,1,100,8|0
360,240,72475,2,0,B|296:254|224:230|160:246,1,200,8|8
112,160,73600,6,0,B|56:136|48:72,1,100,4|8
152,64,74350,2,0,B|352:64,1,200
392,160,75475,2,0,B|448:136|456:72,2,100,8|0|8
472,224,76600,6,0,B|408:320,1,100,6|2
344,240,77350,2,0,B|296:240|256:200|256:200|216:240|160:240,1,200,2|2
88,304,78475,2,0,B|32:220,2,100,2|2|2
168,240,79600,6,0,B|328:112,1,200,6|2
392,184,80725,2,0,B|432:216|424:280,2,100,2|2|2
304,240,81850,2,0,B|255:264|207:240,1,100,2|2
256,152,82600,6,0,B|326:81,1,100,4|8
256,8,83350,2,0,B|185:78,1,100,0|8
256,192,84100,12,4,88412
