osu file format v7

[General]
AudioFilename: Shawty Get Loose.mp3
AudioLeadIn: 0
PreviewTime: 49304
Countdown: 0
SampleSet: Normal
StackLeniency: 0.7
Mode: 1
LetterboxInBreaks: 1

[Editor]
Bookmarks: 0,8347,33391,50086,66782,75130,91826,108521,125217,133565,150260,166956,183652,192000
DistanceSpacing: 0.800000011920929
BeatDivisor: 4
GridSize: 8

[Metadata]
Title:Shawty Get Loose
Artist:Lil Mama ft. Chris Brown & T-Pain
Creator:YGOkid8
Version:lepidon! - Taiko Oni
Source:
Tags:lepidopodus

[Difficulty]
HPDrainRate:7
CircleSize:6
OverallDifficulty:5
SliderMultiplier:1.4
SliderTickRate:2

[Events]
//Background and Video events
Video,-8600,"sgl.avi"
0,0,"lilmamashawty.jpg"
//Break Periods
//Storyboard Layer 0 (Background)
//Storyboard Layer 1 (Fail)
//Storyboard Layer 2 (Pass)
//Storyboard Layer 3 (Foreground)
//Storyboard Sound Samples
//Background Colour Transformations
3,100,163,162,255

[TimingPoints]
90,521.739130434783,4,1,1,100,1,0
50176,-100,4,1,1,100,0,1
66872,-100,4,1,1,100,0,0
108611,-100,4,1,1,100,0,1
125307,-100,4,1,1,100,0,0
167046,-100,4,1,1,100,0,1
183742,-100,4,1,1,100,0,0
192024,-100,4,2,1,90,0,0
194046,-100,4,2,1,80,0,0
196133,-100,4,2,1,70,0,0
198260,-100,4,2,0,59,0,0

[Colours]
Combo1 : 255,255,255
Combo2 : 108,108,108

[HitObjects]
168,160,8438,1,0
168,160,8568,1,0
168,160,8699,1,0
288,208,8960,1,0
320,296,9221,1,0
320,296,9481,1,0
320,296,9742,1,0
320,296,10003,1,0
408,176,10394,1,8
352,240,10525,1,0
296,296,10786,1,0
352,168,11047,1,8
352,320,11307,1,0
344,288,11568,1,4
344,288,12090,1,4
152,168,12612,1,0
152,168,12873,1,0
152,168,13003,1,0
152,168,13134,1,0
232,208,13394,1,0
232,208,13655,1,0
232,208,13786,1,0
232,208,13916,1,0
232,208,14177,1,0
208,128,14699,1,0
208,128,14829,1,0
208,128,14960,1,0
208,128,15221,1,0
208,128,15481,1,0
208,128,15742,1,0
208,128,16003,1,0
208,128,16264,1,4
440,168,16786,1,4
384,184,17307,1,8
360,296,17568,1,0
296,256,17829,1,0
192,176,17960,1,0
296,256,18090,1,0
416,160,18351,1,8
488,208,18612,1,0
384,208,18873,1,0
384,208,19003,1,0
384,208,19134,1,8
384,208,19264,1,8
384,208,19394,1,0
336,320,19655,1,0
304,248,19916,1,8
304,248,20047,1,8
304,248,20177,1,0
304,248,20438,1,8
304,248,20699,1,0
440,168,20960,1,0
168,144,21090,1,0
376,128,21221,1,8
376,128,21351,1,8
384,184,21481,1,0
360,296,21742,1,0
296,256,22003,1,0
224,240,22134,1,0
296,256,22264,1,0
416,160,22525,1,8
488,208,22786,1,0
384,208,23047,1,0
384,208,23177,1,0
384,208,23307,1,8
384,208,23438,1,8
384,208,23568,1,0
336,320,23829,1,0
304,248,24090,1,8
304,248,24221,1,8
304,248,24351,1,0
304,248,24612,1,8
304,248,24873,1,0
136,144,25134,5,0
424,160,25655,1,8
456,240,25916,1,0
368,256,26177,1,0
368,256,26307,1,0
368,256,26438,1,0
392,176,26699,1,8
448,144,26960,1,0
336,248,27221,1,0
336,248,27351,1,0
392,176,27481,1,8
392,176,27612,1,8
424,168,27742,1,0
424,168,28003,1,0
424,168,28264,1,8
424,168,28394,1,8
472,208,28525,1,0
472,208,28786,1,8
448,232,29047,1,12
320,272,29568,1,0
352,328,29699,1,0
360,176,29829,1,8
392,248,30090,1,0
368,256,30351,1,0
368,256,30481,1,0
368,256,30612,1,0
432,192,30873,1,8
480,184,31134,1,0
272,232,31394,1,0
272,232,31525,1,0
368,168,31655,1,8
368,168,31786,1,8
368,168,31916,1,8
432,192,32177,1,0
432,192,32438,1,8
432,192,32568,1,8
464,208,32699,1,0
424,224,32960,1,8
424,224,33221,1,0
344,160,33481,5,4
352,264,34003,1,8
368,192,34264,1,0
368,192,34525,1,0
368,192,34655,1,0
368,192,34786,1,0
432,192,35047,1,8
224,256,35307,1,0
208,144,35568,1,0
208,144,35699,1,0
376,144,35829,1,8
376,144,35960,1,8
464,168,36090,1,0
408,208,36351,1,0
392,240,36612,1,8
392,240,36742,1,8
392,240,36873,1,0
408,208,37134,1,8
392,192,37394,1,0
424,248,37916,1,0
368,176,38177,1,8
408,160,38438,1,0
336,296,38699,1,0
336,296,38829,1,0
336,296,38960,1,0
432,208,39221,1,8
456,192,39481,1,0
232,216,39742,5,0
232,216,39873,1,0
368,168,40003,1,8
368,168,40134,1,8
416,168,40264,1,0
200,152,40525,1,0
432,136,40786,1,8
432,136,40916,1,8
496,168,41047,1,0
464,216,41307,1,8
400,272,41568,1,0
160,272,41829,1,0
392,208,42351,1,8
440,176,42612,1,0
368,224,42873,1,0
368,224,43003,1,0
368,224,43134,1,0
472,160,43394,1,8
440,176,43655,1,0
304,272,43916,1,0
304,272,44047,1,0
368,176,44177,1,8
368,176,44307,1,8
464,184,44438,1,0
424,200,44699,1,0
464,184,44960,1,8
440,176,45090,1,8
464,184,45221,1,0
464,208,45481,1,8
424,200,45742,1,0
264,184,46003,1,0
264,184,46134,1,0
264,184,46264,1,0
264,184,46394,1,0
264,184,46525,1,0
336,320,46786,1,0
264,224,47047,1,0
264,224,47177,1,0
96,176,47307,1,0
264,224,47438,1,0
344,272,47568,1,0
168,208,47699,1,0
320,224,48090,1,0
320,224,48351,1,0
320,224,48481,1,0
320,224,48612,1,0
320,224,48873,1,0
200,160,49134,1,0
200,160,49264,1,0
224,120,49394,1,0
400,144,49655,1,12
400,144,49916,1,12
440,208,50177,5,4
392,192,50699,1,8
424,272,50960,1,0
424,272,51090,1,0
360,280,51351,1,0
360,280,51481,1,0
464,176,51742,1,8
280,272,52003,1,0
176,216,52264,1,0
176,216,52394,1,0
176,216,52525,1,0
176,216,52655,1,0
176,216,52786,1,0
328,288,53047,1,0
184,152,53307,1,0
184,152,53438,1,0
344,128,53568,1,0
344,128,53829,1,8
392,192,53960,1,8
368,144,54090,1,8
392,192,54221,1,8
384,216,54351,1,0
392,192,54873,1,0
232,240,55003,1,0
232,240,55264,1,0
256,144,55394,1,0
360,280,55655,1,0
224,152,55786,1,0
464,176,55916,1,8
280,272,56177,1,0
176,216,56438,1,0
176,216,56568,1,0
176,216,56699,1,0
176,216,56829,1,0
176,216,56960,1,0
328,288,57221,1,0
184,152,57481,1,0
184,152,57612,1,0
344,128,57742,1,0
344,128,58003,1,8
384,176,58134,1,8
368,144,58264,1,8
384,176,58394,1,8
464,208,58525,1,0
304,240,59047,1,12
328,328,59568,1,12
360,304,60090,1,12
360,304,60351,1,4
288,192,60612,1,8
288,192,60742,1,8
288,192,60873,1,8
288,192,61003,1,8
288,192,61134,1,8
416,232,61394,1,0
352,240,61655,1,12
400,144,62177,1,8
400,144,62307,1,8
400,144,62438,1,8
400,144,62568,1,8
416,272,62699,5,0
240,176,63221,1,8
240,176,63351,1,8
240,176,63612,1,8
240,176,63742,1,8
352,320,64003,1,8
352,320,64134,1,8
352,272,64264,1,8
400,144,64786,1,8
400,144,64916,1,8
400,144,65047,1,8
400,144,65177,1,8
400,144,65307,1,8
336,304,65568,1,8
336,304,65829,1,8
336,304,65960,1,8
336,304,66221,1,8
336,304,66351,1,8
352,264,66481,1,8
352,264,66612,1,8
352,160,66873,1,4
288,240,67134,1,0
280,176,67394,1,8
280,144,67655,1,8
448,112,67916,1,0
448,112,68177,1,0
416,256,68438,1,8
416,256,68699,1,8
136,216,68960,1,0
184,216,69220,1,0
424,176,69481,1,8
424,176,69742,1,8
360,192,70003,1,0
360,192,70264,1,0
464,168,70525,1,8
384,240,70786,1,0
288,304,71047,1,4
312,256,71307,1,0
384,160,71568,1,8
384,160,71829,1,8
488,192,72090,1,0
456,208,72351,1,0
456,208,72612,1,8
456,232,72873,1,8
408,176,73134,1,0
408,176,73394,1,0
408,176,73655,1,8
408,176,73916,1,8
424,152,74177,1,0
472,160,74438,1,0
464,192,74699,1,8
448,240,74960,1,0
352,352,75220,5,4
376,160,75481,1,8
376,160,75612,1,8
416,184,75742,1,0
160,192,76003,1,0
320,176,76264,1,8
320,176,76394,1,8
392,216,76525,1,0
392,216,76655,1,0
408,256,76786,1,0
448,240,77047,1,0
264,120,77307,1,0
264,120,77438,1,0
416,144,77568,1,8
416,144,77699,1,8
432,176,77829,1,0
400,192,78090,1,0
416,208,78351,1,8
416,208,78481,1,8
400,192,78612,1,0
400,192,78873,1,8
464,224,79134,1,0
128,112,79394,5,0
128,112,79525,1,0
296,144,79655,1,8
296,144,79916,1,8
344,200,80047,1,8
408,256,80177,1,0
312,240,80438,1,0
464,192,80960,1,8
296,144,81220,1,8
312,160,81351,1,8
416,192,81481,1,0
328,272,81742,1,0
328,272,81873,1,0
432,224,82003,1,8
464,224,82264,1,0
368,256,82525,1,0
368,256,82655,1,0
448,192,82786,1,0
416,192,83047,1,8
160,224,83307,1,0
280,168,83568,5,8
280,168,83699,1,8
432,160,83829,1,0
432,160,83960,1,0
432,160,84090,1,0
352,312,84351,1,0
352,312,84612,1,0
352,312,84742,1,0
352,312,84873,1,0
424,208,85134,1,8
472,232,85394,1,0
136,136,85655,1,0
136,136,85786,1,0
280,144,85916,1,8
280,144,86047,1,8
424,168,86177,1,0
424,168,86438,1,0
448,168,86699,1,8
448,168,86829,1,8
464,184,86960,1,0
464,184,87220,1,8
440,240,87481,1,0
272,184,87742,1,0
272,184,87873,1,0
384,176,88003,1,8
384,176,88134,1,8
448,168,88264,1,8
328,272,88525,1,0
384,176,88786,1,8
384,176,88916,1,8
440,208,89047,1,0
432,240,89307,1,8
328,272,89568,1,8
328,272,89699,1,8
352,328,89829,1,8
272,168,90220,1,8
272,168,90351,1,8
360,176,90612,1,8
360,176,90742,1,8
432,168,91003,1,8
432,168,91134,1,8
432,168,91394,1,8
432,168,91525,1,8
312,256,91786,1,0
312,256,91916,1,0
176,200,92177,1,0
336,224,92438,1,0
240,104,92829,1,8
392,152,92960,1,0
336,224,93220,1,0
384,184,93481,1,8
424,216,93742,1,0
336,224,94003,1,0
336,224,94134,1,0
328,280,94264,1,8
328,280,94394,1,8
360,224,94525,1,0
336,224,94786,1,0
368,168,95047,1,8
368,168,95177,1,8
408,168,95307,1,0
432,176,95568,1,8
416,232,95829,1,0
240,184,96090,1,0
240,184,96351,1,0
240,184,96612,1,0
240,104,97003,1,8
392,152,97134,1,0
336,224,97394,1,0
384,184,97655,1,8
424,216,97916,1,0
336,224,98177,1,0
336,224,98307,1,0
328,280,98438,1,8
328,280,98568,1,8
360,224,98699,1,0
336,224,98960,1,0
368,168,99220,1,8
368,168,99351,1,8
408,168,99481,1,0
432,176,99742,1,8
416,232,100003,1,0
264,200,100264,5,4
264,200,100786,1,4
304,160,101177,1,8
368,168,101307,1,0
368,168,101568,1,0
368,168,101699,1,0
456,184,101829,1,8
416,232,102090,1,0
304,232,102351,1,0
304,232,102481,1,0
408,192,102612,1,8
408,192,102742,1,8
464,224,102873,1,0
416,232,103134,1,0
328,208,103394,1,8
328,208,103525,1,8
408,192,103655,1,0
440,168,103916,1,8
464,192,104177,1,0
408,192,104438,1,4
408,192,104960,1,4
328,256,105351,1,0
328,256,105481,1,0
328,256,105742,1,0
328,256,105873,1,0
328,256,106003,1,0
336,280,106264,1,8
256,208,106525,1,0
280,192,106786,1,0
280,192,107047,1,0
136,176,107177,1,0
280,192,107307,1,0
328,200,107568,1,0
216,224,107699,1,0
328,200,107829,1,0
416,208,108090,1,12
304,248,108351,1,12
440,208,108612,5,4
392,192,109134,1,8
424,272,109394,1,0
424,272,109525,1,0
360,280,109786,1,0
360,280,109916,1,0
464,176,110177,1,8
280,272,110438,1,0
176,216,110699,1,0
176,216,110829,1,0
176,216,110960,1,0
176,216,111090,1,0
176,216,111220,1,0
328,288,111481,1,0
184,152,111742,1,0
184,152,111873,1,0
344,128,112003,1,0
344,128,112264,1,8
392,192,112394,1,8
368,144,112525,1,8
392,192,112655,1,8
384,216,112786,1,0
392,192,113307,1,0
232,240,113438,1,0
232,240,113699,1,0
256,144,113829,1,0
360,280,114090,1,0
224,152,114220,1,0
464,176,114351,1,8
280,272,114612,1,0
176,216,114873,1,0
176,216,115003,1,0
176,216,115134,1,0
176,216,115264,1,0
176,216,115394,1,0
328,288,115655,1,0
184,152,115916,1,0
184,152,116047,1,0
344,128,116177,1,0
344,128,116438,1,8
384,176,116568,1,8
368,144,116699,1,8
384,176,116829,1,8
464,208,116960,1,0
304,240,117481,1,12
328,328,118003,1,12
360,304,118525,1,12
360,304,118786,1,4
288,192,119047,1,8
288,192,119177,1,8
288,192,119307,1,8
288,192,119438,1,8
288,192,119568,1,8
416,232,119829,1,0
352,240,120090,1,12
400,144,120612,1,8
400,144,120742,1,8
400,144,120873,1,8
400,144,121003,1,8
416,272,121134,5,0
240,176,121655,1,8
240,176,121786,1,8
240,176,122047,1,8
240,176,122177,1,8
352,320,122438,1,8
352,320,122568,1,8
352,272,122699,1,8
400,144,123220,1,8
400,144,123351,1,8
400,144,123481,1,8
400,144,123612,1,8
400,144,123742,1,8
336,304,124003,1,8
336,304,124264,1,8
336,304,124394,1,8
336,304,124655,1,8
336,304,124786,1,8
352,264,124916,1,8
352,264,125047,1,8
336,192,125307,1,12
312,192,125829,1,8
352,264,126351,1,8
368,200,126873,1,8
432,232,127134,1,0
336,240,127394,1,0
336,240,127525,1,0
368,200,127655,1,8
368,200,127786,1,8
424,192,127916,1,0
400,216,128177,1,0
440,176,128438,1,8
440,176,128568,1,8
424,192,128699,1,0
328,184,128960,1,8
328,184,129090,1,8
328,184,129220,1,8
328,184,129351,1,8
376,208,129481,1,0
176,208,130003,1,0
328,184,130525,1,8
328,184,131047,1,8
304,192,131568,1,12
408,224,132090,1,0
224,80,132220,1,8
224,80,132481,1,8
352,264,132742,1,8
448,168,132873,1,0
392,192,133134,1,8
392,192,133264,1,8
392,192,133394,1,8
392,192,133525,1,8
408,224,133655,5,0
384,168,134177,1,8
448,168,134438,1,0
416,184,134699,1,0
416,184,134829,1,0
416,184,134960,1,0
488,176,135220,1,8
488,176,135481,1,0
256,192,135742,1,0
256,192,135873,1,0
320,200,136003,1,8
320,200,136134,1,8
416,184,136264,1,0
416,224,136525,1,0
416,224,136786,1,8
416,224,136916,1,8
456,200,137047,1,0
432,208,137307,1,8
456,200,137568,1,0
336,248,137829,1,0
416,224,138351,1,8
328,216,138612,1,0
328,216,138873,1,0
328,216,139003,1,0
328,216,139134,1,0
328,216,139264,1,0
448,192,139394,1,8
456,216,139655,1,0
320,296,139916,1,0
320,296,140047,1,0
368,248,140177,1,8
368,248,140307,1,8
368,248,140438,1,0
368,248,140699,1,0
424,192,140960,1,8
424,192,141090,1,8
456,216,141220,1,0
432,240,141481,1,8
408,240,141742,1,0
336,232,142003,1,0
336,232,142134,1,0
384,192,142264,1,8
424,192,142394,1,8
408,240,142525,1,0
352,312,142786,1,0
352,272,143047,1,0
352,272,143177,1,0
352,272,143307,1,0
400,208,143568,1,8
384,224,143829,1,0
384,224,144090,1,0
384,224,144220,1,0
432,192,144351,1,8
432,192,144481,1,8
384,224,144612,1,0
384,248,144873,1,0
416,176,145134,1,8
416,176,145264,1,8
432,192,145394,1,0
408,208,145655,1,8
416,232,145916,1,0
336,264,146177,1,0
336,264,146307,1,0
336,264,146438,1,0
336,264,146568,1,0
408,208,146699,1,8
408,208,146960,1,0
320,224,147220,1,0
320,224,147351,1,0
320,224,147481,1,0
320,224,147612,1,0
480,176,147742,1,8
408,208,148003,1,0
192,232,148264,1,0
192,232,148394,1,0
328,192,148525,1,8
328,192,148655,1,8
408,208,148786,1,0
368,232,149047,1,0
320,264,149307,1,8
320,264,149438,1,8
400,232,149568,1,0
368,232,149829,1,8
368,232,150090,1,0
400,168,150351,5,4
336,168,150873,1,8
432,192,151134,1,0
432,192,151394,1,0
432,192,151525,1,0
432,192,151655,1,0
432,192,151916,1,8
432,192,152177,1,0
360,256,152438,1,0
360,256,152568,1,0
416,216,152699,1,8
416,216,152829,1,8
440,216,152960,1,0
416,240,153220,1,0
392,216,153481,1,8
392,216,153612,1,8
456,192,153742,1,0
416,216,154003,1,8
392,216,154264,1,0
280,232,154525,1,0
280,232,154655,1,0
256,224,154786,1,0
320,272,155047,1,8
416,216,155307,1,0
368,272,155568,1,0
368,272,155699,1,0
368,272,155829,1,0
416,216,156090,1,8
440,200,156351,1,0
336,208,156612,1,0
336,208,156742,1,0
336,184,156873,1,8
336,208,157003,1,8
336,184,157134,1,0
336,208,157394,1,0
384,200,157655,1,8
384,200,157786,1,8
416,184,157916,1,0
456,200,158177,1,8
408,224,158438,1,0
280,248,158699,1,0
360,200,158960,1,0
360,200,159090,1,0
408,224,159220,1,8
304,240,159742,1,0
320,264,159873,1,0
320,264,160003,1,0
320,264,160134,1,0
424,208,160264,1,8
328,192,160786,1,0
328,192,160916,1,0
392,184,161047,1,8
392,184,161177,1,8
384,216,161307,1,0
384,216,161568,1,0
408,168,161829,1,8
408,168,161960,1,8
408,168,162090,1,0
464,160,162351,1,8
392,184,162612,1,0
256,192,162873,12,0,164438
184,184,164960,5,0
184,184,165090,1,0
184,184,165220,1,0
184,184,165351,1,0
184,184,165481,1,0
184,184,165742,1,0
360,288,166003,1,0
360,288,166134,1,0
304,272,166264,1,0
368,192,166525,1,12
368,192,166786,1,12
440,208,167047,5,4
392,192,167568,1,8
424,272,167829,1,0
424,272,167960,1,0
360,280,168220,1,0
360,280,168351,1,0
464,176,168612,1,8
280,272,168873,1,0
176,216,169134,1,0
176,216,169264,1,0
176,216,169394,1,0
176,216,169525,1,0
176,216,169655,1,0
328,288,169916,1,0
184,152,170177,1,0
184,152,170307,1,0
344,128,170438,1,0
344,128,170699,1,8
392,192,170829,1,8
368,144,170960,1,8
392,192,171090,1,8
384,216,171220,1,0
392,192,171742,1,0
232,240,171873,1,0
232,240,172134,1,0
256,144,172264,1,0
360,280,172525,1,0
224,152,172655,1,0
464,176,172786,1,8
280,272,173047,1,0
176,216,173307,1,0
176,216,173438,1,0
176,216,173568,1,0
176,216,173699,1,0
176,216,173829,1,0
328,288,174090,1,0
184,152,174351,1,0
184,152,174481,1,0
344,128,174612,1,0
344,128,174873,1,8
384,176,175003,1,8
368,144,175134,1,8
384,176,175264,1,8
464,208,175394,1,0
304,240,175916,1,12
328,328,176438,1,12
360,304,176960,1,12
360,304,177220,1,4
288,192,177481,1,8
288,192,177612,1,8
288,192,177742,1,8
288,192,177873,1,8
288,192,178003,1,8
416,232,178264,1,0
352,240,178525,1,12
400,144,179047,1,8
400,144,179177,1,8
400,144,179307,1,8
400,144,179438,1,8
416,272,179568,5,0
240,176,180090,1,8
240,176,180220,1,8
240,176,180481,1,8
240,176,180612,1,8
352,320,180873,1,8
352,320,181003,1,8
352,272,181134,1,8
400,144,181655,1,8
400,144,181786,1,8
400,144,181916,1,8
400,144,182047,1,8
400,144,182177,1,8
336,304,182438,1,8
336,304,182699,1,8
336,304,182829,1,8
336,304,183090,1,8
336,304,183220,1,8
352,264,183351,1,8
352,264,183481,1,8
344,176,183742,1,12
280,136,184264,1,8
280,136,184786,1,8
280,136,185307,1,0
280,136,185568,1,0
344,240,185829,1,0
344,240,186351,1,0
344,240,186873,1,0
368,184,187394,1,8
368,184,187525,1,8
368,184,187655,1,8
368,184,187786,1,8
408,256,187916,1,8
336,320,188438,1,8
360,248,188960,1,8
400,168,189481,1,8
432,176,189742,1,0
400,200,190003,1,8
320,224,190525,1,8
376,184,191047,1,0
344,200,191568,1,8
344,200,191699,1,8
344,200,191829,1,8
344,200,191960,1,8
392,240,192090,5,0
344,264,192612,1,8
344,200,193134,1,0
344,200,193394,1,0
464,192,193655,1,8
248,272,194177,1,0
248,272,194307,1,0
248,272,194438,1,0
248,272,194568,1,0
248,272,194699,1,0
320,328,194960,1,0
320,328,195221,1,0
320,328,195351,1,0
320,328,195481,1,0
320,328,195742,1,0
320,328,196003,1,0
336,304,196264,1,0
360,175,196786,1,8
360,175,197307,1,0
360,175,197568,1,0
445,188,197829,1,8
338,240,198351,1,0
338,240,198481,1,0
338,240,198612,1,0
338,240,198742,1,0
338,240,198873,1,0
338,240,199134,1,0
229,127,199394,1,0
229,127,199525,1,0
229,127,199655,1,0
229,127,199916,1,0
229,127,200177,1,0
456,168,200438,1,4
